
//----- song ID: ddda -----//
#TITLE:Deadly Dolly Dance;
#ARTIST:Shiron;
#BANNER:Deadly Dolly Dance.png;
#BACKGROUND:Deadly Dolly Dance-bg.png;
#CDTITLE:./CDTitles/SDVX III GRAVITY WARS.png;
#MUSIC:Deadly Dolly Dance.ogg;
#SAMPLESTART:15;
#SAMPLELENGTH:15;
#BPMS:0=160;
#BGSTAGE:17;
#NOTES:
     dance-single:
     :
     Beginner:
     2:
     :
0000
0000
0000
0000
,
0000
0000
0000
0000
,
0000
0000
0000
0000
,
0000
0000
0000
0000
,
0000
0000
0000
0000
,
0000
0000
0000
0000
,
0001
0000
0000
0000
,
0000
0000
0000
0000
,
1000
0000
0000
0000
,
0000
0000
0000
0000
,
0001
0000
0000
0000
,
0001
0000
0000
0000
,
0010
0000
0000
0000
,
0000
0000
0000
0000
,
0010
0000
0000
0000
,
0010
0000
0000
0000
,
1000
0000
0000
0000
,
0000
0000
0000
0000
,
1000
0000
0000
0000
,
1000
0000
0000
0000
,
0010
0000
0000
0000
,
0000
0000
0000
0000
,
0010
0000
0000
0000
,
0010
0000
0000
0000
,
0001
0000
0000
0000
,
0000
0000
0000
0000
,
0001
0000
0010
0000
,
0001
0000
0000
0000
,
0010
0000
0000
0000
,
0000
0000
0000
0000
,
1000
0000
0010
0000
,
1000
0000
0000
0000
,
0010
0000
0000
0000
,
0000
0000
0000
0000
,
0001
0000
0001
0000
,
0100
0000
0000
0000
,
0010
0000
0000
0000
,
0000
0000
0000
0000
,
1000
0000
1000
0000
,
0100
0000
0000
0000
,
0010
0000
0000
0000
,
0000
0000
0000
0000
,
1001
0000
0000
0000
,
0000
0000
0000
0000
,
1001
0000
0000
0000
,
0000
0000
0000
0000
,
1001
0000
0000
0000
,
0000
0000
0000
0000
,
1001
0000
0000
0000
,
0001
0000
0010
0000
,
2000
0000
0000
0000
,
3000
0000
0000
0000
,
0020
0000
0000
0000
,
0030
0000
0000
0000
,
0002
0000
0000
0000
,
0003
0000
0000
0000
,
0020
0000
0000
0000
,
0030
0000
0000
0000
,
1001
0000
0000
0000
,
1000
0000
0000
0000
,
0100
0000
0000
0000
,
0010
0000
0000
0000
,
0001
0000
0000
0000
,
0010
0000
0000
0000
,
0010
0000
0000
0000
,
0010
0000
0000
0000
,
0010
0000
0000
0000
,
0001
0000
0001
0000
,
0010
0000
0000
0000
,
0010
0000
0100
0000
,
0010
0000
0000
0000
,
1000
0000
1000
0000
,
0010
0000
0000
0000
,
0010
0000
0100
0000
,
0010
0000
0000
0000
,
1001
0000
0000
0000
,
0000
0000
0000
0000
,
1001
0000
0000
0000
,
0001
0000
0001
0000
,
0000
0000
0000
0000
;
#NOTES:
     dance-single:
     :
     Easy:
     5:
     :
0000
0000
0000
0000
,
0000
0000
0000
0000
,
0000
0000
0000
0000
,
0000
0000
0000
0000
,
0000
0000
0000
0000
,
0000
0000
0000
0000
,
1000
0000
0100
0000
,
1000
0000
0001
0000
,
0010
0000
0001
0000
,
1000
0000
0000
0000
,
0001
0000
0100
0000
,
0001
0100
0010
0000
,
1000
0000
0100
0000
,
1000
0100
0010
0000
,
0001
0000
0010
0000
,
0001
0010
0100
0000
,
1000
0000
0010
0000
,
1000
0010
0100
0000
,
0001
0000
1000
0000
,
0020
0000
0000
0030
,
1000
0000
0001
0000
,
0020
0000
0000
0030
,
0110
0000
0000
0000
,
1001
0000
0000
0000
,
1000
0100
0010
0001
,
2000
0000
0000
3000
,
0001
0100
0001
0000
,
0100
0010
0100
0000
,
0010
1000
0010
0000
,
1001
0000
0000
0000
,
1000
0100
1000
0000
,
0100
0010
0100
0000
,
0010
0001
0010
0000
,
1001
0000
0000
0000
,
0001
0100
0010
0100
,
0001
0100
0010
0000
,
1000
0100
0010
0100
,
1000
0100
0010
0000
,
0001
1000
0010
1000
,
0001
1000
0010
0000
,
1000
0001
0010
0001
,
1000
0001
0010
0000
,
1001
0000
0000
0000
,
1001
0000
0000
0000
,
1001
0000
0000
0000
,
1000
0100
0010
0000
,
1001
0000
0000
0000
,
1001
0000
0000
0000
,
1001
0000
0000
0000
,
0001
0100
0010
0000
,
2000
0000
0000
3000
,
1000
0000
0001
0000
,
0002
0000
0000
0003
,
0001
0000
0100
0000
,
0200
0000
0000
0300
,
0100
0000
0010
0000
,
0020
0000
0000
0030
,
0200
0000
0000
0300
,
0001
0000
0000
0000
,
1000
0000
1000
0000
,
1000
0000
0000
0000
,
0001
0000
0001
0000
,
0001
0000
0000
0000
,
0100
0000
0100
0000
,
0100
0000
0000
0000
,
0010
0000
0010
0000
,
0010
0000
0000
0000
,
1000
0010
0100
0001
,
0010
0100
0010
0000
,
0001
1000
0100
0010
,
0001
0100
0010
0000
,
1000
0001
0100
0001
,
0010
0100
1000
0000
,
0001
1000
0100
1000
,
0010
0100
0001
0000
,
1001
0000
0000
0000
,
0110
0000
0000
0000
,
1001
0000
0000
0000
,
0001
1000
0001
0000
,
0000
0000
0000
0000
;
#NOTES:
     dance-single:
     :
     Medium:
     12:
     :
0000
0000
0000
0000
,
0000
0000
0000
0000
,
0000
0000
0000
0000
,
0000
0000
0000
0000
,
0000
0000
0000
0000
,
0000
0000
0000
0000
,
2000
0000
0000
3000
,
0002
0000
0000
0003
,
0100
0010
0000
0110
0000
1001
0000
1000
,
0002
0000
0000
0003
,
1000
0000
1010
0000
0010
0100
0001
0100
,
0001
0000
0011
0000
0010
0100
1000
0100
,
1000
0000
1100
0000
0100
0010
0001
0010
,
0001
0000
0101
0000
0100
0010
1000
0000
,
0001
0000
1001
0000
1000
0100
0001
0100
,
1000
0000
1001
0000
0001
0100
1000
0100
,
0001
0000
1001
0000
1000
0010
0001
0010
,
1000
0000
1001
0000
0001
0010
1000
0010
,
0001
0000
1000
0100
0010
0000
0001
0100
,
0010
0010
0010
0010
0010
0010
0010
0000
,
1000
0000
0001
0010
0100
0000
1000
0010
,
0100
0100
0100
0100
0100
0100
0100
0000
,
0001
0110
1000
0110
,
1001
0110
2002
3003
,
1000
0100
0010
0001
0100
0010
1000
0000
,
0002
0000
0000
0003
,
0001
0010
1000
0010
0001
0100
0010
1000
,
0001
0100
1000
0100
0001
0010
0100
0000
,
1000
0100
0010
0100
0001
0100
0010
0100
,
1000
0001
0010
0100
2000
0000
3001
0000
,
1000
0100
0001
0100
1000
0010
0100
0001
,
1000
0010
0001
0010
1000
0100
0010
0000
,
0001
0010
0100
0010
1000
0010
0100
0010
,
0001
1000
0100
0010
0002
0000
1003
0000
,
0001
0011
0000
1100
0000
0011
0000
1100
,
0000
1010
0000
0101
0000
1010
0000
0101
,
0000
0110
0000
1001
0000
0110
0000
1001
,
0000
0000
0000
0001
0000
0000
0000
0000
0100
0000
0000
0010
0000
0000
0000
0100
0000
0000
0010
0000
0000
0000
0000
0000
,
1000
1100
0000
0011
0000
1100
0000
0011
,
0000
0101
0000
1010
0000
0101
0000
1010
,
0000
0110
0000
1001
0000
0110
0000
1001
,
0001
0010
0001
0010
0100
1000
0100
0000
,
1000
0000
0000
0000
0000
0000
0000
1001
,
0110
0000
0000
0000
0000
0000
0000
0110
,
1001
0000
0000
0000
,
0110
0000
0000
0000
1000
0010
0100
0010
,
1000
1100
0100
1100
,
0001
0011
0010
0011
,
1000
1010
0001
0101
,
1000
0000
0000
0001
0000
0000
1000
0000
0000
0000
0000
1001
0000
0000
0000
0000
0000
0000
0000
0000
0000
0000
0000
0000
,
2000
3200
0320
0000
,
0031
1000
0010
0100
0001
1000
0100
0010
,
0002
0023
0230
0000
,
1300
0001
0100
0010
1000
0001
0010
0100
,
2000
0000
3200
0000
0302
0000
0103
1000
,
0001
0010
0001
0010
0100
1000
0100
1000
,
0002
0000
0203
0000
2300
0000
3100
0001
,
2000
0000
3020
0000
0032
0000
0013
1000
,
0010
0000
0000
0100
0000
0000
0010
0000
0000
0000
1000
0000
0001
0000
0000
0000
,
2000
0000
0000
3000
,
0020
0000
0000
0030
,
0200
0000
0000
0300
,
0002
0000
0000
0003
,
1000
0000
1001
0000
,
0001
0000
1001
0000
,
0100
0010
0100
0010
,
0220
0000
0000
0330
,
1000
0010
0100
0001
1000
0100
0010
0001
,
0010
1000
0010
0001
1000
0100
1000
0000
,
0001
0100
0001
0010
0100
1000
0010
0100
,
0010
1000
0000
0000
0001
0000
1001
0000
,
0001
0100
0010
1000
0001
0010
0100
1000
,
0100
0001
0100
1000
0001
0010
0001
0000
,
1000
0010
1000
0100
0010
0001
0100
0010
,
0100
0001
1000
0100
0010
0001
1000
0000
,
1001
0000
0000
0000
0000
0000
0000
0011
,
1100
0000
0000
0000
0000
0000
0000
1010
,
0101
0000
0000
0000
,
0001
0000
0000
1000
0000
0000
0001
0000
0000
0000
0000
1001
0000
0000
0000
0000
0000
0000
0000
0000
0000
0000
0000
0000
,
0000
0000
0000
0000
;
#NOTES:
     dance-single:
     :
     Hard:
     17:
     :
0000
0000
0000
0000
,
0000
0000
0000
0000
,
0000
0000
0000
0000
,
0000
0000
0000
0000
,
0000
0000
0000
0000
,
0000
0000
0000
0000
,
2002
0000
0000
3003
,
0220
0000
0000
0000
0330
0110
0000
1000
,
0100
0010
0000
0011
0000
1001
0000
0001
,
2000
0000
0000
3000
,
0001
0000
0100
0001
0000
0100
0010
0000
0100
0010
0000
0000
1000
0000
0000
1000
0000
0000
0001
0000
0000
0001
0000
0000
,
1000
0000
0100
1000
0000
0100
0010
0000
0100
0010
0000
0000
0001
0000
0000
0001
0000
0000
1000
0000
0000
1000
0000
0000
,
0001
0000
0010
0001
0000
0010
0100
0000
0010
0100
0000
0000
1000
0000
0000
1000
0000
0000
0001
0000
0000
0001
0000
0000
,
1000
0000
0010
1000
0000
0010
0100
0000
0010
0100
0000
0000
0001
0000
0000
0001
0000
0000
1000
0000
0000
1000
0000
0000
,
0001
0000
0010
0100
0000
0010
0001
0000
0010
0100
0000
0000
1000
0000
0000
0100
0000
0000
0001
0000
0000
0100
0000
0000
,
1000
0000
0010
0100
0000
0010
1000
0000
0010
0100
0000
0000
0001
0000
0000
0100
0000
0000
1000
0000
0000
0100
0000
0000
,
0001
0000
0100
0010
0000
0100
0001
0000
0100
0010
0000
0000
1000
0000
0000
0010
0000
0000
0001
0000
0000
0010
0000
0000
,
1000
0000
0100
0010
0000
0100
1000
0000
0100
0010
0000
0000
0001
0000
0000
0010
0000
0000
1000
0000
0000
0010
0000
0000
,
0001
0000
0000
0100
0000
0010
1000
0000
0001
0100
0000
0010
1000
0000
0000
0100
0000
0000
0010
0000
0000
0001
0000
1000
,
0001
0000
0100
0001
0000
1000
0001
0000
0100
0001
0000
1000
0001
0000
0100
0001
0000
1000
0001
0000
0000
0000
0000
0000
,
1000
0000
0000
0010
0000
0100
0001
0000
1000
0010
0000
0100
0001
0000
0000
0010
0000
0000
0100
0000
0000
1000
0000
0001
,
1000
0000
0010
1000
0000
0001
1000
0000
0010
1000
0000
0001
1000
0000
0010
1000
0000
0001
1000
0000
0000
0000
0000
0000
,
0001
0000
0000
0100
0000
0010
0000
0000
0010
0000
0000
0010
0000
0000
0010
0000
0000
0010
0000
0000
0010
0000
0000
0010
,
1000
0000
0000
0100
0000
0010
0000
0000
0001
0010
0000
0000
0001
0000
0010
0000
0100
0000
1000
0000
0010
0000
0100
0000
,
0001
0000
0000
0100
0000
0010
1000
0000
0010
0100
0000
0001
0100
0000
0000
0010
0000
0000
1000
0000
0000
0100
0000
0000
,
0020
0000
0000
0030
,
0001
0000
0010
0100
0000
1000
0010
0000
0100
0001
0000
1000
0000
0000
1000
0100
0000
0010
0100
0000
0001
0100
0000
0010
,
0100
0000
0000
1001
0000
0000
1000
0000
0100
0010
0000
0001
0000
0000
1000
0001
0000
0010
0100
0000
1000
0001
0000
1000
,
0000
0000
0000
1010
0000
0000
0010
1000
0010
1000
0000
0001
1000
0000
1000
0020
0000
0000
0230
0000
0000
0302
0000
0000
,
0103
0000
0010
1000
0000
0001
0010
0000
0100
1000
0000
0000
0001
1000
0001
1000
0001
1000
0001
0000
0000
0000
0000
0000
,
1000
0000
0100
0010
0000
0001
0100
0000
0010
1000
0000
0001
0000
0000
0001
0010
0000
0100
0010
0000
1000
0010
0000
0100
,
0010
0000
0000
1001
0000
0000
0001
0000
0010
0100
0000
1000
0000
0000
0001
1000
0000
0100
0010
0000
0001
1000
0000
0001
,
0000
0000
0000
0101
0000
0000
0100
0001
0100
0001
0000
0000
2000
0000
0000
3100
0000
0010
0002
0000
0000
2003
0000
0000
,
3010
0000
0100
0001
0000
1000
0100
0000
0010
0001
0000
0000
1000
0001
1000
0001
1000
0001
1000
0000
0000
0000
0000
0000
,
0001
0000
1000
0001
0000
1000
0001
0000
0000
0110
0000
0000
1000
0000
0000
0110
0000
0000
0001
0000
0000
0110
0000
0000
,
1000
0101
0010
0101
0010
1100
0001
1100
,
0100
0000
0000
1001
0000
0000
1000
0100
0010
0001
0000
0000
0010
0000
0000
1001
0000
0000
0001
0100
0010
1000
0000
0000
,
0001
0000
0000
0011
0000
0000
0000
0000
0110
0000
0000
0110
0000
0000
1000
0100
0000
0010
0001
0000
1000
0001
0000
0000
,
0001
0110
1000
0110
0001
0110
1000
0110
,
0001
1010
0100
1010
0100
0011
1000
0011
,
0010
0000
0000
1001
0000
0000
0001
0010
0100
1000
0000
0000
0100
0000
0000
1001
0000
0000
1000
0010
0100
0001
0000
0000
,
1000
0000
0000
0100
0000
0000
0001
0000
0000
0100
0000
0000
0010
0001
0010
0001
1000
0001
1000
0000
0000
0000
0000
0000
,
1001
0000
0000
0000
0000
0000
1000
0000
0000
0000
0000
0000
1000
0000
0000
0000
0000
1000
0100
0000
0010
0001
0000
1000
,
0001
0000
0000
0000
0000
1001
0000
0000
0001
0100
0000
0010
0000
0000
0000
1010
0000
0000
1000
0000
0010
0100
0010
0100
,
0010
0000
0000
0000
0000
0000
0110
0000
0000
0000
0000
0000
0100
0000
0000
0000
0000
0100
0010
0000
0000
1000
0000
0100
,
0010
0000
0000
0000
0000
1001
0000
0000
0000
0001
0010
0100
1000
0000
0000
1000
0000
0000
0001
0000
0100
0001
0000
0010
,
0100
0000
0000
0000
0000
0000
0110
0000
0000
0000
0000
0000
0001
0000
0000
0000
0000
0001
0010
0000
0100
1000
0000
0001
,
1000
0000
0000
0000
0000
1001
0000
0000
1000
0010
0000
0100
0000
0000
0000
0101
0000
0000
0001
0000
0100
0010
0100
0010
,
0100
0000
0000
0000
0000
0000
0110
0000
0000
0000
0000
0000
0010
0000
0000
0000
0000
0010
0100
0000
0001
1000
0001
1000
,
0001
0000
0000
1001
0000
0000
0100
0000
0010
0000
0000
1001
0000
0000
0000
0000
0000
0000
0000
0000
0000
0000
0000
0000
,
1100
0110
0022
0033
,
0001
0000
0000
0100
0001
0100
0001
0000
0000
1000
0010
1000
0010
0000
0000
1000
0000
0000
0001
0000
0000
0100
0000
0000
,
0101
0110
2020
3030
,
1000
0000
0100
0000
0010
0001
0100
0001
0010
0100
1000
0001
1000
0100
0010
0000
,
0011
0000
0101
0000
1001
0000
1000
0010
,
0100
0001
0100
0001
0000
0000
1000
0100
1000
0100
0000
0000
0010
0001
0010
0001
0000
0000
1000
0010
1000
0010
0000
0000
,
1000
0100
0001
0100
1000
0100
1001
0000
,
0001
0100
1000
0100
0001
0100
1001
0000
,
0010
0000
0000
0010
0000
0000
0010
0000
0000
0000
0100
0000
1001
0000
0000
0000
,
2000
0000
3020
0000
,
0230
0000
0000
0000
0000
0000
0300
0100
,
0002
0000
0023
0000
,
0230
0000
0000
0300
,
1001
0000
0110
0000
,
1001
0000
0110
0000
,
1001
0110
0001
1000
,
0220
0000
0000
0330
,
1000
0000
0100
0010
0000
0100
1000
0000
0001
0100
0000
0001
0000
0000
1000
0100
0000
0010
0100
0000
0000
1000
0001
1000
,
0001
0000
0000
0100
0000
0000
0010
0000
1000
0001
0000
0100
0000
0000
0001
0010
0000
0001
1000
0000
0100
1000
0000
0001
,
0000
0000
0000
1001
0000
0000
1000
0100
1000
0100
0000
0010
0000
0000
0000
0001
0100
0001
0100
0000
0000
0010
0000
0000
,
1000
0000
0000
2001
0000
0000
0000
0000
0000
0000
0000
0000
0001
0000
0001
0000
0001
0000
3001
0000
0000
0000
0000
0000
,
1000
0000
0010
0100
0000
0010
0100
0000
0001
1000
0000
0001
0000
0000
1000
0010
0000
1000
0001
0000
0100
0001
0000
0000
,
1000
0000
0000
0100
0010
0100
0010
0000
0000
0001
0000
1000
0000
0000
0001
0100
0000
0010
1000
0000
0001
0100
0000
0001
,
0000
0000
0000
1001
0000
0000
1000
0100
0010
0001
0000
0000
1001
0000
0000
1000
0000
0000
0001
0010
0100
1000
0000
0000
,
0001
0000
0010
0001
0000
0100
0010
0000
1000
0100
0000
0000
1000
0010
1000
0010
0000
0000
0100
0000
0001
0100
0000
0000
,
0101
0000
0000
0000
0000
0001
0100
0000
0000
0001
0000
0000
1000
0000
0100
0000
0000
0000
1100
0000
0000
0001
0000
0000
,
0011
0000
0000
0000
0000
0010
0001
0000
0000
1000
0000
0000
0010
0000
1000
0000
0000
0000
1100
0000
0000
1000
0001
1000
,
0001
0000
0000
0000
0000
0100
0001
0000
0000
0010
0000
0000
0001
0000
0100
0010
0000
1000
0100
0000
0010
0001
0000
0000
,
0010
0000
0000
0100
0000
0000
1000
0000
0001
0000
0000
1001
0000
0000
0000
1000
0000
0000
0001
0000
0000
0000
0000
0000
,
0000
0000
0000
0000
;
#NOTES:
     dance-double:
     :
     Easy:
     5:
     :
00000000
00000000
00000000
00000000
,
00000000
00000000
00000000
00000000
,
00000000
00000000
00000000
00000000
,
00000000
00000000
00000000
00000000
,
00000000
00000000
00000000
00000000
,
00000000
00000000
00000000
00000000
,
00001000
00000000
00010000
00000000
,
00001000
00000000
01000000
00000000
,
00010000
00000000
01000000
00000000
,
00100000
00000000
00000000
00000000
,
10000000
00010000
10000000
00000000
,
01000000
00000000
00100000
00000000
,
00010000
00100000
00010000
00000000
,
00100000
00000000
00001000
00000000
,
00010000
00001000
00010000
00000000
,
00000100
00000000
00010000
00000000
,
00000100
00001000
00000100
00000000
,
00000010
00000000
00000001
00000000
,
00001000
00000010
00001000
00000000
,
00000002
00000000
00000000
00000003
,
00000001
00001000
00000001
00000000
,
00002000
00000000
00000000
00003000
,
00001000
00000000
00000100
00000000
,
00010000
00000000
00001000
00000000
,
00100000
00010000
00100000
01000000
,
20000000
00000000
00000000
30000000
,
10000000
00000000
00100000
00000000
,
01000000
00010000
01000000
00000000
,
00010000
00000000
00100000
00000000
,
00001000
00010000
00001000
00000000
,
00010000
00000000
00000010
00000000
,
00001000
00000010
00001000
00000000
,
00000100
00000000
00000010
00000000
,
00000002
00000000
00000000
00000003
,
00000001
00000010
00000100
00000000
,
00001000
00000010
00000100
00000000
,
00000010
00001000
00000010
00010000
,
00001000
00000000
00011000
00000000
,
00001000
00100000
00001000
00000000
,
00100000
00010000
00100000
00000000
,
00010000
01000000
00100000
10000000
,
00100000
00000000
01100000
00000000
,
10010000
00000000
00000000
00000000
,
10000000
01000000
00010000
00000000
,
00011000
00000000
00000000
00000000
,
00001000
00000010
00000001
00000000
,
00001001
00000000
00000000
00000000
,
00000001
00000100
00001000
00000000
,
00011000
00000000
00000000
00000000
,
00010000
00100000
10000000
00000000
,
20000000
00000000
00000000
30000000
,
10000000
00000000
00100000
00000000
,
02000000
00000000
00000000
03000000
,
00010000
00000000
01000000
00000000
,
00002000
00000000
00000000
00003000
,
00001000
00000000
00010000
00000000
,
00000020
00000000
00000000
00000030
,
00000200
00000000
00000000
00000300
,
00000001
00000000
00000000
00000000
,
00000001
00000000
00000100
00000000
,
00001000
00000000
00000000
00000000
,
00010000
00000000
00100000
00000000
,
10000000
00000000
00000000
00000000
,
10000000
00000000
01000000
00000000
,
00010000
00000000
00000000
00000000
,
00001000
00000000
00000010
00000000
,
00000001
00000000
00000000
00000000
,
00000001
00000010
00000001
00000100
,
00000010
00001000
00000100
00000000
,
00001000
00000100
00010000
00001000
,
00100000
00000000
01100000
00000000
,
10000000
00100000
10000000
01000000
,
00100000
00010000
01000000
00000000
,
00010000
01000000
00001000
00010000
,
00000010
00000000
00000110
00000000
,
00001001
00000000
00000000
00000000
,
00000001
00000010
00001000
00000000
,
00011000
00000000
00000000
00000000
,
00010000
00001000
00010000
00000000
,
00000000
00000000
00000000
00000000
;
#NOTES:
     dance-double:
     :
     Medium:
     11:
     :
00000000
00000000
00000000
00000000
,
00000000
00000000
00000000
00000000
,
00000000
00000000
00000000
00000000
,
00000000
00000000
00000000
00000000
,
00000000
00000000
00000000
00000000
,
00000000
00000000
00000000
00000000
,
00002000
00000000
00000000
00003000
,
00020000
00000000
00000000
00030000
,
00001000
00010000
00000000
00011000
00000000
00001000
00010000
00000100
,
00002000
00000000
00000000
00003000
,
00000001
00000000
00000011
00000000
00000010
00000100
00001000
00000000
,
00000100
00000000
00010100
00000000
00010000
00001000
00010000
00000000
,
00001000
00000000
00101000
00000000
00100000
00010000
00100000
00000000
,
01000000
00000000
11000000
00000000
10000000
00010000
01000000
00000000
,
00100000
00000000
10100000
00000000
00100000
01000000
00010000
00000000
,
01000000
00000000
01001000
00000000
00001000
00010000
00001000
00000000
,
00010000
00000000
00010010
00000000
00000010
00001000
00000010
00000000
,
00000100
00000000
00000101
00000000
00000001
00001000
00000100
00000000
,
00001000
00000001
00000010
00000000
00000100
00001000
00000100
00000000
,
00001000
00001000
00000100
00000100
00010000
00010000
00001000
00000000
,
00010000
00001000
00100000
00000000
00010000
01000000
00010000
00000000
,
00100000
00100000
01000000
01000000
10000000
10000000
00010000
00000000
,
10000000
01100000
01100000
00011000
,
00011000
00000110
00000220
00000330
,
00000001
00000010
00000100
00001000
00000100
00010000
00001000
00000000
,
00020000
00000000
00000000
00030000
,
00001000
00100000
00010000
01000000
00010000
00100000
01000000
10000000
,
00010000
01000000
00100000
01000000
00010000
10000000
00010000
00000000
,
10000000
01000000
00100000
00010000
01000000
00100000
10000000
01000000
,
00100000
00010000
00100000
00001000
00020000
00000000
00031000
00000000
,
00010000
00000010
00001000
00000100
00001000
00000010
00000100
00000001
,
00001000
00000100
00000010
00000100
00001000
00000001
00001000
00000000
,
00000001
00000100
00000010
00001000
00000100
00000010
00000001
00000100
,
00000010
00001000
00000010
00010000
00002000
00000000
00013000
00000000
,
00001000
00010000
00000000
01000000
00100000
01000000
00000000
00010000
,
00001000
00010000
00000000
00100000
01000000
00100000
00000000
00010000
,
00001000
00010000
00000000
01000000
00100000
00001000
00000000
00010000
,
00002000
00000000
00010000
00013000
,
00010000
00001000
00000000
00000100
00000010
00000100
00000000
00001000
,
00010000
00001000
00000000
00000010
00000100
00000010
00000000
00001000
,
00010000
00001000
00000000
00000100
00000010
00010000
00000000
00001000
,
00020000
00000000
00001000
00031000
,
00011000
00000000
00000000
00000000
00000000
00000000
00001000
00010000
,
00100000
00000000
00000000
00000000
00000000
00000000
10000000
01000000
,
00010000
00000000
00000000
00000000
00000000
00000000
00001000
00000010
,
00000001
00000000
00000110
00001001
,
00000001
00000010
00000100
00000000
00001100
00000000
00010100
00000000
,
00010000
00001000
01000000
00000000
01001000
00000000
01010000
00000000
,
00010000
01000000
00100000
00000000
10100000
00000000
10010000
00000000
,
00010000
00000000
00000000
10000000
00000000
00000000
00010000
00000000
00000000
00000000
00000000
10010000
00000000
00000000
00000000
00000000
00000000
00000000
00000000
00000000
00000000
00000000
00000000
00000000
,
20000000
32000000
03200000
00000000
,
00310000
10000000
00100000
01000000
00010000
00100000
00001000
00010000
,
00000200
00000320
00000032
00000000
,
00001003
00000100
00010000
00001000
01000000
00010000
10000000
01000000
,
00200000
00302000
00023000
00000000
,
00031000
00000010
00001000
00010000
00001000
00100000
00001000
00000000
,
00020000
00000000
00030200
00000000
00002300
00000000
00003010
00000100
,
00000002
00000023
00002030
00013000
,
00001000
00000000
00000000
00010000
00000000
00000000
00011000
00000000
00000000
00000000
00000000
00000000
00000000
00000000
00000000
00000000
,
00002000
00000000
00000000
00003000
,
00020000
00000000
00000000
00030000
,
00200000
00000000
00000000
00300000
,
20000000
00000000
00000000
30000000
,
10000000
00000000
10010000
00000000
,
00010000
00000000
10010000
00000000
,
10000000
01000000
00100000
00001000
,
00022000
00000000
00000000
00033000
,
00001000
01000000
00010000
00100000
00010000
01000000
00100000
10000000
,
00010000
00100000
01000000
00100000
00010000
10000000
00010000
00000000
,
10000000
00100000
01000000
00010000
00100000
01000000
10000000
00100000
,
01000000
00010000
01000000
00001000
00020000
00000000
00031000
00000000
,
00010000
00000100
00001000
00000010
00001000
00000100
00000010
00000001
,
00001000
00000010
00000100
00000010
00001000
00000001
00001000
00000000
,
00000001
00000010
00000100
00001000
00000010
00000100
00000001
00000010
,
00000100
00001000
00000100
00010000
00002000
00000000
00013000
00000000
,
00011000
00000000
00000000
00000000
00000000
00000000
00010000
00001000
,
00000010
00000000
00000000
00000000
00000000
00000000
00000001
00000100
,
00001000
00000000
00000000
00000000
,
00010000
00000000
00000000
00001000
00000000
00000000
00010000
00000000
00000000
00000000
00000000
00011000
00000000
00000000
00000000
00000000
00000000
00000000
00000000
00000000
00000000
00000000
00000000
00000000
,
00000000
00000000
00000000
00000000
;
#NOTES:
     dance-double:
     :
     Hard:
     17:
     :
00000000
00000000
00000000
00000000
,
00000000
00000000
00000000
00000000
,
00000000
00000000
00000000
00000000
,
00000000
00000000
00000000
00000000
,
00000000
00000000
00000000
00000000
,
00000000
00000000
00000000
00000000
,
00002000
00000000
00000000
00003000
,
00020000
00000000
00000000
00000000
00030000
00011000
00000000
00001000
,
00100000
00010000
01000000
00100000
10000000
01000000
00100000
00010000
,
20000000
00000000
00000000
30000000
,
00010000
00000000
00100000
00010000
00000000
00100000
00001000
00000000
00100000
00001000
00000000
00000000
00010000
00000000
00000000
00000100
00000000
00000000
00001000
00000000
00000000
00000100
00000000
00000000
,
00000010
00000000
00000001
00000010
00000000
00000001
00001000
00000000
00000001
00001000
00000000
00000000
00000010
00000000
00000000
00000100
00000000
00000000
00000001
00000000
00000000
00001000
00000000
00000000
,
00000100
00000000
00010000
00000100
00000000
00010000
00001000
00000000
00010000
00001000
00000000
00000000
00100000
00000000
00000000
00010000
00000000
00000000
01000000
00000000
00000000
00010000
00000000
00000000
,
00100000
00000000
01000000
00100000
00000000
01000000
10000000
00000000
01000000
10000000
00000000
00000000
00010000
00000000
00000000
01000000
00000000
00000000
00100000
00000000
00000000
01000000
00000000
00000000
,
00010000
00000000
00100000
01000000
00000000
00100000
00010000
00000000
00100000
00001000
00000000
00000000
00010000
00000000
00000000
00000100
00000000
00000000
00001000
00000000
00000000
00000100
00000000
00000000
,
00000010
00000000
00000100
00001000
00000000
00000100
00010000
00000000
00000100
00001000
00000000
00000000
00000100
00000000
00000000
00000010
00000000
00000000
00000001
00000000
00000000
00001000
00000000
00000000
,
00000001
00000000
00000010
00000100
00000000
00001000
00000001
00000000
00000010
00000100
00000000
00000000
00010000
00000000
00000000
00001000
00000000
00000000
00100000
00000000
00000000
00010000
00000000
00000000
,
00100000
00000000
01000000
10000000
00000000
00010000
00100000
00000000
01000000
10000000
00000000
00000000
00010000
00000000
00000000
01000000
00000000
00000000
00010000
00000000
00000000
00100000
00000000
00000000
,
01000000
00000000
00000000
10000000
00000000
00000000
00100000
00000000
00000000
01000000
00000000
00000000
00010000
00000000
00000000
00100000
00000000
00000000
00001000
00000000
00000000
00010000
00000000
00000010
,
00001000
00000000
00000100
00010000
00000000
00000100
00001000
00000000
00000010
00010000
00000000
00000010
00001000
00000000
00000100
00010000
00000000
00000100
00001000
00000000
00000000
00000100
00000000
00000000
,
00000010
00000000
00000000
00000001
00000000
00000000
00000100
00000000
00000000
00000010
00000000
00000000
00010000
00000000
00000000
00001000
00000000
00000000
00010000
00000000
00000000
00001000
00000000
00100000
,
00010000
00000000
01000000
00001000
00000000
01000000
00010000
00000000
00100000
00001000
00000000
00100000
00010000
00000000
01000000
00001000
00000000
01000000
00010000
00000000
00000000
00000000
00000000
00000000
,
10000000
00000000
00000000
00100000
00000000
01000000
00000000
00000000
01000000
00000000
00000000
01000000
00000000
00000000
01000000
00000000
00000000
01000000
00000000
00000000
01000000
00000000
00000000
01000000
,
00010000
00000000
00000000
00000000
00000000
00100000
00010000
00000000
00100000
00001000
00000000
00000000
00010000
00000000
00000010
00000000
00001000
00000000
00000010
00000000
00000100
00000000
00000001
00000000
,
00001000
00000000
00000001
00000010
00000000
00000000
00000100
00000000
00010000
00001000
00000000
00000000
00100000
00000000
00000000
00010000
00000000
00000000
10000000
00000000
00000000
01000000
00000000
00000000
,
20000000
00000000
00000000
30000000
,
10000000
00000000
00000000
01000000
00000000
00000000
00100000
00000000
00010000
00100000
00000000
00001000
00000000
00000000
00001000
00010000
00000000
00000010
00001000
00000000
00000010
00000100
00000000
00000000
,
00000001
00000000
00000000
00001001
00000000
00000000
00001000
00000000
00000100
00000010
00000000
00000001
00000000
00000000
00001000
00000100
00000000
00010000
00000100
00000000
00010000
00001000
00000000
00000000
,
00010000
00000000
00000000
00011000
00000000
00000000
00001000
01000000
00001000
01000000
00000000
00010000
00000000
00000000
01000000
00200000
00000000
00000000
20300000
00000000
00000000
30020000
00000000
00000000
,
01030000
00000000
00100000
10000000
00000000
00100000
01000000
00000000
00010000
00100000
00000000
00000000
00010000
00100000
00010000
00100000
00010000
00100000
00010000
00000000
00000000
00000000
00000000
00000000
,
10000000
00000000
00000000
00100000
00000000
00000000
01000000
00000000
00010000
01000000
00000000
00001000
00000000
00000000
00001000
00010000
00000000
00000100
00001000
00000000
00000010
00000100
00000000
00000000
,
00000001
00000000
00000000
00001001
00000000
00000000
00001000
00000000
00000100
00000010
00000000
00000100
00000000
00000000
00001000
00000010
00000000
00000100
00000010
00000000
00000100
00001000
00000000
00010000
,
00000000
00000000
00000000
00011000
00000000
00000000
00001000
01000000
00001000
01000000
00000000
00000000
00020000
00000000
00000000
10030000
00000000
00100000
10000000
00000000
00000000
00020000
00000000
00000000
,
01030000
00000000
00100000
10000000
00000000
00000000
01000000
00000000
00100000
00010000
00000000
00000000
00100000
00001000
00100000
00001000
00010000
00001000
00010000
00000000
00000000
00000000
00000000
00000000
,
00001000
00000000
00010000
00001000
00000000
00010000
00001000
00000000
00000000
00011000
00000000
00000000
00010000
00000000
00000000
00010100
00000000
00000000
00000100
00000000
00000000
00000110
00000000
00000000
,
00000001
00001001
00000100
00000110
00000001
00000011
00000010
00000110
,
00000100
00000000
00000000
00010100
00000000
00000000
00010000
00001000
00100000
00010000
00000000
00000000
01000000
00000000
00000000
01100000
00000000
00000000
00100000
01000000
00010000
01000000
00000000
00000000
,
00010000
00000000
00000000
00110000
00000000
00000000
00000000
00000000
10000000
00000000
00000000
01000000
00000000
00000000
00100000
01000000
00000000
00010000
01000000
00000000
00010000
00001000
00000000
00000000
,
00010000
00010100
00000100
00001100
00001000
00001010
00000010
00010010
,
00010000
00011000
00001000
01001000
01000000
01010000
00100000
01100000
,
10000000
00000000
00000000
10010000
00000000
00000000
10000000
01000000
00100000
00010000
00000000
00000000
00100000
00000000
00000000
00101000
00000000
00000000
00100000
00001000
00010000
00001000
00000000
00000000
,
00010000
00000000
00000000
00000100
00000000
00000000
00001000
00000000
00000000
00000010
00000000
00000000
00000100
00000010
00000100
00000010
00000100
00000010
00000100
00000000
00000000
00000000
00000000
00000000
,
00001001
00000000
00000000
00000000
00000000
00000000
00000001
00000000
00000000
00000000
00000000
00000000
00000001
00000000
00000000
00000000
00000000
00000001
00000100
00000000
00001000
00010000
00000000
00100000
,
10000000
00000000
00000000
00000000
00000000
00100000
00000000
00000000
01000000
00100000
00000000
01000000
00000000
00000000
00000000
01100000
00000000
00000000
00100000
00000000
10000000
00010000
10000000
00010000
,
10000000
00000000
00000000
00000000
00000000
00000000
10000000
00000000
00000000
00000000
00000000
00000000
10000000
00000000
00000000
00000000
00000000
10000000
01000000
00000000
00010000
00001000
00000000
00000010
,
00000001
00000000
00000000
00000000
00000000
00000010
00000000
00000000
00000100
00000010
00000000
00000000
00000001
00000000
00000000
00000001
00000000
00000000
00001000
00000000
00000000
00001000
00000000
00000000
,
00001001
00000000
00000000
00000000
00000000
00000000
00000001
00000000
00000000
00000000
00000000
00000000
00000001
00000000
00000000
00000000
00000000
00000001
00000010
00000000
00001000
00010000
00000000
01000000
,
10000000
00000000
00000000
00000000
00000000
01000000
00000000
00000000
00100000
01000000
00000000
00100000
00000000
00000000
00000000
01100000
00000000
00000000
01000000
00000000
10000000
00010000
10000000
00010000
,
10000000
00000000
00000000
00000000
00000000
00000000
10000000
00000000
00000000
00000000
00000000
00000000
10000000
00000000
00000000
00000000
00000000
10000000
00100000
00000000
00010000
00001000
00000000
00000100
,
00000001
00000000
00000000
00000100
00000000
00000000
00000010
00000000
00001000
00000000
00000000
00000002
00000000
00000000
00000000
00000000
00000000
00000000
00000003
00000000
00000000
00000000
00000000
00000000
,
00000011
00001100
00022000
00033000
,
00001000
00000000
00000000
00100000
00000000
00010000
01000000
00000000
00100000
01000000
00000000
00010000
10000000
00000000
01000000
10000000
00000000
01000000
00100000
00000000
00010000
10000000
00000000
00000000
,
11000000
00110000
00022000
00033000
,
00001000
00000000
00010000
00000000
00000100
00001000
00000100
00000010
00000001
00001000
00000010
00000100
00000001
00001000
00000001
00000000
,
00000011
00001100
00022000
00033000
,
00001000
01000000
00001000
01000000
00000000
00000000
00010000
00100000
00010000
00100000
00000000
00000000
01000000
10000000
01000000
10000000
00000000
00000000
00010000
00000000
00000000
01000000
00000000
00000000
,
00100000
10000000
01000000
00100000
00010000
01000000
00100000
00010000
,
00001000
00000100
00000010
00001000
00000100
00000010
00000001
00000000
,
00000010
00000000
00000000
00000010
00000000
00000000
00000010
00000000
00000000
00000000
00000100
00000000
00001001
00000000
00000000
00000000
,
00000002
00000000
00000203
00000000
,
00002300
00000000
00000000
00000000
,
00023000
00000000
00230000
00000000
,
20300000
00000000
00000000
00000000
00000000
00000000
00000000
30000000
,
10100000
00000000
01100000
00000000
,
01010000
00000000
01001000
00000000
,
00011000
00010010
00001010
00000110
,
00002002
00000000
00000000
00003003
,
00000001
00000000
00000010
00000100
00000000
00000010
00000001
00000000
00000100
00000010
00000000
00000100
00000000
00000000
00000010
00001000
00000000
00000010
00010000
00000000
00001000
00010000
00000000
00000000
,
00001000
00000000
00000000
00010000
00000000
00000000
01000000
00000000
00100000
00010000
00000000
01000000
00000000
00000000
00100000
10000000
00000000
00100000
01000000
00000000
00010000
01000000
00000000
00010000
,
00000000
00000000
00000000
10010000
00000000
00000000
10000000
00100000
10000000
00100000
00000000
01000000
00000000
00000000
00000000
00010000
01000000
00010000
01000000
00000000
00000000
00001000
00000000
00000000
,
00010000
00000000
00000000
00012000
00000000
00000000
00000000
00000000
00000000
00000000
00000000
00000000
00010000
00000000
00010000
00000000
00010000
00000000
00013000
00000000
00000000
00000000
00000000
00000000
,
00001000
00000000
00010000
00000010
00000000
00010000
00000010
00000000
00001000
00000100
00000000
00001000
00000000
00000000
00000100
00000010
00000000
00000100
00000010
00000000
00000001
00001000
00000000
00000000
,
00000001
00000000
00000000
00000100
00000010
00001000
00000010
00000000
00000000
00001000
00000000
00000001
00000000
00000000
00001000
00000100
00000000
00010000
00001000
00000000
00100000
00010000
00000000
00100000
,
00000000
00000000
00000000
01100000
00000000
00000000
00010000
00100000
01000000
10000000
00000000
00000000
10010000
00000000
00000000
00010000
00000000
00000000
10000000
00100000
01000000
00010000
00000000
00000000
,
10000000
00000000
01000000
00100000
00000000
01000000
00010000
00000000
00001000
00000010
00000000
00000100
00000010
00000000
00000000
00000001
00001000
00000001
00001000
00000000
00000000
00000000
00000000
00000000
,
00001001
00000000
00000000
00000000
00000000
00000001
00000100
00000000
00000000
00001000
00000000
00000000
00010000
00000000
00100000
00000000
00000000
00000000
10100000
00000000
00000000
00000000
00000000
00000000
,
10010000
00000000
00000000
00000000
00000000
10000000
01000000
00000000
00000000
00010000
00000000
00000000
00001000
00000000
00000010
00000000
00000000
00000000
00000011
00000000
00000000
00000000
00000000
00000000
,
00001001
00000000
00000000
00000000
00000000
00000001
00000010
00000000
00000000
00001000
00000000
00000000
00010000
00000000
01000000
10000000
00000000
01000000
00010000
00000000
01000000
10000000
00000000
00000000
,
01000000
00000000
00000000
00010000
00000000
00000000
00001000
00000000
00010000
00000000
00000000
00011000
00000000
00000000
00000000
00001000
00000000
00000000
00010000
00000000
00000000
00000000
00000000
00000000
,
00000000
00000000
00000000
00000000
;
