#VERSION:0.83;
#TITLE:断罪のミメシス;
#ARTIST:KE!JU;
#TITLETRANSLIT:Danzai no mimesis;
#BANNER:Danzai no mimesis.png;
#BACKGROUND:Danzai no mimesis-bg.png;
#CDTITLE:./CDTitles/DDR WORLD.png;
#MUSIC:Danzai no mimesis.ogg;
#SAMPLESTART:90.001;
#SAMPLELENGTH:15;
#BPMS:0=250;
#NOTEDATA:;
#STEPSTYPE:dance-single;
#DIFFICULTY:Beginner;
#METER:3;
#NOTES:
0000
0000
0000
0000
,
0000
0000
0000
0000
,
0000
0000
0000
0000
,
0000
0000
0000
0000
,
0000
0000
0000
0000
,
0000
0000
0000
0000
,
0000
0000
0000
0000
,
0000
0000
0000
0000
,
0000
0000
0000
0000
,
0000
0000
0000
0000
,
0001
0000
0000
0000
,
0000
0000
0000
0000
,
0001
0000
0000
0000
,
0000
0000
0000
0000
,
1000
0000
0000
0000
,
0000
0000
0000
0000
,
1000
0000
0000
0000
,
0000
0000
0000
0000
,
0010
0000
0000
0000
,
0000
0000
0000
0000
,
1000
0000
0000
0000
,
0000
0000
0000
0000
,
0001
0000
0000
0000
,
0000
0000
0000
0000
,
1000
0000
0000
0000
,
0000
0000
0000
0000
,
0001
0000
0000
0000
,
0000
0000
0000
0000
,
0100
0000
0000
0000
,
0000
0000
0000
0000
,
0100
0000
0000
0000
,
0000
0000
0000
0000
,
0010
0000
0000
0000
,
0000
0000
0000
0000
,
0010
0000
0000
0000
,
0000
0000
0000
0000
,
1000
0000
0000
0000
,
0000
0000
0000
0000
,
1000
0000
0000
0000
,
0000
0000
0000
0000
,
0001
0000
0000
0000
,
0000
0000
0000
0000
,
0001
0000
0000
0000
,
0000
0000
0000
0000
,
1000
0000
0000
0000
,
0000
0000
0000
0000
,
0010
0000
0000
0000
,
0000
0000
0000
0000
,
1000
0000
0000
0000
,
0000
0000
0000
0000
,
0001
0000
0000
0000
,
0000
0000
0000
0000
,
0100
0000
0000
0000
,
0000
0000
0000
0000
,
0001
0000
0000
0000
,
0000
0000
0000
0000
,
1000
0000
0000
0000
,
0000
0000
0000
0000
,
0001
0000
0000
0000
,
0000
0000
0000
0000
,
0100
0000
0000
0000
,
0000
0000
0000
0000
,
0100
0000
0000
0000
,
0000
0000
0000
0000
,
0010
0000
0000
0000
,
0000
0000
0000
0000
,
0010
0000
0000
0000
,
0000
0000
0000
0000
,
1000
0000
0000
0000
,
0000
0000
0000
0000
,
1000
0000
0000
0000
,
0000
0000
0000
0000
,
0001
0000
0000
0000
,
0000
0000
0000
0000
,
0001
0000
0000
0000
,
0000
0000
0000
0000
,
0100
0000
0000
0000
,
0000
0000
0000
0000
,
0000
0000
0000
0000
,
0000
0000
0000
0000
,
0100
0000
0000
0000
,
0000
0000
0000
0000
,
0000
0000
0000
0000
,
0000
0000
0000
0000
,
0100
0000
0000
0000
,
0000
0000
0000
0000
,
0010
0000
0000
0000
,
0000
0000
0000
0000
,
1000
0000
0000
0000
,
0000
0000
0000
0000
,
0001
0000
0000
0000
,
0000
0000
0000
0000
,
1001
0000
0000
0000
,
0000
0000
0000
0000
,
0001
0000
0000
0000
,
1000
0000
0000
0000
,
0010
0000
0000
0000
,
0000
0000
0000
0000
,
1000
0000
0000
0000
,
0001
0000
0000
0000
,
0100
0000
0000
0000
,
0000
0000
0000
0000
,
0010
0000
0000
0000
,
1000
0000
0000
0000
,
0001
0000
0000
0000
,
0000
0000
0000
0000
,
0100
0000
0000
0000
,
0001
0000
0000
0000
,
1000
0000
0000
0000
,
0000
0000
0000
0000
,
0001
0000
0000
0000
,
0001
0000
0000
0000
,
1000
0000
0000
0000
,
1000
0000
0000
0000
,
0010
0000
0000
0000
,
0010
0000
0000
0000
,
0010
0000
0000
0000
,
0000
0000
0000
0000
,
1000
0000
0000
0000
,
1000
0000
0000
0000
,
0001
0000
0000
0000
,
0001
0000
0000
0000
,
0100
0000
0000
0000
,
0100
0000
0000
0000
,
0100
0000
0000
0000
,
0000
0000
0000
0000
,
0020
0000
0000
0000
,
0000
0000
0000
0000
,
0030
0000
0000
0000
;
#NOTEDATA:;
#STEPSTYPE:dance-single;
#DIFFICULTY:Easy;
#METER:8;
#NOTES:
0000
0000
0000
0000
,
0000
0000
0000
0000
,
0000
0000
0000
0000
,
0000
0000
0000
0000
,
0000
0000
0000
0000
,
0000
0000
0000
0000
,
0000
0000
0000
0000
,
0000
0000
0000
0000
,
0000
0000
0000
0000
,
0000
0000
0000
0000
,
0001
0000
1000
0000
,
0001
0000
0100
0000
,
0001
0000
0010
0000
,
0100
0000
1000
0000
,
0010
0010
0010
0000
,
0100
0100
0100
0000
,
0002
0000
0000
0000
,
2000
0000
0000
0000
,
3003
0000
0000
0000
,
0000
0000
0000
0000
,
0001
0000
1000
0000
,
0010
0000
0100
0000
,
0001
0000
0010
0000
,
0001
0000
1000
0000
,
0010
0000
0100
0000
,
0001
0000
0010
0000
,
0100
0000
1000
0000
,
1001
0000
0110
0000
,
0001
0100
0001
0000
,
1000
0010
0100
0000
,
0001
0001
1000
0100
,
0010
0100
1000
0000
,
0001
0001
0100
0000
,
0010
1000
0001
0000
,
1000
1000
0100
0010
,
0001
1000
0001
0000
,
1000
0000
1100
0000
,
0001
0000
0101
0000
,
1000
0000
1100
0000
,
0001
0000
0101
0000
,
1000
0000
1010
0000
,
0001
0000
0011
0000
,
1000
0000
1010
0000
,
0001
0000
0011
0000
,
0010
0100
1000
0000
,
1000
0001
0100
0000
,
0001
0010
0100
1000
,
1000
0001
0100
0000
,
0001
0000
1000
0000
,
0001
0010
0100
0000
,
0010
0000
0001
0000
,
2000
0000
3000
0000
,
0100
0010
0001
0000
,
0001
1000
0010
0000
,
1000
0100
0010
0001
,
0001
1000
0010
0000
,
1000
0000
0001
0000
,
1000
0100
0010
0000
,
0002
0000
0000
0000
,
2000
0000
3003
0000
,
0001
0000
1000
0000
,
0010
0100
0001
0000
,
0010
0001
0100
0001
,
0010
0001
0100
0000
,
0001
0000
1000
0000
,
0100
0000
0010
0000
,
0001
1000
0001
0100
,
0001
0010
0001
0000
,
1000
0000
0001
0000
,
0100
0010
1000
0000
,
0100
1000
0010
1000
,
0100
1000
0010
0000
,
1000
0000
0001
0000
,
0010
0000
0100
0000
,
2000
0000
0000
0000
,
0002
0000
3003
0000
,
1000
0000
0000
0000
,
0001
0000
0000
0000
,
0100
0000
0000
0000
,
0010
0000
0000
0000
,
0100
0000
0000
0000
,
0001
0000
0000
0000
,
0010
0000
0000
0000
,
0001
0000
1000
0000
,
1001
0000
0001
0000
,
0100
0000
0010
0000
,
1000
0000
0100
0000
,
1000
0000
0001
0000
,
0100
0001
0100
0001
,
1000
0100
1000
0100
,
2000
0000
0000
0000
,
0002
0000
3003
0000
,
0200
0000
0000
0000
,
0020
0000
0330
0000
,
1000
0000
0001
0000
,
0010
0001
1000
0001
,
0010
0000
0100
0000
,
1000
0000
0001
1000
,
0010
0000
1000
0000
,
0001
0000
0010
0000
,
0001
0000
0100
0010
,
1000
0000
0001
0000
,
0100
0000
0001
0000
,
1000
0100
0010
0100
,
1000
0000
0001
0000
,
0100
0010
1000
0010
,
0100
0000
0001
0000
,
1000
0000
0100
0000
,
2000
0000
0000
0000
,
0002
0000
3003
0000
,
0001
0100
0001
0100
,
0010
1000
0001
0000
,
1000
0100
1000
0100
,
0010
0001
1000
0000
,
0001
0000
0100
0000
,
0010
0000
0100
0000
,
0001
0000
1000
0000
,
0100
0000
0010
0000
,
0001
1000
0001
1000
,
0010
0100
0010
0100
,
0001
0000
1000
0000
,
0100
0000
0010
0000
,
0001
0010
0001
0100
,
0010
1000
0100
1000
,
0020
0000
0000
0000
,
0230
0000
0301
0000
,
2002
0000
0000
0000
,
0000
0000
0000
0000
,
3003
0000
0000
0000
;
#NOTEDATA:;
#STEPSTYPE:dance-single;
#DIFFICULTY:Medium;
#METER:13;
#BPMS:0=125,20=250,124=125,140=250,268=125,284=250;
#NOTES:
0000
0000
0000
0000
,
0000
0000
0000
0000
,
0000
0000
0000
0000
,
0000
0000
0000
0000
,
0000
0000
0000
0000
,
0001
0000
1000
0000
0001
0000
1000
0100
,
0010
0001
1000
0001
,
0100
0000
0010
0000
1000
0000
0001
0010
,
0100
1000
0001
1000
,
0010
0000
0100
0000
0001
0000
1000
0100
,
1000
0001
0100
0010
,
1000
0100
1000
0000
0001
0010
0001
0000
,
1000
0001
1000
0001
0100
0010
1000
0000
,
2002
0000
0000
0000
,
3003
0000
0000
0000
,
0001
0100
0010
0100
,
0001
0010
0001
0100
,
0110
0010
1000
0100
,
1000
0010
1000
0100
,
0110
0010
0001
0100
,
0010
0100
0001
0010
,
0001
1000
0001
1000
0001
0000
0100
0000
,
0110
0000
1001
0000
,
0001
0000
0010
0000
0100
0000
1000
0010
,
0000
0100
0000
0010
1000
0000
0001
0000
,
0100
0010
0100
0000
0010
0000
0010
0000
,
1000
0001
1000
0000
0001
0000
0001
0000
,
0100
0000
0001
0000
0010
0000
0100
1000
,
0000
0001
0000
1000
0100
0000
0010
0000
,
0001
0000
0001
0000
0100
0010
0100
0000
,
0001
0000
1000
0000
0010
0100
0010
0000
,
2000
0000
3100
0000
1000
0010
0100
0000
,
0001
0000
1000
0000
0001
0010
0100
0000
,
1000
0000
1010
0000
0001
0001
0100
0010
,
1000
1000
0010
0100
0001
0001
1000
0000
,
0020
0000
0130
0001
0000
0001
0010
0000
,
0100
0000
1000
0010
0000
0010
0100
0000
,
0001
0000
1000
0100
0000
0010
0001
0000
,
1000
0000
0001
0100
0000
0010
1000
0000
,
0001
0010
0001
1000
,
0010
0100
0001
0010
,
0100
1000
0001
0100
,
0010
0000
1000
0100
0010
0000
0001
0000
,
1000
0000
0001
0100
0000
0100
0010
0000
,
1000
0000
0100
1000
0000
1000
0010
0000
,
0100
0000
0001
0010
0000
0100
1000
0000
,
0001
0000
1000
0010
0000
0100
0001
0000
,
1000
0100
1000
0001
,
0100
0010
1000
0000
,
0001
1000
0001
1000
0001
1000
0001
0000
,
1000
0010
0100
0001
0010
0100
1000
0000
,
0001
1000
0100
1000
,
0010
0100
0001
0010
,
0001
0100
0010
1000
,
0001
0000
0010
0000
0100
0000
1000
0001
,
0100
0010
0100
0001
,
1000
0100
1000
0010
,
1000
0001
0010
0100
,
0010
0000
0001
0000
1000
0000
0010
0100
,
0010
1000
0001
0010
,
0001
1000
0010
0100
,
0001
0010
0001
1000
,
0010
0100
0001
1000
,
0001
0010
0001
0000
0010
0000
0100
0000
,
1000
0100
1000
0000
0010
0000
0100
0000
,
0001
1000
0001
0000
1000
0000
1000
0000
,
0100
0010
0100
0010
0100
0010
0100
0010
,
0002
0003
1000
0010
,
0100
0000
0001
0000
,
1000
0001
0100
0010
,
0010
0000
1000
0000
,
0002
0000
0003
0000
1000
0000
0001
0010
,
0100
1000
0001
1000
,
0010
0000
0010
0000
0100
0000
0001
1000
,
0100
1000
0001
0001
,
0100
0010
0100
0000
0010
0100
0010
0000
,
1000
0100
1000
0000
0001
0010
0001
0000
,
1000
0001
1000
0001
0100
0010
1000
0000
,
0001
0010
0001
0010
0100
1000
0001
0000
,
0200
0000
0000
0000
,
0020
0000
0000
0330
,
0001
0000
0100
0001
0000
0001
0010
0000
,
0100
1000
0010
0100
,
0001
0000
1000
0010
0000
0010
0100
0000
,
0001
0000
1000
0000
0100
0010
0001
0000
,
1000
0000
0010
0100
0000
0010
0100
0000
,
0001
0010
0001
0100
,
0010
0000
1000
0000
0100
1000
0001
0000
,
0100
0010
1000
0100
,
1000
0000
0001
0010
0000
0001
0100
0000
,
0010
1000
0100
0010
,
0001
0000
1000
0010
0000
1000
0100
0000
,
0010
0000
0001
0000
1000
0001
1000
0000
,
0010
0000
0100
0001
0000
1000
0100
0000
,
1000
0000
0010
1000
0000
0001
0010
0000
,
0002
0000
0000
0000
0000
0003
0010
0100
,
2000
0000
0000
3000
,
0001
0000
1000
0000
0010
0000
0100
0001
,
0000
1000
0000
0001
0000
0010
0001
0000
,
1000
0000
0010
0000
0100
0000
0001
1000
,
0000
0100
0000
1000
0000
0010
0100
0000
,
0001
0000
0010
0000
0100
1000
0100
0000
,
1000
0000
0100
0000
0010
0001
0010
0000
,
0001
1000
0001
1000
,
0010
0100
0001
1000
,
0001
0001
0010
0010
,
0100
0100
1000
1000
,
0010
0000
0100
0001
0000
1000
0010
0000
,
0100
0001
0010
0001
,
1000
0010
0000
0100
0001
0000
0010
0000
,
0001
0100
0000
0010
1000
0000
0100
0000
,
0010
0001
0010
0000
0100
1000
0100
0000
,
1000
0001
0100
0000
0010
1000
0001
0000
,
0210
0000
0000
0000
,
0000
0000
0000
0000
,
0300
0000
0000
0000
;
#NOTEDATA:;
#STEPSTYPE:dance-single;
#DIFFICULTY:Hard;
#METER:17;
#BPMS:0=125,20=250,124=125,140=250,268=125,284=250;
#NOTES:
0000
0000
0000
0000
,
0000
0000
0000
0000
,
0000
0000
0000
0000
,
0000
0000
0000
0000
,
0000
0000
0000
0000
,
0001
0100
0001
1000
0010
1000
0100
0010
,
0001
0100
0010
1000
0001
0010
0001
0100
,
0010
1000
0001
0010
0001
1000
0010
0100
,
0001
0010
0001
1000
0010
0100
0001
0000
,
1000
1000
0010
1000
1000
0001
0100
0000
,
0001
0001
0010
0001
0001
1000
0100
0000
,
0010
0001
0010
0100
0010
0001
0010
0100
0010
0001
1000
0001
,
0100
0010
1000
0001
0010
0001
1000
0010
1000
0100
0010
0002
,
2000
0000
0000
0000
,
3003
0000
0000
0000
,
0001
0000
1000
1010
0000
0001
0101
0000
,
1000
0001
0010
0001
0100
0000
1001
0000
,
1000
0000
0001
0011
0000
1000
1100
0000
,
0001
1000
0010
1000
0100
0000
1001
0000
,
0110
0000
0001
0101
0000
1000
1100
0000
,
0001
0010
0100
1000
0001
0000
1001
0000
,
0100
0100
0000
0010
0010
0000
0100
0000
,
0110
0000
1001
0000
,
0011
0000
1001
0000
1200
0000
0320
0001
,
0000
0130
1000
0001
1000
0010
0100
0001
,
0010
0000
0100
1000
0100
0000
0010
0000
0001
0000
1000
0000
0010
0000
1000
0000
,
0100
0000
0010
0001
0010
0000
0100
0000
1000
0000
0001
0000
0100
0000
0010
0000
,
2000
0000
3002
0000
0203
0000
0320
1000
,
0000
0130
0001
1000
0001
0010
0100
1000
,
0001
0000
0100
0010
0100
0000
0001
0000
1000
0000
0100
0000
1000
0000
0001
0000
,
0010
0001
1000
0010
0100
0000
0000
0000
,
1002
0000
0000
0100
0103
0000
0000
0001
0000
1000
0100
0000
1100
0000
0000
0000
,
2001
0000
0000
0100
3100
0000
0000
1000
0000
0001
0100
0000
0101
0000
0000
0000
,
0210
0000
0000
0001
0301
0000
0000
0100
0000
0001
1000
0000
1001
0000
0000
0000
,
0001
0000
0001
0000
1000
0000
1000
0000
0001
0010
0100
1000
0010
1000
0100
0010
,
0001
0100
0001
1000
0010
0100
0001
1000
,
0010
1000
0001
0010
0001
0100
0010
1000
,
0100
0010
0001
1000
0010
1000
0001
0010
,
0001
0000
1000
0000
0010
0000
1000
0000
0100
0000
0010
0000
0001
1000
0001
0000
,
0100
0010
1000
0001
0010
0001
1000
0010
,
0100
0001
1000
0100
1000
0001
0010
0001
,
0100
0010
1000
0001
0010
0100
1000
0010
,
0100
0000
0000
0001
0000
0000
1000
0000
0000
0001
0000
0010
0000
0100
0000
1000
0000
0100
0000
0010
0000
0001
0000
0000
,
1000
0010
1000
0001
0100
0010
1000
0001
,
0100
0001
1000
0100
1000
0010
0100
0001
,
0010
0100
1000
0001
0100
0001
1000
0100
,
1000
0000
0001
0000
0100
0000
0001
0000
0010
0000
0100
0000
1000
0001
1000
0000
,
0010
0100
0001
1000
0100
1000
0001
0100
,
0010
1000
0001
0010
0001
1000
0100
1000
,
0001
0100
0010
1000
0001
1000
0100
0010
0001
0100
0010
2000
,
0002
0000
0000
3003
,
0100
0000
1001
0000
0001
1000
0100
0020
,
0000
0031
0100
0001
0010
0100
1000
0010
,
1000
0001
0100
0010
0100
0001
0010
0200
,
0000
0310
0001
1000
0000
0001
1000
0010
,
0200
0000
0001
0000
0310
1000
0002
0010
,
0000
1000
0000
0103
0000
0001
1000
0010
,
1000
0100
0010
0001
0100
0001
1000
0020
,
0000
0130
0001
0010
0001
1000
0010
0100
,
0001
0010
0001
0100
0010
0100
0001
0010
,
0001
1000
0100
1000
0010
0100
0010
1000
,
0001
0010
0100
1000
0010
1000
0100
0020
,
0000
0031
1000
0010
0000
1000
0001
0000
,
1000
0100
1000
0000
0001
0000
0010
0000
0000
0000
0001
0000
1000
0000
0000
0000
,
0001
0100
0001
0000
1000
0000
0010
0000
0000
0000
1000
0000
0001
0000
0000
0000
,
1000
0010
0100
0001
1000
0001
0010
0100
1000
0010
0100
0002
,
2000
0000
0000
3003
,
1001
0000
0000
0001
0000
0000
1000
0000
0200
0000
0000
0000
0310
0000
0000
0000
,
0011
0000
0000
1000
0000
0000
0001
0000
0200
0000
0000
0000
0300
0000
0000
0000
,
1010
0000
0000
0001
0000
0000
1000
0000
0200
0000
0000
0000
0310
0000
0000
0000
,
0120
0000
0000
0000
0030
0000
0100
1000
0002
0000
0000
0000
1003
0000
0000
0000
,
0001
0001
0001
0001
,
1000
1000
1000
1000
,
0010
0010
0010
0010
,
0100
0100
0100
0100
,
0001
0001
0010
0001
0001
1000
0100
0000
,
1000
1000
0010
1000
1000
0001
0100
0000
,
0010
1000
0010
0100
0010
1000
0010
0100
0010
1000
0001
1000
,
0100
0010
0001
1000
0010
1000
0001
0010
0001
0100
0010
1000
,
0001
0010
0001
1000
0010
0100
0001
1000
0100
1000
0010
0100
,
0001
1000
0001
0010
0100
1000
0001
0100
0010
1000
0100
0010
,
0001
0100
0001
0010
0100
1000
0010
1000
,
0001
0010
0001
0100
0010
1000
0100
0010
,
0001
1000
0100
1000
0010
0100
0001
1000
,
0001
0000
0000
0010
0000
0000
0100
0000
0000
1000
0000
0000
0001
0000
0100
0000
0010
0000
1000
0000
0100
0000
0010
0000
,
0001
1000
0010
1000
0001
0010
0001
0100
,
0010
0000
0000
1000
0000
0000
0001
0000
0010
0000
0100
0000
1000
0000
0000
0001
0000
0000
1000
0000
0010
0000
0100
0000
,
0001
0000
0000
1000
0000
0000
0001
0000
0000
0010
0000
0000
0100
0000
1000
0000
0001
0000
0100
0000
0000
0010
0000
0000
,
1000
0000
0000
0001
0000
0000
0010
0000
0000
0001
0000
0000
1000
0000
0000
0010
0000
0000
0100
0000
0001
0000
1000
0000
,
0100
0010
0001
1000
0100
1000
0001
0010
,
0001
1000
0010
0100
0010
1000
0001
0010
,
0001
1000
0010
0100
0001
0010
0100
0010
,
0001
0000
0000
1000
0000
0000
0001
0000
0100
0000
0010
0000
1000
0000
0000
0001
0000
0000
0100
0000
0000
0000
0000
0000
,
0010
1000
0010
0000
0100
0000
0001
0000
0000
0000
1000
0000
0100
0000
0000
0000
,
0010
0001
0010
0000
0100
0000
1000
0000
0000
0000
0001
0000
0100
0000
0000
0000
,
0010
1000
0100
1000
0001
0010
0001
1000
0010
0100
0001
0010
,
0001
1000
0100
1000
0001
0010
0001
0100
0010
1000
0100
1000
,
0001
0000
1001
0000
1000
0001
0100
0010
,
0000
1010
0000
0101
0000
1000
0100
0010
,
0001
0000
1001
0000
0001
1000
0010
0100
,
0000
0101
0000
1010
0000
0001
0010
0100
,
1000
0000
1100
0000
0001
1000
0010
1000
,
0100
0000
0011
0000
1000
0001
0100
0001
,
0010
0000
1100
0000
0011
0000
1000
0001
,
2000
0000
0002
3003
,
0001
0010
0100
1000
0010
1000
0001
0010
0100
1000
0010
1000
,
0001
0100
0010
1000
0100
1000
0001
0100
0010
1000
0100
1000
,
0001
0000
0000
0000
0000
0000
0000
0000
0000
1001
0000
0000
0000
0000
0000
0000
0000
0000
1000
0000
0010
0000
0100
0000
,
0002
1000
1000
1003
,
0001
0010
0100
0000
1000
0000
0001
0000
0000
0000
1000
0000
0001
0000
0000
0000
,
1000
0010
0100
0000
0001
0000
1000
0000
0000
0000
0001
0000
1000
0000
0000
0000
,
0001
1000
0010
0100
0001
1000
0100
1000
0001
0100
0010
0100
,
0001
0010
0001
1000
0010
0100
0010
1000
0100
1000
0001
0100
,
0020
0000
0000
0000
,
0000
0000
0000
0000
,
0030
0000
0000
0000
;
#NOTEDATA:;
#STEPSTYPE:dance-double;
#DIFFICULTY:Easy;
#METER:8;
#NOTES:
00000000
00000000
00000000
00000000
,
00000000
00000000
00000000
00000000
,
00000000
00000000
00000000
00000000
,
00000000
00000000
00000000
00000000
,
00000000
00000000
00000000
00000000
,
00000000
00000000
00000000
00000000
,
00000000
00000000
00000000
00000000
,
00000000
00000000
00000000
00000000
,
00000000
00000000
00000000
00000000
,
00000000
00000000
00000000
00000000
,
00001000
00000000
00010000
00000000
,
00001000
00000000
00100000
00000000
,
00010000
00000000
01000000
00000000
,
00100000
00000000
10000000
00000000
,
00010000
00010000
00010000
00000000
,
01000000
01000000
01000000
00000000
,
00002000
00000000
00000000
00000000
,
00020000
00000000
00000000
00000000
,
00033000
00000000
00000000
00000000
,
00000000
00000000
00000000
00000000
,
00001000
00000000
00010000
00000000
,
00000100
00000000
00000010
00000000
,
00000001
00000000
00000100
00000000
,
00001000
00000000
00010000
00000000
,
00001000
00000000
01000000
00000000
,
00100000
00000000
10000000
00000000
,
01000000
00000000
00010000
00000000
,
00001000
00000000
00011000
00000000
,
00010000
00000100
00001000
00000000
,
00000001
00001000
00000010
00000000
,
00001000
00000001
00000100
00000000
,
00000010
00010000
00001000
00000000
,
00010000
00001000
01000000
00000000
,
00010000
10000000
00100000
00000000
,
01000000
00001000
00010000
00000000
,
00000010
00001000
00000100
00000000
,
00000200
00000000
00001000
00000000
,
00000000
00000000
00000001
00000000
,
00000000
00000000
00001000
00000000
,
00000000
00000000
00010300
00001000
,
02000000
00000000
00010000
00000000
,
00000000
00000000
10000000
00000000
,
00000000
00000000
00010000
00000000
,
00000000
00000000
03001000
00000000
,
00010000
00000100
00000010
00000000
,
00000100
00000000
00001000
00000000
,
00000001
00000100
00000010
00000000
,
00001000
00000000
00000001
00000000
,
00000001
00000010
00000100
00000000
,
00010000
00000000
00001000
00000000
,
01000000
00100000
10000000
00000000
,
00010000
00000000
10000000
00000000
,
10000000
01000000
00010000
00000000
,
00001000
00000000
00010000
00000000
,
00001000
00000010
00000001
00000000
,
00001000
00000000
00000001
00000000
,
00000001
00000100
00001000
00000000
,
00010000
00000000
00001000
00000000
,
02000000
00000000
00000000
00000000
,
00200000
00000000
03300000
00000000
,
01000000
00000000
00010000
00000000
,
10000000
01000000
00100000
00000000
,
00010000
00100000
00001000
00010000
,
00001000
00100000
00010000
00000000
,
01000000
00000000
00001000
00000000
,
00010000
00000000
00000100
00000000
,
00010000
00001000
00000100
00000000
,
00000001
00000010
00000100
00000000
,
00010000
00000000
00001000
00000000
,
00001000
00010000
00100000
00000000
,
10000000
01000000
00100000
00000000
,
00001000
00010000
01000000
00000000
,
10000000
00000000
00100000
00000000
,
00010000
00000000
00001000
00000000
,
00020000
00000000
00000000
00000000
,
00002000
00000000
00033000
00000000
,
00010000
00000000
00000000
00000000
,
00000000
00000000
00000000
00000000
,
00001000
00000000
00000000
00000000
,
00000000
00000000
00000000
00000000
,
00000010
00000000
00000000
00000000
,
00000000
00000000
00000000
00000000
,
00000100
00000000
00000000
00000000
,
00000000
00000000
00000000
00000000
,
00001001
00000000
00000001
00000000
,
00000100
00000000
00001000
00000000
,
00010000
00000000
00001000
00000000
,
00100000
00000000
00010000
00000000
,
10000000
01000000
10000000
01000000
,
00100000
00000000
00001000
00000000
,
00020000
00000000
00000000
00000000
,
00032000
00000000
00000000
00000000
,
00003200
00000000
00000000
00000000
,
00000302
00000000
00000000
00000000
,
00000013
00000000
00001000
00000000
,
00010000
00001000
00010000
01000000
,
00100000
00000000
00001000
00000000
,
00010000
00000000
00100000
00010000
,
00001000
00000000
00100000
00000000
,
01000000
00000000
10000000
00000000
,
10000000
01000000
00100000
00000000
,
00001000
00000000
00010000
00000000
,
00001000
00000000
00000100
00000000
,
00000001
00000000
00000010
00000000
,
00001000
00000000
00010000
00000000
,
00001000
00000000
01000000
00000000
,
00010000
00100000
01000000
00000000
,
00010000
01000000
10000000
00000000
,
00200000
00000000
00000000
00000000
,
02000000
00000000
03300000
00000000
,
00100000
10000000
00010000
00000000
,
01000000
00100000
00010000
00000000
,
00001000
00010000
00000100
00000000
,
00000010
00000100
00001000
00000000
,
00000001
00000100
00000001
00000100
,
00001000
00010000
00001000
00010000
,
00100000
00000000
10000000
00000000
,
00010000
00000000
10010000
00000000
,
10000000
01000000
10000000
01000000
,
00010000
00001000
00010000
00001000
,
00010000
00000000
00000100
00000000
,
00000010
00000000
00001000
00000000
,
00010000
00001000
00100000
00010000
,
01000000
00100000
10000000
00010000
,
00200000
00000000
00000000
00000000
,
00302000
00000000
00013000
00000000
,
00022000
00000000
00000000
00000000
,
00000000
00000000
00000000
00000000
,
00033000
00000000
00000000
00000000
;
#NOTEDATA:;
#STEPSTYPE:dance-double;
#DIFFICULTY:Medium;
#METER:13;
#BPMS:0=125,20=250,124=125,140=250,268=125,284=250;
#NOTES:
00000000
00000000
00000000
00000000
,
00000000
00000000
00000000
00000000
,
00000000
00000000
00000000
00000000
,
00000000
00000000
00000000
00000000
,
00000000
00000000
00000000
00000000
,
00001000
00000000
00010000
00000000
00000010
00000000
00001000
00000100
,
00000010
00000001
00000100
00001000
,
00010000
00000000
00100000
00000000
01000000
00000000
00010000
00100000
,
01000000
10000000
00010000
01000000
,
00100000
00000000
10000000
00000000
00010000
00100000
00010000
00000000
,
01000000
00000000
00001000
00000000
00010000
00001000
00010000
00000000
,
00000100
00000010
00000001
00000000
00001000
00000100
00000010
00000000
,
00000001
00001000
00000001
00001000
00000001
00001000
00000001
00000000
,
00002002
00000000
00000000
00000000
,
00003003
00000000
00000000
00000000
,
00001000
00000100
00001000
00000010
,
00001000
00000100
00010000
00001000
,
01000000
00010000
00100000
00010000
,
01000000
00010000
00100000
00001000
,
00010000
01000000
10000000
00100000
,
10000000
01000000
00010000
00001000
,
00000100
00000000
00000010
00000000
00001000
00000001
00001000
00000000
,
00001001
00000000
00000110
00000000
,
00000001
00000000
00000010
00000000
00000100
00000000
00001000
00000010
,
00000000
00010000
00000000
00001000
00010000
00000000
00001000
00000000
,
01000000
00100000
01000000
00000000
00010000
00000000
00010000
00000000
,
10000000
01000000
10000000
00000000
01000000
00000000
00100000
00000000
,
00010000
00000000
10000000
00000000
00010000
00000000
01000000
00100000
,
00000000
00010000
00000000
00001000
00010000
00000000
00001000
00000000
,
00000010
00000001
00000100
00000100
,
00000010
00001000
00000010
00000000
00000100
00000000
00000100
00000000
,
00000002
00000000
00000013
00000000
00000001
00000010
00000100
00000000
,
00001000
00000000
00000010
00000000
00010000
00001000
00010000
00000000
,
00100000
00000000
10100000
00000000
10000000
00100000
00010000
00000000
,
00001000
00001000
00010000
00000100
00001000
00001000
00000010
00000000
,
00002000
00000000
00003001
00000100
00000000
00000100
00000010
00000000
,
00001000
00000000
00000100
00010000
00000000
00000000
00001000
00000000
,
00010000
01000000
10000000
00100000
,
00010000
00000000
00100000
01000000
00000000
00000000
00001000
00000000
,
00010000
00000000
00000010
00001000
00000100
00000000
00010000
00000000
,
00001000
00000010
00000001
00000100
,
00000010
00001000
00000010
00010000
,
00001000
00000000
01000000
00100000
10000000
00000000
00010000
00000000
,
10000000
00000000
01000000
10000000
00000000
10000000
00100000
00000000
,
00010000
00000000
00001000
00100000
00000000
00000000
01000000
00000000
,
00100000
00000000
00001000
00010000
00000000
00010000
00001000
00000000
,
00000010
00000000
00000001
00000100
00000000
00000000
00000001
00000000
,
00001000
00000100
00000010
00001000
,
00010000
00001000
01000000
00100000
,
10000000
00010000
10000000
00010000
10000000
00010000
10000000
00000000
,
01000000
00100000
01000000
00100000
01000000
00100000
01000000
00000000
,
10000000
00100000
00010000
00001000
,
00010000
01000000
10000000
00010000
,
01000000
00100000
00010000
00001000
,
00010000
00000010
00001000
00000100
,
00000001
00000100
00001000
00000010
,
00010000
00001000
00000100
00000001
,
00000010
00000100
00010000
00001000
,
01000000
00100000
10000000
00010000
,
10000000
01000000
00010000
01000000
,
10000000
01000000
00010000
00001000
,
00000010
00000001
00001000
00000010
,
00000001
00000010
00001000
00000010
,
00010000
00001000
00010000
00000000
00000100
00000000
00010000
00000000
,
00001000
00010000
00001000
00000000
00100000
00000000
00010000
00000000
,
01000000
01000000
00100000
00100000
,
10000000
00010000
10000000
00010000
10000000
00010000
10000000
00000000
,
00200000
00300000
01000000
00010000
,
00100000
00000000
00001000
00000000
,
00010000
00001000
00000100
00000001
,
00000010
00000000
00000100
00001000
,
00000020
00000000
00000030
00000000
00001000
00000000
00000001
00000100
,
00000010
00010000
00001000
01000000
,
00010000
00000000
10000000
00000000
00010000
00000000
00100000
01000000
,
10000000
00010000
01000000
00000000
,
00001000
00010000
00001000
00000000
00010000
00001000
00010000
00000000
,
00000100
00001000
00000100
00000000
00001000
00000100
00001000
00000000
,
00000001
00000100
00000001
00000100
00000010
00000000
00001000
00000000
,
00000100
00010000
00001000
00010000
00001000
00000000
00100000
00000000
,
00010000
00100000
01000000
10000000
00100000
01000000
00010000
00000000
,
20020000
00000000
00000000
30030000
,
00010000
00000000
10000000
00100000
00000000
00100000
01000000
00000000
,
00010000
10000000
01000000
00010000
,
00001000
00000000
00100000
00010000
00000000
00010000
01000000
00000000
,
00100000
00010000
00001000
00010000
,
00001000
00000000
00010000
00000100
00000000
00000100
00001000
00000000
,
00000010
00010000
00001000
00000010
,
00000001
00000000
00001000
00000100
00000010
00000000
00000001
00000000
,
00001000
00000010
00000100
00001000
,
00010000
00000000
00001000
00100000
00000000
00010000
01000000
00000000
,
00100000
10000000
00100000
01000000
,
00010000
00000000
00100000
00001000
00000000
00010000
00001000
00000000
,
00010000
00000100
00000010
00000001
,
00001001
00000000
00000001
00000100
00000000
00000100
00001000
00000000
,
00011000
00000000
00010000
01000000
00000000
01000000
10000000
00000000
,
00200000
00000000
00000000
00000000
00000000
00300000
10000000
01000000
,
00200000
00000000
00000000
00300000
,
00001000
00000000
00010000
00000000
00000100
00000000
00001000
00000001
,
00000000
00000100
00000000
00000010
00000000
00001000
00000001
00000000
,
00000010
00000000
00000100
00000000
00001000
00000000
00000010
00010000
,
00000000
00000100
00000000
00001000
00000000
00000010
00010000
00000000
,
00001000
00000000
00010000
00000000
00001000
00010000
00001000
00000000
,
00010000
00000000
00100000
00000000
01000000
00100000
01000000
00000000
,
00010000
10000000
00010000
00100000
,
01000000
10000000
00100000
00000000
,
10000000
10000000
01000000
01000000
,
00010000
00010000
00001000
00001000
,
00000100
00000000
00000000
00000001
00000000
00000000
00000010
00000000
,
00000100
00001000
00000010
00010000
,
00001000
00010000
00000000
00100000
01000000
00000000
00010000
00000000
,
10000000
01000000
00000000
00100000
00010000
00000000
01000000
00000000
,
00001000
00010000
00000100
00000000
00001000
00000001
00000100
00000000
,
00000010
00010000
00001000
00000000
00010000
00000000
00001000
00000000
,
00012000
00000000
00000000
00000000
,
00000000
00000000
00000000
00000000
,
00003000
00000000
00000000
00000000
;
#NOTEDATA:;
#STEPSTYPE:dance-double;
#DIFFICULTY:Hard;
#METER:17;
#BPMS:0=125,20=250,124=125,140=250,268=125,284=250;
#NOTES:
00000000
00000000
00000000
00000000
,
00000000
00000000
00000000
00000000
,
00000000
00000000
00000000
00000000
,
00000000
00000000
00000000
00000000
,
00000000
00000000
00000000
00000000
,
00010000
00000000
00001000
00000000
00000100
00000000
00000001
00000010
,
00000100
00001000
00000001
00000100
,
00001000
00000000
00010000
00000000
01000000
00000000
10000000
01000000
,
00100000
00010000
10000000
00100000
,
01000000
00010000
00100000
00001000
00010000
00001000
00000100
00000010
,
00001000
00000001
00001000
00000100
00000010
00001000
00010000
00001000
,
00100000
00010000
10000000
01000000
00100000
00010000
10000000
00100000
,
00010000
00001000
00010000
00000100
00001000
00000010
00000100
00000001
,
00002000
00000000
00000000
00000000
,
00003000
00000000
00000000
00000000
,
00000001
00000010
00000001
00000010
00000100
00001000
00000100
00001000
,
00000010
00000100
00000010
00000100
00001000
00010000
00001000
00010000
,
01000000
00100000
01000000
00100000
00010000
10000000
00010000
10000000
,
00100000
01000000
00100000
01000000
00100000
00010000
00100000
00010000
,
00001000
00010000
00001000
00010000
00001000
00000010
00001000
00000010
,
00000001
00000100
00000001
00000100
00001000
00010000
00001000
00010000
,
00100000
01000000
00010000
10000000
01000000
00100000
00010000
01000000
,
00100000
00000000
10010000
00000000
,
01010000
00000000
01100000
00000000
10100000
00000000
00100000
00010000
,
00000000
00001000
00010000
00000100
00010000
00001000
00000010
00000001
,
00000010
00000100
00001000
00000010
00010000
00001000
00000100
00000010
,
00001000
00000001
00000010
00000100
00001000
00000010
00010000
00001000
,
00020000
00000000
02030000
00000000
23000000
00000000
30100000
10000000
,
00000000
00010000
10000000
01000000
00010000
00001000
00000010
00000001
,
00001000
00000100
00000010
00000001
00000010
00000100
00010000
00001000
,
00010000
01000000
10000000
00010000
01000000
00100000
10000000
00010000
,
02000000
00000000
00000000
00100000
03100000
00000000
00000000
10000000
00000000
00010000
01000000
00000000
01100000
00000000
00000000
00000000
,
01002000
00000000
00000000
00010000
00013000
00000000
00000000
00000010
00000000
00000100
00000001
00000000
00000011
00000000
00000000
00000000
,
00000120
00000000
00000000
00000001
00000031
00000000
00000000
00000010
00000000
00001000
00010000
00000000
00101000
00000000
00000000
00000000
,
00001000
00000000
00001000
00000000
00010000
00000000
00010000
00000000
00100000
01000000
00010000
10000000
01000000
00100000
00010000
10000000
,
01000000
00000000
00010000
00001000
00000000
00000010
00000001
00001000
,
00000001
00000100
00001000
00000000
00010000
00000000
00100000
00000000
,
01000000
00000000
00001000
00010000
00000000
01000000
10000000
00010000
,
00100000
01000000
10000000
00100000
00010000
00000000
00001000
00000000
,
00000010
00000000
00000100
00010000
00000000
00010000
00001000
00000000
,
00000100
00000000
00000001
00000010
00000000
00001000
00010000
00000000
,
00001000
00000000
01000000
00100000
00000000
00100000
10000000
00000000
,
00010000
00000000
10000000
01000000
00010000
00001000
00000100
00000001
,
00000010
00000000
00000100
00001000
00000000
00000010
00010000
00000000
,
00001000
00010000
00100000
01000000
00000000
00010000
00100000
00000000
,
00001000
00010000
01000000
10000000
00000000
00010000
01000000
00000000
,
00100000
00010000
00001000
00000100
00000000
00000010
00010000
00000000
,
00001000
00000000
00001000
01000000
00000000
00100000
10000000
00000000
,
00010000
00000000
10000000
01000000
00000000
00010000
00001000
00000000
,
00010000
00000100
00001000
00000001
00000100
00000010
00001000
00000100
,
00010000
00001000
00010000
00100000
10000000
00010000
10000000
01000000
,
00100000
00010000
10000000
01000000
00010000
00001000
00000010
00000001
,
00001000
00000010
00000100
00000001
00001000
00000100
00000010
00001000
,
00010000
00000100
00001000
00000001
00000100
00001000
00010000
00100000
,
01000000
00010000
10000000
01000000
00010000
00001000
01000000
00010000
,
00100000
00000000
00001000
00000000
00010000
00000100
00001000
00000100
,
00001000
00000001
00000100
00000010
00001000
00000010
00000100
00000001
,
00000010
00000100
00010000
00001000
00010000
00001000
01000000
00100000
,
10000000
01000000
00100000
00001000
00010000
00000100
00001000
00000001
,
00000100
00001000
00010000
00100000
10000000
00010000
01000000
00010000
,
01000000
00100000
10000000
00100000
10000000
00010000
01000000
00001000
,
00010000
00000010
00001000
00000001
00000010
00000100
00001000
00010000
,
00100000
00001000
01000000
00010000
00100000
01000000
10000000
00010000
,
01000000
00100000
10000000
00010000
10000000
01000000
00010000
00001000
,
00000010
00000001
00001000
00000001
00000100
00000001
00000100
00001000
,
00010000
00100000
01000000
00010000
10000000
00100000
00010000
00001000
,
00010000
00000100
00001000
00000010
00010000
00001000
00000100
00000001
,
00000010
00000000
00000000
00000100
00000000
00000000
00001000
00000000
00000020
00000000
00000000
00000000
00010030
00000000
00000000
00000000
,
00011000
00000000
00000000
00010000
00000000
00000000
01000000
00000000
00200000
00000000
00000000
00000000
00300000
00000000
00000000
00000000
,
00110000
00000000
00000000
10000000
00000000
00000000
00100000
00000000
02000000
00000000
00000000
00000000
03001000
00000000
00000000
00000000
,
00021000
00000000
00000000
00000000
00030000
00000000
00001000
00000010
00000002
00000000
00000000
00000000
00001003
00000000
00000000
00000000
,
00000001
00000100
00000001
00000100
00000010
00010000
00000010
00010000
,
00001000
01000000
00001000
01000000
00010000
00100000
00010000
00100000
,
01000000
00010000
01000000
00010000
00001000
00100000
00001000
00100000
,
00010000
00001000
00010000
00001000
00000100
00010000
00000100
00010000
,
00001000
00000010
00001000
00000010
00000001
00000100
00000001
00000100
,
00001000
00010000
00001000
00010000
00100000
10000000
00100000
10000000
,
00010000
01000000
00100000
10000000
00010000
10000000
01000000
00010000
,
00001000
00000010
00000001
00001000
00000010
00000100
00000001
00000100
,
00001000
00010000
00100000
01000000
10000000
01000000
00100000
00010000
,
00001000
00000010
00000001
00001000
00000100
00000010
00000001
00001000
,
00000010
00000000
00000100
00000001
00000000
00000001
00000010
00000000
,
00001000
00000000
00010000
00000000
00100000
00010000
00001000
00000000
,
01000000
00000000
00001000
00010000
00000000
01000000
10000000
00000000
,
00010000
00000000
10000000
00100000
00010000
00001000
00000010
00000001
,
00001000
00000000
00000001
00000100
00000000
00000010
00010000
00000000
,
00001000
00000000
00000100
00000001
00000010
00000000
00001000
00000000
,
00010000
00000000
00001000
01000000
00100000
00000000
00010000
00100000
,
10000000
00000000
01000000
00000000
00010000
00000000
00001000
00000010
,
00000001
00000000
00000100
00001000
00000000
00010000
00100000
00000000
,
10000000
00000000
00100000
00000000
00010000
00000000
00001000
00100000
,
01000000
00000000
00010000
01000000
00000000
10000000
00100000
00000000
,
00010000
00000000
00100000
10000000
01000000
00010000
00001000
00000000
,
00010000
00000010
00010000
00000010
00000100
00000001
00000100
00000001
,
00000010
00001000
00000010
00001000
00010000
01000000
10000000
00100000
,
01000000
00010000
10000000
01000000
00010000
00001000
00000010
00000100
,
00010000
00001000
00010000
00001000
00000100
00000001
00000010
00000100
,
00001000
00000000
00000001
00000000
00000100
00001000
00010000
00100000
,
00000000
00010000
00000000
00001000
00000000
00000100
00000010
00001000
,
00000010
00000000
00000100
00000000
00001000
00010000
01000000
00010000
,
00000000
00001000
00000000
00000010
00000000
00001000
00010000
00000000
,
00010010
00000000
00012000
00000000
01003000
00100000
10000000
01000000
,
00010000
00000000
00010200
00000000
00000310
00001000
00020000
00000000
,
00030010
00000100
00000001
00000100
00001000
00010000
01000000
00100000
,
00010000
10000000
00100000
01000000
00010000
00000000
10010000
00000000
,
10000000
01000000
00010000
00001000
00000100
00000010
00010000
00001000
,
00010000
00001000
00000010
00000001
00001000
00000001
00000100
00001000
,
00010000
00100000
01000000
00001000
00010000
00001000
00010000
01000000
,
10000000
00100000
00010000
00100000
10000000
01000000
00010000
00001000
,
00000100
00000001
00001000
00000010
00000100
00000001
00000010
00001000
,
00010000
01000000
10000000
00100000
10000000
00100000
00010000
00001000
,
00000100
00000001
00001000
00000001
00000010
00001000
00010000
01000000
,
10000000
00100000
00010000
00001000
00000100
00000001
00000010
00000100
,
00002000
00000000
00000000
00000000
,
00000000
00000000
00000000
00000000
,
00003000
00000000
00000000
00000000
;
