
//----- song ID: dama -----//
#TITLE:弾幕信仰;
#ARTIST:豚乙女×BEMANI Sound Team "PON";
#TITLETRANSLIT:Danmaku shinkou;
#ARTISTTRANSLIT:Butaotome×BEMANI Sound Team "PON";
#BANNER:Danmaku shinkou.png;
#BACKGROUND:Danmaku shinkou-bg.png;
#CDTITLE:./CDTitles/DDR WORLD.png;
#MUSIC:Danmaku shinkou.ogg;
#SAMPLESTART:13.55;
#SAMPLELENGTH:15;
#BPMS:0=170;
#NOTES:
     dance-single:
     :
     Beginner:
     3:
     :
0000
0000
0000
0000
,
0000
0000
0000
0000
,
0000
0000
0000
0000
,
0000
0000
0000
0000
,
0000
0000
0000
0000
,
0000
0000
0000
0000
,
0001
0000
1000
0000
,
0001
0000
0000
0000
,
0100
0000
0010
0000
,
0100
0000
0000
0000
,
0010
0000
0100
0000
,
0010
0000
0000
0000
,
1000
0000
0001
0000
,
2000
0000
3000
0000
,
0001
0000
0010
0000
,
0001
0000
0000
0000
,
0010
0000
0100
0000
,
0020
0000
0030
0000
,
0100
0000
1000
0000
,
0100
0000
1000
0000
,
0001
0000
0100
0000
,
0001
0000
0000
0000
,
1000
0000
0001
0000
,
1000
0000
0001
0000
,
0100
0000
0010
0000
,
0100
0000
0000
0001
,
0000
0000
1000
0000
,
0000
0010
0000
0000
,
0100
0000
0000
0001
,
0000
0000
1000
0000
,
0000
0010
0000
0000
,
0100
0000
0010
0000
,
0100
0000
0000
0000
,
0001
0000
1000
0000
,
0001
0000
0000
0000
,
1000
0000
0010
0000
,
1000
0000
0000
0000
,
0001
0000
0000
0000
,
1001
0000
0000
0000
,
1000
0000
0100
0000
,
1000
0000
0000
0000
,
0001
0000
0100
0000
,
0001
0000
0000
0000
,
0100
0000
0010
0000
,
1000
0000
0001
0000
,
1000
0000
0010
0000
,
1000
0000
0010
0000
,
0100
0000
0001
0000
,
0100
0000
0000
0000
,
0001
0000
1000
0000
,
0001
0000
1000
0000
,
0010
0000
0100
0000
,
0020
0000
0030
0000
,
0100
0000
0001
0000
,
1000
0000
0001
0000
,
0100
0000
0010
0000
,
0200
0000
0300
0000
,
0100
0000
0001
0000
,
0100
0000
0001
0000
,
1000
0000
0010
0000
,
2000
0000
3000
0000
,
0001
0000
0010
0000
,
0100
0000
1000
0000
,
0001
0000
1000
0000
,
0001
0000
0100
0000
,
0010
0000
0000
0000
,
0100
0000
0000
0000
,
0010
0000
1000
0000
,
0010
0000
0100
0000
,
0010
0000
1000
0000
,
0001
0000
0000
0000
,
1000
0000
0100
0000
,
1000
0000
0001
0000
,
0010
0000
0000
0000
,
0001
0000
0000
0000
,
1000
0000
0000
0000
,
0001
0000
0100
0000
,
0001
0000
0100
0000
,
0010
0000
1000
0000
,
0001
0000
0000
0010
,
0000
0000
0100
0000
,
0000
1000
0000
0000
,
0001
0000
0000
0000
,
0000
0000
0000
0000
;
#NOTES:
     dance-single:
     :
     Easy:
     6:
     :
0000
0000
0000
0000
,
0000
0000
0000
0000
,
0000
0000
0000
0000
,
0000
0000
0000
0000
,
0000
0000
0000
0000
,
0000
0000
0000
0000
,
1000
0001
0100
0010
,
1000
0100
1000
0001
,
0100
0010
0100
0010
,
1000
0001
1001
0000
,
0001
0100
0010
1000
,
0001
1000
0000
0000
,
0100
0010
0100
1000
,
0002
0000
0003
0000
,
0100
0010
0100
0001
,
1000
0100
0000
0000
,
1000
0001
0100
0010
,
2002
0000
0000
3003
,
1000
0010
1000
0010
,
0100
0100
0001
1000
,
0100
0010
0100
0010
,
0001
1000
0001
0000
,
0100
0010
0100
0010
,
1000
0100
1000
0000
,
0001
0100
0010
1000
,
0001
0010
0001
1000
,
0010
1000
0001
0100
,
0001
1000
0100
0010
,
0001
0100
0001
1000
,
0010
1000
0001
0100
,
0001
1000
0010
0100
,
0001
0000
1000
0000
,
0010
0100
0010
0100
,
0001
0000
1000
0000
,
0100
0010
0100
1000
,
0001
0000
0010
0000
,
0001
0100
0001
1000
,
0010
0100
0000
0100
,
0001
1000
0000
0000
,
1100
0000
0101
0000
,
1000
0100
0001
0100
,
0110
0000
1001
0000
,
0001
0100
0001
0000
,
1000
1000
0001
0001
,
0100
0010
0100
0000
,
0010
1000
0010
1000
,
0001
0010
0001
0010
,
0100
0010
0100
1000
,
0001
1000
0001
0000
,
1000
0010
0100
0001
,
1000
0001
0000
0000
,
0010
0100
0010
0001
,
2000
0000
3000
0000
,
0010
0100
0010
1000
,
0001
0010
0000
0000
,
0001
1000
0010
0100
,
2002
0000
0000
3003
,
0001
0010
0100
1000
,
0001
1000
0000
0000
,
0010
0100
0010
1000
,
0002
0000
0003
0000
,
0010
0100
0010
0001
,
1000
0010
0000
0000
,
1000
0001
0010
0100
,
1000
0000
0002
0000
,
1003
0000
0001
0010
,
0200
0000
0000
0300
,
1000
0010
0100
0001
,
1000
1000
0001
0001
,
0010
0100
1000
0001
,
0100
0010
0100
0000
,
0001
1000
0100
0010
,
0001
0100
0010
0000
,
1000
0010
1000
0000
,
0001
0010
0001
0000
,
0100
0010
0100
0000
,
0001
1000
0010
0100
,
0001
0010
0100
0010
,
0001
1000
0010
0100
,
0110
0110
0110
1001
,
0110
1001
1000
0100
,
0010
0001
1000
0001
,
0100
0000
0000
0000
,
0000
0000
0000
0000
;
#NOTES:
     dance-single:
     :
     Medium:
     10:
     :
0000
0000
0000
0000
,
0000
0000
0000
0000
,
0000
0000
0000
0000
,
0000
0000
0000
0000
,
0000
0000
0000
0000
,
0000
0000
0000
0000
,
0001
0100
0001
0000
0100
0010
1000
0000
,
0001
0010
0001
0100
0010
0000
1000
0000
,
0001
0100
0010
0000
1000
0100
0010
0000
,
0100
0010
0100
0010
0100
0000
0000
0000
,
1000
0000
0001
0000
0100
0010
0100
0000
,
0010
1000
0100
0000
0000
0000
1000
0000
,
0001
0000
1000
0000
0100
0010
0001
0000
,
0100
0010
0100
0010
0100
0000
0001
0000
,
1000
0010
1000
0000
0010
0100
0010
0000
,
0100
0001
0100
0000
0000
0000
0001
0000
,
0010
0000
0100
0000
0010
0001
0010
0000
,
0001
0100
0001
0100
0001
0000
0100
0000
,
0010
1000
0010
0000
1000
0100
0010
0000
,
0001
0110
0001
0110
,
1000
0100
1000
0000
0001
0010
0100
0000
,
1000
1000
1000
0001
1000
0000
0001
0000
,
0010
0001
0010
0000
0001
0100
0010
0000
,
1000
0110
1000
0110
,
0001
0100
0001
0000
1000
0010
0100
0000
,
0010
1000
0100
0000
0110
0000
0010
0001
,
0100
0000
0110
0000
0010
1000
0100
0000
,
1001
0000
0001
0100
0010
0100
0010
0000
,
0100
0001
0010
0000
0110
0000
0100
1000
,
0010
0000
0110
0000
0100
0001
0010
0000
,
1001
0000
1000
0010
0100
0010
0100
0000
,
0001
0000
0000
0010
0001
0000
0000
1000
,
0100
0000
0010
0000
0001
0000
0100
0010
,
0100
0000
0000
0001
0100
0000
0000
0010
,
1000
0000
0001
0000
1000
0000
0100
0010
,
0100
0000
0000
0010
0001
0000
0000
1000
,
0100
0010
0100
0000
1000
0000
0001
0100
,
0010
0000
0200
0000
0300
0000
0010
1000
,
0001
0000
0020
0000
0030
0001
0010
0100
,
1000
0000
0000
0001
1001
0000
0000
1000
,
1001
0000
0001
0000
0100
0000
0010
0100
,
0010
0000
0000
0100
0110
0000
0000
0010
,
0110
0000
1010
0000
1001
0000
1000
0100
,
1000
0000
0001
0100
0001
0000
0100
0010
,
1000
0000
0001
0000
1001
0000
1000
0010
,
1000
0000
0010
0100
0010
0000
0100
0001
,
0010
0000
0100
1000
0010
0000
1000
0001
,
1000
0000
0100
0010
0100
0000
1000
0000
,
0010
0100
0010
0100
0010
0000
0000
0000
,
1000
0000
0100
0000
0010
0001
0010
0000
,
0001
0100
0010
0000
1000
0000
0001
0000
,
0010
0000
0100
0000
1000
0001
0010
0000
,
0001
0100
0001
0100
0010
0000
1000
0000
,
0001
0010
0100
0000
0010
0001
0100
0000
,
0010
1000
0001
0000
0100
0000
0010
0000
,
1000
0000
0100
0000
1000
0010
0100
0000
,
0001
1000
0001
1000
0001
0000
0100
0000
,
0001
0000
0010
0000
0100
1000
0100
0000
,
1000
0010
0100
0000
0001
0000
1000
0000
,
0100
0000
0010
0000
0001
1000
0100
0000
,
1000
0010
1000
0010
0100
0000
0001
0000
,
1000
0100
0010
0000
0100
1000
0010
0000
,
0100
0001
1000
0000
0010
0000
0100
0000
,
0001
0000
0010
0000
0001
0100
0010
0000
,
1000
0001
1000
0001
2000
0000
0000
0000
,
3001
0000
0000
1000
0100
1000
0100
0000
,
0010
0001
1000
0010
0100
0010
0100
0000
,
0001
1000
0001
0000
0010
0100
1000
0000
,
0010
1001
0100
1001
,
1000
0010
1000
0000
0010
1000
0100
0000
,
0010
0010
0010
0001
1000
0000
0100
0000
,
1000
0001
1000
0000
0100
0010
0001
0000
,
0100
0010
0100
0010
1000
0000
1001
0000
,
0001
0100
0001
0100
0010
1000
0001
0000
,
1000
0100
1000
0100
0010
0001
1000
0000
,
0010
0100
0010
0100
0001
0010
0100
0000
,
1000
0010
1000
0010
0100
0000
0001
1000
,
0001
1000
0100
0000
1000
0010
0001
0000
,
0010
0100
0001
0010
0100
1000
0001
0000
,
0011
0101
1100
1010
,
1001
0000
0110
0000
1000
0100
1000
0100
,
0010
0000
0001
0100
0001
0100
0001
0100
,
0010
0000
0000
0000
,
0000
0000
0000
0000
;
#NOTES:
     dance-single:
     :
     Hard:
     16:
     :
0000
0000
0000
0000
,
0000
0000
0000
0000
,
0000
0000
0000
0000
,
0000
0000
0000
0000
,
0000
0000
0000
0000
,
0000
0000
0000
0000
,
1000
0000
0100
0000
1000
0000
0000
0000
0001
0000
0100
0001
0100
0000
0010
0000
,
1000
0000
0100
0010
0100
0000
0010
0001
0010
0000
0001
0100
0010
0000
0100
0000
,
0001
1000
0100
0010
0001
1000
0001
0100
,
0010
0100
0010
0100
0010
0100
0010
0100
0010
0000
0000
0000
0000
0000
0000
0000
,
1000
0010
1000
0001
0010
0100
0010
0001
,
1000
0000
0010
0000
0100
0000
0010
0100
0010
0000
1000
0000
0100
0000
1000
0000
,
0001
0100
0001
1000
0100
0010
0001
1000
,
0001
0000
0100
0010
1000
0010
1000
0000
0001
0010
0001
0010
0100
0000
0010
0000
,
0001
0010
0001
1000
0010
0001
0010
1000
,
0001
0000
0100
0000
0010
0000
0100
0010
0100
0000
0001
0000
0010
0000
0001
0000
,
0010
0100
1000
0001
0100
1000
0200
0000
,
0301
0010
0001
0010
0100
1000
0100
1000
0100
0000
1000
0001
0010
0000
0001
0000
,
0100
0000
0010
0100
0010
0000
1000
0000
0001
0000
0010
0000
0100
0000
1000
0000
,
0001
0010
0011
0000
1100
0000
0011
0000
,
1000
0000
0010
1000
0010
0000
0100
0000
0001
0000
1000
0000
0100
0000
0010
0000
,
0001
0000
0001
0000
0001
0000
1000
0000
0001
0100
0010
1000
0001
0000
1000
0100
,
0010
0000
0010
0000
0010
0000
0001
0000
1000
0000
0010
0100
0001
0000
0100
0000
,
0010
1000
1010
0000
0101
0000
1010
0000
,
0001
0000
0010
0001
0010
0000
0100
0000
0010
0000
0001
0000
0100
0000
0000
0000
,
0010
1000
0100
0000
0001
0100
0010
0001
,
0100
0000
1000
0100
0010
1000
0100
0000
,
0001
0100
1000
0010
0100
0001
0010
0100
,
1000
0010
0001
0000
0010
1000
0001
0100
,
0010
1000
0010
1000
0001
0000
0100
0000
0001
0000
0010
0100
1000
0100
0010
0000
,
0100
0000
0010
0000
0001
0000
0100
0000
0010
0000
1000
0000
0010
0100
0010
0100
,
0001
0000
0000
0010
0100
0000
0010
0000
0001
0000
0000
1000
0100
0000
1000
0000
,
0100
0000
0010
0000
0001
0000
0100
0001
0100
0000
0010
1000
0010
0000
0100
0000
,
0010
0000
0000
1000
0100
0000
0010
0000
0100
0000
0000
0010
0001
0000
0100
0000
,
0010
0000
0000
0010
1000
0000
0000
1000
0100
0010
0100
0010
0100
0000
1000
0100
,
0010
0000
0000
0001
0100
0000
1000
0000
0100
0000
0000
0001
0010
0000
1000
0000
,
0010
0000
0001
0000
1000
0000
0010
0100
0010
0000
0100
0001
0100
0000
0001
1000
,
0100
0000
0010
0000
0001
0010
0001
0000
1000
0010
1000
0000
0001
0000
0100
0000
,
0010
0000
1000
0000
0001
0010
0100
1000
0001
0000
0100
0000
0100
0000
0010
0000
,
0110
0000
0000
1010
1010
0000
0000
1000
,
0001
0000
0010
0000
0100
0000
0000
0000
1000
0000
0001
0010
0001
0010
0001
0000
,
0011
0000
0000
1100
1100
0000
0000
1000
,
0001
0000
0100
0000
0001
0000
1000
0000
0100
0000
0010
0000
0001
0000
0000
0000
0000
0000
1000
0000
0000
0001
0000
0000
,
0100
0001
0000
1000
0010
0000
0100
0000
0001
0010
0000
0100
1000
0000
0001
0000
,
1000
0100
1000
0001
0010
0001
1000
0010
0001
1000
0100
0001
,
1000
0000
0010
0100
0001
0000
0010
0000
0100
0000
0010
0001
1000
0000
0010
0000
,
1000
0000
0100
0010
0001
0000
0100
0000
0010
0000
0100
0001
1000
0000
0100
0000
,
0010
0000
0001
0010
0001
0000
1000
0100
1000
0000
0010
0100
0010
0000
1000
0000
,
0100
0010
0100
0010
0100
0010
0100
0010
0100
0000
0000
0000
0000
0000
0000
0000
,
1000
0000
1000
0000
0001
0000
0100
0000
0001
0000
0010
0000
0100
0000
1000
0010
,
0100
0000
0001
0000
0100
0000
0010
1000
0001
0000
0010
0000
0010
0000
0001
0100
,
0001
1000
0100
0010
0100
0010
0001
1000
,
0010
0000
0100
0000
0010
0000
0100
0001
0100
0000
0001
0010
0100
1000
0001
0000
,
1000
0001
0100
0010
0100
1000
0100
0001
,
0010
0100
0010
0000
0001
0000
1000
0010
1000
0000
0001
0000
0001
0000
0100
0000
,
0001
0010
0100
1000
0001
0100
0020
0000
,
1030
0010
1000
0010
0100
0001
0100
0001
0100
0000
0001
0010
0001
0000
0100
0000
,
0010
0000
0010
0000
1000
0000
0001
0000
1000
0100
1000
0100
0010
0000
0001
1000
,
0001
0000
0100
0000
0010
0000
0100
0001
1000
0000
0100
0010
0100
0000
1000
0000
,
0001
0010
0100
1000
0010
0001
0010
1000
,
0001
0010
0100
0010
0001
0000
1000
0100
0010
0001
0010
0001
1000
0000
0010
0100
,
0010
0010
1000
0001
0100
1000
0100
0001
,
0010
0100
0010
0000
0001
0000
1000
0010
1000
0000
0100
0000
0100
0000
1000
0000
,
0001
0010
0001
1000
0100
0010
0002
0000
,
1003
0010
0100
0010
1000
0001
0010
0001
2000
0000
0000
0000
0000
0000
0000
0000
,
3001
0000
0000
1000
0100
0010
0001
0000
,
1000
0000
0001
1000
0010
0100
0010
0100
0001
0010
0001
1000
0100
0000
0000
0000
,
1000
0000
0010
0100
0010
0000
1000
0000
0001
0000
0100
0000
0010
0000
1000
0000
,
0001
0100
0101
0000
1010
0000
0101
0000
,
1000
0000
0100
1000
0100
0000
0010
0000
0001
0000
1000
0000
0010
0000
0100
0000
,
0001
0000
0001
0000
0001
0000
1000
0000
0001
0010
0100
1000
0001
0000
0010
0001
,
1000
0000
1000
0000
1000
0000
0010
0000
0100
0000
0001
0010
0100
0000
1000
0000
,
0001
0000
0010
0000
0001
0000
1000
0000
0010
0100
0010
0100
0010
0000
1000
0100
,
0010
0000
0010
0001
0010
0000
0001
0000
1001
0000
1010
0000
0110
0000
0000
0000
,
0010
0000
0010
1000
0010
0000
1000
0000
1001
0000
0011
0000
0110
0000
0000
0000
,
0100
0000
0100
1000
0100
0000
1000
0000
1001
0000
0101
0000
0110
0000
0000
0000
,
0100
0000
0001
0000
0100
0000
0001
0100
0001
0000
1000
0010
1000
0000
0001
0000
,
0010
0000
0100
0000
1000
0000
0000
0000
0001
0100
0010
0000
0100
0000
0001
0000
,
1000
0000
0100
0000
0010
0100
0010
0000
0100
0000
1000
0000
0001
0000
0100
0000
,
0010
0100
0010
0000
0100
0001
0100
0000
0001
1000
0001
0000
1000
0100
1000
0000
,
0100
0010
0100
0000
0010
0001
0010
0000
0001
0010
0100
0000
0010
0100
1000
0000
,
0001
0100
0010
0000
1000
0010
1000
0010
1000
0010
0100
0000
0010
0100
0001
0000
,
1000
0000
0000
0000
,
0000
0000
0000
0000
;
#NOTES:
     dance-double:
     :
     Easy:
     6:
     :
00000000
00000000
00000000
00000000
,
00000000
00000000
00000000
00000000
,
00000000
00000000
00000000
00000000
,
00000000
00000000
00000000
00000000
,
00000000
00000000
00000000
00000000
,
00000000
00000000
00000000
00000000
,
00000001
00000100
00000001
00001000
,
00000100
00010000
00001000
00000000
,
01000000
00010000
01000000
00100000
,
10000000
00010000
10010000
00000000
,
10000000
01000000
00010000
00001000
,
00000010
00000001
00000000
00000000
,
00000001
00000100
00001000
00010000
,
00002000
00000000
00003000
00000000
,
00100000
00010000
10000000
00100000
,
01000000
00010000
00000000
00000000
,
10000000
00100000
00010000
00001000
,
00022000
00000000
00000000
00033000
,
00010000
00000100
00001000
00000100
,
00001000
00001000
00000001
00001000
,
00000010
00000100
00000010
00001000
,
00000010
00010000
00001000
00000000
,
01000000
00010000
01000000
00100000
,
10000000
01000000
10000000
00000000
,
00010000
01000000
00001000
00010000
,
00001000
00000100
00000001
00000100
,
00001000
00010000
00100000
10000000
,
00010000
01000000
00001000
00010000
,
00001000
00010000
01000000
10000000
,
01000000
00010000
00001000
00000010
,
00000001
00001000
00000010
00000100
,
00000001
00000000
00001000
00000000
,
00000100
00010000
00001000
00010000
,
00001000
00000000
01000000
00000000
,
00010000
10000000
00100000
10000000
,
01000000
00000000
00010000
00000000
,
00001000
00000010
00000001
00000010
,
00000001
00001000
00000000
00000001
,
00000100
00001000
00000000
00000000
,
00011000
00000000
01100000
00000000
,
10000000
00100000
00010000
00001000
,
00011000
00000000
00000110
00000000
,
00000001
00001000
00000001
00000000
,
00000001
00000001
00000100
00000100
,
00001000
00010000
00100000
00000000
,
10000000
01000000
10000000
01000000
,
00100000
00010000
00100000
00010000
,
00001000
00000100
00001000
00000100
,
00000010
00000001
00001000
00000000
,
00000001
00000100
00000010
00010000
,
00001000
01000000
00000000
00000000
,
00010000
10000000
01000000
00010000
,
00002000
00000000
00003000
00000000
,
00100000
00010000
01000000
00001000
,
00010000
00000100
00000000
00000000
,
00001000
00000010
00010000
00001000
,
00022000
00000000
00000000
00033000
,
00001000
00010000
01000000
10000000
,
00010000
10000000
00000000
00000000
,
01000000
00010000
00001000
00000010
,
00000002
00000000
00000003
00000000
,
00000010
00000100
00000010
00010000
,
00001000
00010000
00000000
00000000
,
00001000
00010000
01000000
10000000
,
01000000
00000000
20000000
00000000
,
30010000
00000000
10000000
01000000
,
00100000
00000000
00000000
00000000
,
00001000
00010000
00000010
00000100
,
00000001
00000001
00001000
00001000
,
00000100
00000010
00001000
00010000
,
01000000
00100000
01000000
00000000
,
10000000
00100000
01000000
00001000
,
00010000
00001000
00010000
00000000
,
00000010
00000100
00000010
00000000
,
00010000
00001000
00010000
00000000
,
01000000
00100000
01000000
00000000
,
10000000
00010000
01000000
00001000
,
00010000
00000010
00001000
00000001
,
00000010
00000100
00001000
00000001
,
00000010
00000010
00001000
00001000
,
00010000
00010000
01000000
10000000
,
00100000
10000000
00100000
00010000
,
00001000
00000000
00000000
00000000
,
00000000
00000000
00000000
00000000
;
#NOTES:
     dance-double:
     :
     Medium:
     10:
     :
00000000
00000000
00000000
00000000
,
00000000
00000000
00000000
00000000
,
00000000
00000000
00000000
00000000
,
00000000
00000000
00000000
00000000
,
00000000
00000000
00000000
00000000
,
00000000
00000000
00000000
00000000
,
10000000
00000000
00100000
00000000
01000000
00010000
01000000
00000000
,
00001000
00010000
00001000
00000000
00000100
00000000
00000001
00000000
,
00001000
00000000
00000100
00000000
00010000
00001000
00010000
00000000
,
01000000
00100000
01000000
00100000
01000000
00000000
00000000
00000000
,
10000000
00100000
00010000
00001000
,
00000100
00000001
00000100
00000000
00000000
00000000
00000000
00000000
,
00000001
00000000
00001000
00000000
00000100
00010000
00001000
00000000
,
00100000
00010000
00100000
00010000
00100000
00000000
00010000
00000000
,
10000000
00000000
00100000
00000000
01000000
00010000
01000000
00000000
,
00001000
00010000
00001000
00000000
00000000
00000000
00010000
00000000
,
00000010
00000000
00001000
00000000
00000001
00000100
00000001
00000000
,
00001000
00000100
00001000
00000100
00001000
00000000
00000000
00000000
,
00000001
00000000
00000100
00000000
00000010
00010000
00001000
00000000
,
01000000
00011000
00000100
00011000
,
00001000
00000000
00100000
00000000
00010000
10000000
01000000
00000000
,
10000000
10000000
10000000
00010000
01000000
00000000
00001000
00000000
,
00010000
00000000
00000010
00000000
00001000
00000100
00010000
00000000
,
00000010
00011000
00100000
00011000
,
00001000
00000000
00000100
00000000
00000010
00000100
00000010
00000000
,
00001000
00000100
00010000
00000000
00011000
00000000
00010000
00001000
,
01000000
00000000
01010000
00000000
00010000
10000000
01000000
00000000
,
11000000
00000000
10000000
00100000
00010000
00001000
00000100
00000000
,
00000010
00001000
00000100
00000000
00000110
00000000
00000100
00010000
,
00001000
00000000
01001000
00000000
01000000
00010000
00100000
00000000
,
01100000
00000000
10000000
00100000
01000000
00100000
01000000
00000000
,
00010000
00000000
00000000
10000000
01000000
00000000
00000000
00010000
,
00001000
00000000
00000010
00000000
00000001
00000000
00000100
00000010
,
00000100
00000000
00000000
00000001
00000010
00000000
00000000
00001000
,
00010000
00000000
01000000
00000000
10000000
00000000
00100000
01000000
,
00100000
00000000
00000000
10000000
01000000
00000000
00000000
00010000
,
00001000
00010000
00001000
00000000
00000100
00000000
00000001
00001000
,
00000100
00000000
00010000
00000000
00000000
00000000
00001000
00100000
,
00010000
00000000
10000000
00000000
00000000
01000000
00100000
01000000
,
00100000
00000000
00000000
00001000
00001000
00000000
00000000
00010000
,
00010000
00000000
00000100
00000000
00001000
00000000
00000100
00000010
,
00000100
00000000
00000000
00010000
00010000
00000000
00000000
00001000
,
00001000
00000000
00110000
00000000
11000000
00000000
00010000
10000000
,
00010000
00000000
01000000
00001000
01000000
00000000
00001000
00010000
,
00000100
00000000
00001000
00000000
00001001
00000000
00000001
00000100
,
00000001
00000000
00000100
00000000
00001000
00000000
00010000
00001000
,
00010000
00000000
00001000
00000000
00000100
00000000
00000001
00001000
,
00000100
00000000
00010000
00001000
01000000
00000000
00010000
00000000
,
00100000
01000000
00100000
01000000
00100000
00000000
00000000
00000000
,
00001000
00000000
00010000
00000000
00000010
00001000
00000010
00000000
,
00000100
00000001
00001000
00000000
00000001
00000000
00000010
00000000
,
00000100
00000000
00001000
00000000
00000100
00010000
00001000
00000000
,
01000000
00010000
01000000
00010000
01000000
00000000
00100000
00000000
,
10000000
01000000
10000000
00000000
00010000
01000000
00001000
00000000
,
00010000
00000100
00001000
00000000
00000001
00000000
00000010
00000000
,
00000001
00000000
00001000
00000000
00000010
00010000
00001000
00000000
,
00100000
00010000
00100000
00010000
00100000
00000000
00001000
00000000
,
00010000
00000000
00001000
00000000
01000000
00010000
01000000
00000000
,
00100000
10000000
00010000
00000000
10000000
00000000
01000000
00000000
,
00100000
00000000
00010000
00000000
00100000
00001000
00010000
00000000
,
00000010
00001000
00000010
00001000
00000010
00000000
00000100
00000000
,
00000001
00000010
00000001
00000000
00001000
00000010
00010000
00000000
,
00001000
00100000
00010000
00000000
10000000
00000000
01000000
00000000
,
10000000
00000000
00010000
00000000
01000000
00001000
00010000
00000000
,
00000100
00001000
00000100
00001000
00000002
00000000
00000000
00000000
,
00001003
00000000
00000000
00000001
00000100
00000001
00000100
00000000
,
00000010
00001000
00000010
00010000
00001000
00010000
00001000
00000000
,
01000000
00010000
01000000
00000000
00100000
10000000
00010000
00000000
,
01000000
00011000
00000100
00011000
,
00010000
00001000
00010000
00000000
00000010
00001000
00000100
00000000
,
00001000
00001000
00001000
00000001
00000100
00000000
00000001
00000000
,
00001000
00000100
00001000
00000000
00000100
00010000
00001000
00000000
,
01000000
00010000
01000000
00010000
10000000
00000000
10010000
00000000
,
10000000
01000000
10000000
01000000
00100000
00010000
00100000
00000000
,
00001000
00010000
00001000
00010000
00000010
00001000
00000010
00000000
,
00000100
00000001
00000100
00000001
00001000
00000100
00001000
00000000
,
00000100
00010000
00001000
00000000
00010000
00000000
00001000
01000000
,
00010000
01000000
00100000
00000000
10000000
01000000
00010000
00000000
,
00001000
00000010
00000001
00001000
00000100
00000010
00000001
00000000
,
00000101
00001001
00001100
00011000
,
01100000
00000000
10010000
00000000
10000000
00100000
01000000
00010000
,
01000000
00000000
00001000
00010000
00001000
00010000
00000100
00001000
,
00000100
00000000
00000000
00000000
,
00000000
00000000
00000000
00000000
;
#NOTES:
     dance-double:
     :
     Hard:
     16:
     :
00000000
00000000
00000000
00000000
,
00000000
00000000
00000000
00000000
,
00000000
00000000
00000000
00000000
,
00000000
00000000
00000000
00000000
,
00000000
00000000
00000000
00000000
,
00000000
00000000
00000000
00000000
,
00000001
00000000
00000010
00000000
00000001
00000000
00000000
00000000
00001000
00000000
00000100
00001000
00000100
00000000
00010000
00000000
,
00001000
00000000
01000000
00000000
00010000
00000000
10000000
00000000
01000000
00000000
00100000
00010000
01000000
00000000
00001000
00000000
,
00010000
00001000
00000100
00000001
00000010
00001000
00010000
01000000
,
00100000
01000000
00100000
01000000
00100000
01000000
00100000
01000000
00100000
00000000
00000000
00000000
00000000
00000000
00000000
00000000
,
00010000
10000000
00100000
01000000
00100000
00010000
00001000
00000100
,
00000010
00000000
00001000
00000000
00000001
00000000
00000010
00000100
00000010
00000000
00000001
00000000
00000100
00000000
00000001
00000000
,
00000010
00000100
00000010
00001000
00010000
01000000
10000000
00010000
,
01000000
00000000
00001000
00010000
00001000
00000000
00010000
00000000
00000100
00001000
00000100
00000000
00001000
00000000
00000001
00000000
,
00000100
00000010
00000100
00000001
00000010
00001000
00010000
00100000
,
10000000
00000000
00010000
00000000
00100000
00000000
00001000
00010000
00001000
00000000
00010000
00000000
00000100
00000000
00010000
00000000
,
00000100
00001000
00000010
00000100
00000001
00000010
00000100
00000000
,
00001000
00000010
00001000
00000010
00010000
00001000
00010000
00001000
00010000
00000000
00001000
00000000
00100000
00000000
00010000
00000000
,
10000000
00000000
01000000
10000000
01000000
00000000
00100000
00000000
00010000
00000000
00100000
00000000
00001000
00000000
00010000
00000000
,
00000010
00001000
00001010
00000000
00000101
00000000
00001010
00000000
,
00000001
00000000
00000010
00000001
00000010
00000000
00000100
00000000
00001000
00000000
00000010
00000000
00010000
00000000
00001000
00000000
,
01000000
00000000
01000000
00000000
01000000
00000000
00010000
00000000
10000000
01000000
00100000
00010000
00100000
00000000
00001000
00000000
,
00010000
00000000
00010000
00000000
00010000
00000000
00000100
00000000
00001000
00000000
00000010
00010000
00001000
00000000
01000000
00000000
,
00010000
00100000
00110000
00000000
11000000
00000000
00110000
00000000
,
10000000
00000000
00100000
01000000
00100000
00000000
00010000
00000000
00001000
00000000
00000100
00000000
00000010
00000000
00000000
00000000
,
00000001
00000010
00001000
00000000
00000001
00000100
00001000
00010000
,
00100000
00000000
10000000
00010000
10000000
01000000
00010000
00000000
,
00001000
00010000
00000010
00001000
00000100
00010000
00001000
01000000
,
00010000
00100000
10000000
00000000
00010000
01000000
10000000
00010000
,
01000000
00001000
01000000
00001000
00010000
00000000
00000100
00000000
00001000
00000000
00000001
00000010
00000100
00000000
00001000
00000000
,
00000010
00000000
00010000
00000000
00001000
00000000
00000100
00000000
00000001
00000000
00000010
00000000
00000100
00001000
00000100
00000000
,
00010000
00000000
00000000
01000000
00100000
00000000
00010000
00000000
10000000
00000000
00000000
00100000
01000000
00000000
00001000
00000000
,
00010000
00000000
00000010
00000000
00001000
00000000
00000001
00000010
00000001
00000000
00001000
00000100
00001000
00000000
00000010
00000000
,
00010000
00000000
00000000
00000100
00000010
00000000
00000001
00000000
00001000
00000000
00000000
00000010
00000100
00000000
00010000
00000000
,
01000000
00000000
00000000
01000000
00100000
00000000
00000000
00100000
10000000
00000000
00010000
00100000
00010000
00000000
00100000
00001000
,
00010000
00000000
00000000
00001000
00000100
00000000
00000010
00000000
00001000
00000000
00000000
00000001
00000010
00000000
00001000
00000000
,
00010000
00000000
01000000
00000000
10000000
00000000
00100000
01000000
00100000
00000000
01000000
00010000
01000000
00000000
00010000
00000000
,
00100000
00000000
00001000
00000000
00010000
00000100
00010000
00000000
00000100
00001000
00000100
00000000
00000010
00000000
00000001
00000000
,
00001000
00000000
00000010
00000000
00010000
00001000
01000000
00010000
01000000
00000000
00100000
00000000
00100000
00000000
10000000
00000000
,
10100000
00000000
00000000
01010000
01010000
00000000
00000000
10000000
,
00100000
00000000
00010000
00000000
00001000
00000000
00000000
00000000
00000100
00000000
00000001
00000100
00000001
00000000
00000010
00000000
,
00000011
00000000
00000000
00001100
00001100
00000000
00000000
00000001
,
00000010
00000000
00000100
00000000
00000010
00000000
00000001
00000000
00000100
00000000
00001000
00000000
00010000
00000000
00000000
00000000
00000000
00000000
00001000
00000000
00000000
00010000
00000000
00000000
,
00001000
01000000
00000000
00010000
01000000
00000000
00100000
00000000
10000000
01000000
00000000
00100000
01000000
00000000
10000000
00000000
,
01000000
00100000
01000000
10000000
00100000
00010000
00100000
00010000
00001000
00000100
00000010
00000100
,
00000001
00000000
00000010
00000100
00001000
00000000
00000100
00000000
00010000
00000000
00001000
01000000
00010000
00000000
01000000
00000000
,
00100000
00000000
10000000
01000000
00100000
00000000
01000000
00000000
10000000
00000000
00010000
00100000
00001000
00000000
00010000
00000000
,
00000100
00000000
00001000
00000010
00001000
00000000
00000001
00000010
00000001
00000000
00000010
00000100
00000010
00000000
00000001
00000000
,
00000100
00000010
00000100
00000010
00000100
00000010
00000100
00000010
00000100
00000000
00000000
00000000
00000000
00000000
00000000
00000000
,
00000001
00000000
00000001
00000000
00000100
00000000
00000010
00000000
00001000
00000000
00000100
00000000
00010000
00000000
00001000
00100000
,
00010000
00000000
01000000
00000000
00100000
00000000
10000000
00010000
01000000
00000000
00001000
00000000
00001000
00000000
00010000
00000000
,
00000100
00001000
00000100
00000010
00000001
00000010
00000001
00001000
,
00000100
00000000
00001000
00000000
00000010
00000000
00010000
00001000
00010000
00000000
00001000
00100000
00010000
00100000
00010000
00000000
,
10000000
00100000
10000000
01000000
00010000
00001000
00000010
00000001
,
00001000
00000000
00000100
00000000
00010000
00000000
00001000
00010000
00001000
00000000
01000000
00000000
01000000
00000000
00010000
00000000
,
10000000
00100000
01000000
00100000
00010000
00001000
00000100
00000000
,
00000010
00001000
00000010
00000000
00010000
00001000
00010000
00000000
00001000
00000000
00100000
00010000
00100000
00000000
00010000
00000000
,
10000000
00000000
10000000
00000000
00100000
00000000
01000000
00000000
00010000
00000000
00100000
00000000
00001000
00000000
00010000
00000100
,
00001000
00000000
00000010
00000000
00000100
00000000
00000001
00001000
00000010
00000000
00010000
00000000
00010000
00000000
00001000
00000000
,
00100000
00010000
00100000
01000000
10000000
01000000
10000000
00010000
,
00100000
00000000
00010000
00000000
01000000
00000000
00001000
00010000
00001000
00000000
00010000
00000100
00001000
00000100
00001000
00000000
,
00000001
00000100
00000001
00000010
00001000
00010000
01000000
10000000
,
00010000
00000000
00100000
00000000
00001000
00000000
00010000
00001000
00010000
00000000
00000010
00000000
00000010
00000000
00001000
00000000
,
00000001
00000100
00000001
00000010
00000100
00000010
00000001
00000000
,
00001000
00000100
00010000
00001000
00010000
00001000
00100000
00000000
00020000
00000000
00000000
00000000
00000000
00000000
00000000
00000000
,
10030000
00000000
00000000
10000000
01000000
00100000
00010000
00000000
,
01000000
00000000
00001000
00010000
00001000
00010000
00000010
00000000
00001000
00000001
00000100
00000001
00000100
00000000
00000000
00000000
,
00000001
00000000
00000010
00000001
00000010
00000000
00000100
00000000
00001000
00000000
00000100
00000000
00010000
00000000
00001000
00000000
,
01000000
00010000
01010000
00000000
10100000
00000000
01010000
00000000
,
10000000
00000000
01000000
10000000
01000000
00000000
00100000
00000000
00010000
00000000
01000000
00000000
00001000
00000000
00010000
00000000
,
00000010
00000000
00000010
00000000
00000010
00000000
00001000
00000000
00000001
00000010
00000100
00001000
00000100
00000000
00010000
00000000
,
00001000
00000000
00001000
00000000
00001000
00000000
00100000
00000000
00010000
00000000
01000000
00001000
00010000
00000000
00000010
00000000
,
00001000
00000000
00000100
00000000
00001000
00000000
00000001
00000000
00000100
00000010
00000100
00000010
00001000
00000000
00000010
00000000
,
00010000
00000000
00010000
00000010
00010000
00000000
00001000
00000000
00011000
00000000
01001000
00000000
01010000
00000000
00000000
00000000
,
10000000
00000000
10000000
00100000
10000000
00000000
00010000
00000000
00110000
00000000
00101000
00000000
00011000
00000000
00000000
00000000
,
00000100
00000000
00000100
00000010
00000100
00000000
00000001
00000000
00000101
00000000
00000110
00000000
00001001
00000000
00000000
00000000
,
00001000
00000000
00000100
00000000
00001000
00000000
00000100
00010000
00000100
00000000
00010000
00001000
00010000
00000000
00001000
00000000
,
00100000
00000000
00010000
00000000
10000000
00000000
00000000
00000000
01000000
00100000
00010000
00000000
01000000
00000000
00001000
00000000
,
00010000
00000000
00000100
00000000
00001000
00000010
00001000
00000000
00000001
00000000
00001000
00000000
00000100
00000000
00010000
00000000
,
00001000
00100000
00001000
00000000
00100000
00010000
00100000
00000000
00010000
10000000
00010000
00000000
01000000
00100000
01000000
00000000
,
00001000
00100000
00001000
00000000
00010000
00000010
00010000
00000000
00000010
00001000
00000001
00000000
00001000
00000100
00010000
00000000
,
00001000
01000000
00010000
00000000
10000000
01000000
10000000
01000000
10000000
00000000
01000000
00000000
00010000
00001000
00000010
00000000
,
00000001
00000000
00000000
00000000
,
00000000
00000000
00000000
00000000
;
