
//----- song ID: dwtr -----//
#TITLE:Dance wiz the Rhythm;
#ARTIST:AMAZE;
#BANNER:Dance wiz the Rhythm.png;
#BACKGROUND:Dance wiz the Rhythm-bg.png;
#CDTITLE:./CDTitles/DDR WORLD.png;
#MUSIC:Dance wiz the Rhythm.ogg;
#SAMPLESTART:9.524;
#SAMPLELENGTH:15;
#BPMS:0=126,99=124,101=120,103=115,105=110,107=108,109=105,111=100,113=98,115=95,117=92,119=90,123=75,157=126;
#NOTES:
     dance-single:
     :
     Beginner:
     4:
     :
0000
0000
0000
0000
,
0000
0000
0000
0000
,
0000
0000
0000
0000
,
0000
0000
0000
0000
,
0000
0000
0000
0000
,
0001
0000
0000
0001
,
0000
0000
1000
0000
,
0000
1000
0000
0000
,
0000
0001
0000
0000
0000
0000
0000
0001
,
0000
0000
0000
0000
0000
1000
0000
0000
,
0000
0000
0000
1000
0000
0000
0000
0000
,
0000
0010
0000
0000
,
0010
0000
0000
0100
,
0000
0000
0010
0000
,
0000
0000
0000
1000
0000
0000
0000
0000
,
0000
0001
0000
0000
0000
0000
0000
1000
,
0000
0000
0000
0000
0000
0100
0000
0000
,
0000
0000
0000
0000
,
0000
1000
0000
0001
,
0000
0100
0000
0001
,
0000
0000
0100
0000
,
0010
0000
1000
0000
,
0001
0000
0000
1001
,
0000
0000
0000
1000
,
0000
0010
0000
0100
,
0000
0001
0000
1000
,
0000
0010
0000
0100
,
0000
0001
0000
1000
,
0000
1000
0000
0100
,
0000
0100
0000
0010
,
0000
0010
0000
0001
,
0000
1000
0000
1000
,
0000
0001
0000
0001
,
0000
0100
0000
0010
,
0000
0100
0000
0001
,
0000
1000
0000
0010
,
0000
0100
0000
0010
,
0000
1000
0000
1000
,
0000
0001
0000
0001
,
0000
1001
0000
0000
,
0000
0000
0000
0000
,
0000
0001
0000
0100
,
0000
0001
0000
0000
,
0000
1000
0000
0000
0000
0000
0000
0010
,
0000
0000
0000
0000
0000
1000
0000
0000
,
0000
0000
0000
0001
0000
0000
0000
0000
,
0000
0010
0000
0000
,
0100
0000
0000
0010
,
0000
0000
0002
0000
,
0000
0000
0000
0003
0000
0000
0000
0000
,
0000
1001
0000
0000
,
0000
0000
0000
0000
;
#NOTES:
     dance-single:
     :
     Easy:
     7:
     :
0000
0000
0000
0000
,
0000
0000
0000
0000
,
0000
0000
0000
0000
,
0000
0000
0000
0000
,
0000
0000
0000
0000
,
1000
1000
0001
0100
,
0100
0010
1000
1000
,
0001
0010
0100
0110
,
0000
0001
0000
0001
0000
1000
0000
0010
,
0000
0010
0000
0100
0000
0001
0000
0001
,
0000
1000
0000
0001
0000
1000
0000
1001
,
0000
1000
0001
0100
,
0001
0100
0010
1000
,
0010
1000
0001
0001
,
0100
0000
0010
0000
0000
0110
0000
0000
,
1000
1000
0000
0100
0000
0010
0000
0001
,
0000
1000
0000
0000
0001
0001
0000
0100
,
0000
0001
0100
0010
,
1000
0001
1000
0001
,
0010
0000
0001
0000
0100
0000
0000
0010
,
0000
0010
0000
0000
0010
0000
0000
0000
1000
0000
0000
0000
0100
0000
0000
0000
,
0010
0001
1000
0001
,
1000
0010
1000
0100
,
0000
0000
0010
0000
0000
0010
0000
0000
0010
0000
0000
0000
0001
0000
0000
0000
,
1000
0010
0100
0001
,
1000
0200
1300
0001
,
0010
0100
1000
0001
,
0100
0010
1000
0001
,
0001
0010
0010
0100
,
0100
1000
1000
0001
,
0000
1000
0000
1001
,
0000
0001
0001
1000
,
1000
0010
0100
0010
,
0100
0001
0001
1000
,
1000
0010
0100
0110
,
1001
0000
0100
0010
,
0110
1000
0001
0100
,
0001
1001
1000
1000
,
0100
1000
0001
0010
,
0100
0110
0000
0000
,
0000
0000
0000
0000
,
0000
1000
0100
1000
,
0000
0001
0100
0001
,
0000
0010
0000
0010
0000
0100
0000
1000
,
0000
1000
0000
0001
0000
1000
0000
1000
,
0000
0000
0010
0000
0000
0000
0000
0100
0000
0000
0010
0000
0000
0100
0000
0000
,
0000
0001
0100
0010
,
1000
0010
0100
0001
,
0001
1000
0010
0100
,
0010
0000
0000
1000
0000
0001
0000
1000
,
0000
0001
0010
0100
,
0000
0000
0000
0000
;
#NOTES:
     dance-single:
     :
     Medium:
     11:
     :
0000
0000
0000
0000
,
0000
0000
0000
0000
,
0000
0000
0000
0000
,
0000
0000
0000
0000
,
0000
0000
0000
0000
,
0001
0000
0100
0000
0001
0000
0000
0100
0000
0000
0010
0000
0100
0000
0010
0000
,
0100
0000
0001
0000
0000
0000
1000
0000
0100
0000
1000
0000
0100
0000
0000
1000
,
0000
0001
0100
0010
1000
0010
0000
1000
,
0100
0000
1000
0000
0001
0000
1000
0000
0000
0010
0000
0000
0100
0000
0001
0000
,
0100
0001
0010
0000
0100
1000
0100
1000
,
0000
0001
0000
0000
0010
0000
0001
0000
0000
0000
0001
0000
0000
1000
0000
0000
,
0100
0000
0010
0000
0001
0000
0100
0000
0001
0000
0000
1000
0000
0000
0001
0000
,
0010
0100
0010
0100
0000
1000
0010
0100
,
0010
0000
0000
0100
0000
0000
0001
0000
1000
0000
0000
0000
0001
0000
0010
0000
,
0100
0000
1000
0000
0001
0000
0001
0000
0000
0000
1000
0100
0000
0100
0000
0000
,
1000
1000
0100
0010
0001
1000
0100
0010
,
0000
0000
0001
0100
0000
0100
0000
0000
0001
0000
0001
0000
1000
0000
0100
0000
,
1000
0100
0010
0000
0001
1000
0100
1000
,
0010
0000
0100
0000
0001
0000
0000
0100
0000
0000
1000
0000
0100
0000
0100
0000
,
0001
1000
0010
0100
0001
1000
0001
0010
,
0000
0100
0000
0000
0010
0000
0001
0000
1000
0000
0000
0000
0100
0000
0010
0000
,
0001
1000
0010
0100
0001
0000
1000
0100
,
0001
0100
1000
0001
1000
0000
0001
0010
,
0001
0000
1000
0000
0000
0010
0000
0000
1000
0000
0100
0000
1000
0000
0000
0000
,
0001
0000
0010
0000
0100
0000
1000
0000
0001
0000
0010
0000
0001
0000
0000
0100
,
0000
0001
2000
0000
3010
0100
0010
0000
,
1000
0000
0100
0000
1000
0000
0001
0000
0010
0000
0001
0000
0100
0000
0000
0010
,
0000
0100
0001
0010
0100
1000
0001
0000
,
0100
0010
1000
1000
0001
0001
1000
0010
,
0100
0001
0010
0010
0100
0100
1000
0000
,
0100
0000
0000
0000
0010
0000
0000
0000
0001
0000
0000
0000
0100
0010
0000
0010
,
0100
0000
0100
0000
0001
0000
0100
0000
0001
0100
0001
0000
0100
0010
0100
0010
,
0100
0000
0010
0000
1000
0000
0001
0000
1000
0100
1000
0000
0001
0010
0100
1000
,
0001
0000
0000
0100
0000
0000
0110
0000
0000
0010
0000
0000
1000
0000
0001
0100
0000
0000
0001
0000
0000
1000
0000
0000
,
0100
0000
0000
0000
0010
0000
0100
0000
0000
0000
0000
0000
1000
0000
0000
0000
0000
0000
0001
0000
0000
0000
0000
0000
0010
0000
0000
0100
0000
0000
0010
0000
0000
0000
0000
0000
0100
0000
0000
0000
0000
0000
1100
0000
0000
0000
0000
0000
,
0001
0000
0101
0000
0000
0000
0000
0000
0001
0000
0100
0000
0010
0100
0010
0000
,
1000
0000
0000
0001
0000
0000
0100
0000
0001
0000
0000
0000
0010
0000
0000
0000
0100
0000
0000
0100
0000
0000
0100
0000
1000
0000
0000
1000
0000
0000
1000
0000
,
0001
0000
0000
0000
1001
0000
0000
0000
0001
0000
0000
0010
0000
0000
0100
0000
1000
0000
0001
0000
1000
0000
0000
0000
0010
0000
0100
0000
0010
0000
0000
0000
,
1000
0000
0100
0010
0000
0000
0001
0000
0100
0010
0000
0100
0001
0000
0000
1000
0000
0000
0001
0000
0000
0011
0000
0000
,
1000
1010
1001
0000
0000
0000
0000
0000
,
0000
0000
0000
0000
,
0000
0000
0000
0000
1000
0000
0100
0000
1000
0000
0000
0100
0000
0000
0010
0000
,
0000
0001
1000
0001
1000
0010
0000
0100
,
0010
0000
1000
0000
0100
0000
1000
0000
0000
0100
0000
0000
0010
0000
0001
0000
,
0010
0001
1000
0000
0001
0100
0001
0100
,
0000
0001
0000
0000
1000
0000
0000
0010
0000
0000
0010
0000
0000
0100
0000
0000
,
0001
0000
0010
0000
0100
0000
1000
0000
0001
0000
0000
0010
0000
0000
0001
0000
,
1000
0000
0000
0000
0001
0000
0000
0100
0000
0000
0010
0000
1000
0000
0001
0000
,
0100
0000
0000
0001
0000
0000
0010
0000
0001
0000
0000
0100
0000
0000
1000
0000
,
0100
0000
0001
0000
1000
0000
0010
0000
0000
0001
0000
0000
0010
0000
1000
0000
,
0001
0000
0100
0000
0010
0000
0000
1000
0000
0000
0100
0000
0010
0000
0000
0000
,
0000
0000
0000
0000
;
#NOTES:
     dance-single:
     :
     Hard:
     14:
     :
0000
0000
0000
0000
,
0000
0000
0000
0000
,
0000
0000
0000
0000
,
0000
0000
0000
0000
,
0000
0000
0000
0000
,
1000
0000
0001
0000
1000
0000
0000
0010
0000
0100
0001
0100
0001
0000
1000
0000
,
0100
0000
0001
0100
0000
1000
0100
0000
0010
0000
0100
0000
0010
0000
0000
0001
,
0000
1000
0010
1000
0010
0000
0100
0000
0001
0000
0010
1000
0000
0010
0001
1000
,
0100
0010
0001
0000
1000
0000
0001
0000
0000
0100
0000
0010
1000
0010
1000
0000
,
0001
0000
0010
0000
1000
0010
0000
0001
0010
0000
0100
0000
0010
0000
0100
0000
,
0000
0000
0000
1000
0000
0000
0000
0000
0000
0001
0000
0000
0100
0000
0000
0001
0000
0000
0100
0000
0000
0000
0010
0000
0000
0000
1000
0000
0000
0000
0001
0000
0000
0000
0000
0000
1000
0000
0000
0010
0000
0000
0000
0000
0000
1000
0000
0000
,
0100
0010
0001
0000
0100
0000
0010
0000
0100
0000
0000
0001
0000
0010
0100
0010
,
0100
0000
1000
0000
0100
0000
1000
0010
0000
0001
0010
0000
0100
0000
0001
0000
,
0100
0000
0010
1000
0000
0010
0100
0010
0100
0000
0000
0000
0001
0000
0100
0010
,
0100
0001
0100
0001
1000
0001
1000
0000
0000
0000
0100
0010
0000
0010
0000
0000
,
0001
0010
0001
0000
1000
0000
0100
0000
0010
0000
0001
0000
1000
0001
1000
0000
,
0001
0000
1000
0010
0000
0010
0000
0000
0100
0010
0100
0000
0001
0000
1000
0010
,
1000
0010
0100
0001
1000
0000
0100
0000
0010
0001
0010
0100
1000
0000
0001
0000
,
0100
0010
0100
0001
1000
0100
0000
0001
0100
1000
0100
0000
1000
0000
0001
0000
,
0100
0010
0100
0010
1000
0010
0100
0001
1000
0001
0010
0100
1000
0000
1100
0000
,
0100
0010
0000
0010
0001
1000
0100
0010
0001
0000
1000
0000
0001
0010
0100
1000
,
0100
0000
1000
0000
0010
0100
0001
0100
0010
1000
0010
1000
0001
0010
0100
0000
,
1000
0000
0001
0000
0010
0100
0010
0100
1000
0000
0000
0000
0001
0000
1000
0010
,
0100
0000
0110
0000
0010
1000
0000
1000
0001
0010
0100
1000
0001
0000
0100
0010
,
1000
0001
0010
0100
0010
0000
0100
0000
1000
0010
0100
0001
1000
0100
0000
0001
,
0100
0000
0000
0000
0000
0000
0010
0000
0000
0000
0000
0000
0001
0000
0000
0000
0001
0000
0000
0000
0001
0000
0000
0000
1000
0000
0000
0000
0000
0000
0010
0000
0000
0100
0000
0000
0010
0000
0000
0000
0000
0000
1000
0000
0000
0001
0000
0000
,
1000
0100
0010
0001
0100
0010
0100
0000
0001
0000
0100
0000
0001
0010
0000
1000
,
0010
0000
0001
0000
0100
0000
0010
0100
0010
0000
1000
0000
0001
0000
0010
0001
,
1000
0000
0000
0010
0000
0000
0100
0000
0000
0001
0000
0000
0010
0000
0000
0100
0000
0000
1000
0000
0000
0000
0000
0000
0010
0000
0000
0100
0000
0000
0010
0000
0000
0100
0000
0000
0001
0000
0100
0000
0001
0000
0100
0000
0000
0001
0000
0000
,
1000
0000
0000
0000
0000
0000
0100
0000
0000
1000
0000
0000
0100
0000
0000
0000
0000
0000
1000
0000
0000
0000
0000
0000
0001
0000
0000
0000
0000
0000
0000
0000
0001
0000
0000
0000
0000
0000
0000
0000
0001
0000
0000
0000
0000
0000
0000
0000
1000
0000
0000
0000
0000
0000
0000
0000
0000
0000
0000
0000
1000
0000
0000
0000
0000
0000
0000
0000
0000
0000
0000
0000
0100
0000
0000
0000
0000
0000
0000
0000
0000
0000
0000
0000
0100
0000
0000
0000
0000
0000
0000
0000
0000
0000
0000
0000
,
0010
0000
0010
0000
0001
0000
0001
0000
1000
0000
1000
0000
0010
0100
0000
0100
,
0010
0000
0000
0000
0010
0000
0000
0000
0100
0000
0000
0000
0001
0000
1000
0000
0001
0100
0001
0000
0100
0000
0010
0000
1000
0100
1000
0000
0100
0000
1000
0000
,
0001
0000
0000
0000
0000
0000
1000
0000
0000
0000
0000
0000
0100
0000
0000
0000
0000
0000
0010
0000
0000
0000
0000
0000
0001
0000
0000
0000
0000
0000
0000
0000
0000
0000
0000
0000
1000
0000
0000
0000
0001
0000
0000
0000
0001
0000
0000
0000
0100
0000
0000
0000
0000
0000
0010
0000
0000
0000
0000
0000
1000
0000
0000
0010
0000
0000
1000
0000
0000
0000
0000
0000
0001
0000
0000
0000
0000
0000
1000
0000
0000
0000
0000
0000
0100
0000
0000
0010
0000
0000
0100
0000
0000
0000
0000
0000
,
1000
0000
0000
0001
0000
0000
0101
0000
0000
0000
0000
0000
1001
0000
0000
0000
0000
0000
1000
0000
0100
0000
0100
0000
0001
0000
0000
0000
0100
0000
1000
0000
0000
0000
0000
0000
0001
0000
0100
0000
0100
0000
1000
0000
0100
0000
0100
0000
,
0010
0000
0000
0000
0100
0000
0001
0000
0000
0000
0010
0000
1000
0000
0000
0000
0010
0000
0001
0000
1000
0000
1000
0000
0100
0000
0000
0010
0000
0000
0001
0000
0000
1000
0000
0000
0001
0000
0010
0000
0100
0000
1000
0000
0100
0000
0010
0000
,
0001
0000
0000
0000
1000
0000
0000
0000
0010
0000
0000
0000
0100
0000
0000
0000
0000
0000
0001
0000
0000
0000
0000
0000
0010
0000
0000
0000
0000
0000
0000
0000
0000
0000
0000
0000
0000
0000
0000
0000
0000
0000
0000
0000
0000
0000
0000
0000
0001
0000
0000
0000
0000
0000
0100
0000
0000
0000
0000
0000
0010
0000
0000
0100
0000
0000
0010
0000
0000
0000
0000
0000
1000
0000
0000
0000
0000
0000
0001
0000
0000
0000
0000
0000
0010
0000
0000
0001
0000
0000
0010
0000
0000
0000
0000
0000
,
0001
0000
0000
0000
0000
0000
1000
0000
0000
0010
0000
0000
0000
0000
0000
0100
0000
0000
0010
0000
0000
0000
0000
0000
1000
0000
0000
0000
0000
0000
0000
0000
0000
0000
0000
0000
0010
0000
0000
0000
0100
0000
0000
0000
0100
0000
0000
0000
0001
0000
0000
0000
0000
0000
1000
0000
0000
0010
0000
0000
0000
0000
0000
0001
0000
0000
0010
0000
0000
0000
0000
0000
1000
0000
0000
0000
0000
0000
0100
0000
0000
0001
0000
0000
0000
0000
0000
0100
0000
0000
1000
0000
0000
0000
0000
0000
,
0001
0000
0000
0000
1001
0000
0000
0000
2000
0000
0000
3200
0000
0000
0320
0000
0031
1000
0001
1000
0010
0000
1000
0000
0100
0010
0100
0010
0001
0000
1000
0000
,
0001
0000
0000
0000
0100
0000
1000
0000
0000
0000
0000
0000
0100
0000
0000
0000
0001
0000
0010
0000
0100
0000
0100
0000
1000
0000
0000
0001
0000
0000
0010
0000
0000
0100
0000
0000
1000
0000
0100
0000
0010
0000
0001
0000
0010
0000
0100
0000
,
1000
0010
0001
1000
0100
0001
1000
0000
0000
0000
0000
0000
0000
0000
0000
0000
0000
0000
0000
0000
0000
0000
0000
0000
,
0000
0000
0000
0000
,
0000
0000
0000
0000
0001
0000
1000
0000
0001
0000
0000
0100
0000
0000
0010
0000
,
0000
1000
0100
1000
0100
0000
1000
0000
0010
0000
0100
0001
0000
0000
1000
0000
,
0001
0000
0010
0000
0100
0000
0010
0000
0000
0001
0000
1000
0100
1000
0100
0000
,
1000
0000
0001
0000
0100
1000
0000
0100
0001
0000
1000
0000
0010
0000
1000
0000
,
0000
0100
0000
1000
0010
0000
0000
0100
0010
0100
0001
0010
0100
1000
0001
0100
,
0001
0010
0100
1000
0001
0000
0010
0000
0001
0000
0000
1000
0000
0010
0100
0010
,
0100
0000
0000
0000
0010
0000
0000
0000
1000
0000
0000
0000
0001
0000
0000
0000
0000
0000
0010
0000
0000
1000
0000
0000
0000
0000
0000
0010
0000
0000
0001
0000
0000
0000
0000
0000
1000
0000
0000
0000
0000
0000
0100
0000
0000
0000
0000
0000
,
1000
0000
0000
0001
0000
0100
0010
0100
0001
0000
1000
0100
0000
0001
0100
0000
,
1000
0001
0010
0100
1000
0001
0100
0000
0001
0010
0000
1000
0010
0000
0001
1000
,
0010
0100
0001
1000
0010
0000
1000
0100
0000
0010
0001
0000
0100
0010
0000
0000
,
0000
0000
0000
0000
;
#NOTES:
     dance-double:
     :
     Easy:
     7:
     :
00000000
00000000
00000000
00000000
,
00000000
00000000
00000000
00000000
,
00000000
00000000
00000000
00000000
,
00000000
00000000
00000000
00000000
,
00000000
00000000
00000000
00000000
,
00010000
00010000
00000100
00001000
,
00001000
00000001
00000100
00000100
,
00000010
00010000
00001000
00011000
,
00000000
00001000
00000000
00001000
00000000
00100000
00000000
00010000
,
00000000
00010000
00000000
10000000
00000000
00100000
00000000
00100000
,
00000000
01000000
00000000
00001000
00000000
00010000
00000000
00011000
,
00000000
00010000
00000100
00001000
,
00000100
00000010
00000001
00001000
,
00000010
00001000
00000010
00010000
,
00001000
00000000
01000000
00000000
00000000
01100000
00000000
00000000
,
00010000
00010000
00000000
10000000
00000000
01000000
00000000
00010000
,
00000000
00001000
00000000
00000000
00010000
00010000
00000000
00001000
,
00000000
00000010
00000001
00000010
,
00000100
00001000
00000100
00010000
,
00001000
00000000
00100000
00000000
00010000
00000000
00000000
10000000
,
00000000
10000000
00000000
00000000
10000000
00000000
00000000
00000000
01000000
00000000
00000000
00000000
00100000
00000000
00000000
00000000
,
00010000
00100000
00001000
00010000
,
00001000
00010000
00000100
00001000
,
00000000
00000000
00000001
00000000
00000000
00000001
00000000
00000000
00000001
00000000
00000000
00000000
00000100
00000000
00000000
00000000
,
00000010
00001000
00000010
00010000
,
00001000
00020000
01030000
10000000
,
00100000
01000000
00010000
00100000
,
00001000
00010000
00000100
00001000
,
00001000
00000001
00000001
00000100
,
00000100
00001000
00001000
00010000
,
00000000
00100000
00000000
10010000
,
00000000
10000000
10000000
00010000
,
00010000
01000000
00001000
00010000
,
00001000
00010000
00010000
00000100
,
00000100
00001000
00000001
00001000
,
00001001
00000000
00000001
00000100
,
00001000
00010000
00001000
00010000
,
00100000
10000000
01000000
10000000
,
00010000
00100000
00001000
00010000
,
00000010
00000110
00000000
00000000
,
00000000
00000000
00000000
00000000
,
00000000
00000001
00000100
00000001
,
00000000
00001000
00000100
00001000
,
00000000
00000100
00000000
00000100
00000000
00010000
00000000
00001000
,
00000000
00001000
00000000
01000000
00000000
00010000
00000000
00010000
,
00000000
00000000
10000000
00000000
00000000
00000000
00000000
01000000
00000000
00000000
00100000
00000000
00000000
01000000
00000000
00000000
,
00000000
10000000
00100000
01000000
,
00010000
01000000
00001000
00010000
,
00000010
00001000
00000001
00000010
,
00001000
00000000
00000000
00010000
00000000
01000000
00000000
10000000
,
00000000
00010000
00100000
00001000
,
00000000
00000000
00000000
00000000
;
#NOTES:
     dance-double:
     :
     Medium:
     11:
     :
00000000
00000000
00000000
00000000
,
00000000
00000000
00000000
00000000
,
00000000
00000000
00000000
00000000
,
00000000
00000000
00000000
00000000
,
00000000
00000000
00000000
00000000
,
10000000
00100000
10000000
00000000
00010000
00000000
00100000
00001000
,
00010000
00000000
00000100
00000000
00001000
00000010
00001000
00000000
,
00000001
00000000
00000010
00000100
00000010
00000000
00000001
00000000
,
00000100
00001000
00010000
00001000
00000000
01000000
00000000
00010000
,
10000000
00010000
00000000
00100000
00000000
00001000
00010000
00001000
,
00000000
00010000
00000000
00000010
00001000
00000010
00000000
00000100
,
00000000
00000001
00001000
00000100
00001000
00000000
00000010
00000000
,
00010000
00001000
00010000
00000000
00001000
00000000
01000000
00010000
,
01000000
00000000
00100000
00000000
10000000
00000000
01000000
00010000
,
00001000
00000000
00010000
00000000
00001000
00000000
00001000
00000000
00000000
00000000
00010000
00000100
00000000
00000100
00000000
00000000
,
00001000
00001000
00000010
00000100
00000001
00000010
00000100
00001000
,
00000000
00000000
00000100
00010000
00000000
00010000
00000000
00000000
00001000
00000000
00001000
00000000
01000000
00000000
00010000
00000000
,
01000000
00010000
10000000
00000000
00100000
01000000
00001000
00010000
,
00001000
00000000
00010000
00000000
00000010
00000000
00000000
00001000
00000000
00000000
00000100
00000000
00001000
00000000
00001000
00000000
,
00000001
00000000
00000100
00000010
00010000
00001000
00100000
00010000
,
00000000
10000000
00000000
00000000
00010000
00000000
00000000
00000000
10000000
00000000
00000000
00000000
01000000
00000000
00100000
00000000
,
01000000
10000000
00100000
00010000
00001000
00000000
00010000
00001000
,
00000100
00000001
00000100
00000000
00000010
00000000
00001000
00000100
,
00000010
00000000
00000001
00000000
00000000
00000100
00000000
00000000
00001000
00000000
00000000
00000000
00010000
00000000
00000000
00000000
,
00001000
00000000
00100000
00000000
00010000
00000000
10000000
00000000
00100000
00000000
01000000
00000000
00010000
00000000
00000000
01000000
,
00000000
00001000
00020000
00000000
00030010
00000100
00000001
00000000
,
00001000
00000000
00000010
00000000
00010000
00000000
00001000
00000000
00100000
00000000
00010000
00000000
10000000
00000000
00000000
01000000
,
00000000
00010000
00001000
00000010
00000001
00000010
00000001
00000000
,
00000100
00001000
00010000
00010000
00001000
00001000
00010000
00100000
,
01000000
00100000
10000000
10000000
01000000
01000000
00100000
00000000
,
00010000
00000000
00000000
00000000
00001000
00000000
00000000
00000000
00000100
00000000
00000000
00000000
00000010
00000001
00000000
00000001
,
00001000
00000000
00001000
00000000
00000100
00000000
00010000
00000000
00001000
00010000
00001000
00000000
01000000
00010000
01000000
00000000
,
00100000
00000000
10000000
00000000
00010000
00000000
01000000
00000000
00001000
00010000
00001000
00000000
00010000
00000100
00010000
00000000
,
00000100
00000000
00000000
00001000
00000000
00000000
00000001
00000000
00000000
00000010
00000000
00000000
00000100
00000000
00001000
00000100
00000000
00000000
00010000
00000000
00000000
00001000
00000000
00000000
,
01000000
00000000
00000000
00000000
00010000
00000000
01000000
00000000
00000000
00000000
00000000
00000000
00100000
00000000
00000000
00000000
00000000
00000000
10000000
00000000
00000000
00000000
00000000
00000000
00100000
00000000
00000000
01000000
00000000
00000000
00100000
00000000
00000000
00000000
00000000
00000000
01000000
00000000
00000000
00000000
00000000
00000000
00001000
00000000
00000000
00000000
00000000
00000000
,
00010000
00000000
00011000
00000000
00000000
00000000
00000000
00000000
00010000
00000000
00000010
00000000
00001000
00000010
00001000
00000000
,
00000001
00000000
00000000
00000100
00000000
00000000
00001000
00000000
00010000
00000000
00000000
00000000
00001000
00000000
00000000
00000000
00100000
00000000
00000000
00100000
00000000
00000000
00100000
00000000
00010000
00000000
00000000
00010000
00000000
00000000
00010000
00000000
,
10000000
00000000
00000000
00000000
10010000
00000000
00000000
00000000
10000000
00000000
00000000
00100000
00000000
00000000
00010000
00000000
00001000
00000000
00010000
00000000
00001000
00000000
00000000
00000000
00000100
00000000
00000010
00000000
00000100
00000000
00000000
00000000
,
00000001
00000000
00000010
00000100
00000000
00000000
00001000
00000000
00000010
00010000
00000000
00001000
00100000
00000000
00000000
00010000
00000000
00000000
10000000
00000000
00000000
01000000
00000000
00000000
,
00010000
00001000
00011000
00000000
00000000
00000000
00000000
00000000
,
00000000
00000000
00000000
00000000
,
00000000
00000000
00010000
00000100
00010000
00000000
00000010
00000000
,
00001000
00000000
00000001
00000010
00000001
00000000
00001000
00000000
,
00000100
00000000
00010000
00000000
00001000
00000000
00010000
00000000
00000000
00000010
00000000
00000000
00010000
00000000
00001000
00000000
,
00100000
00010000
10000000
00000000
00010000
01000000
00001000
00010000
,
00000000
00001000
00000000
00000000
00100000
00000000
00000000
00010000
00000000
00000000
00001000
00000000
00000000
00000100
00000000
00000000
,
00000010
00000000
00000001
00000000
00001000
00000000
00000100
00000000
00010000
00000000
00000000
00001000
00000000
00000000
01000000
00000000
,
00010000
00000000
00000000
00000000
10000000
00000000
00000000
00010000
00000000
00000000
00100000
00000000
00001000
00000000
00010000
00000000
,
00000100
00000000
00000000
00001000
00000000
00000000
00000001
00000000
00000100
00000000
00000000
00001000
00000000
00000000
00010000
00000000
,
00100000
00000000
10000000
00000000
00100000
00000000
10000000
00000000
00000000
01000000
00000000
00000000
00010000
00000000
00001000
00000000
,
00000010
00000000
00000001
00000000
00001000
00000000
00000000
00000010
00000000
00000000
00010000
00000000
00001000
00000000
00000000
00000000
,
00000000
00000000
00000000
00000000
;
#NOTES:
     dance-double:
     :
     Hard:
     14:
     :
00000000
00000000
00000000
00000000
,
00000000
00000000
00000000
00000000
,
00000000
00000000
00000000
00000000
,
00000000
00000000
00000000
00000000
,
00000000
00000000
00000000
00000000
,
00001000
00000000
00010000
00000000
00001000
00000000
00000000
00100000
00000000
00010000
01000000
00010000
01000000
00000000
00001000
00000000
,
00010000
00000000
00001000
00000100
00000000
00000001
00000100
00000000
00000010
00000000
00001000
00000000
00000010
00000000
00000000
00010000
,
00000000
00000100
00001000
00000100
00001000
00000000
00000001
00000000
00000100
00000000
00000001
00001000
00000000
00000010
00010000
00001000
,
00010000
00001000
01000000
00000000
00010000
00000000
01000000
00000000
00000000
00100000
00000000
01000000
00010000
01000000
00010000
00000000
,
10000000
00000000
01000000
00000000
10000000
00100000
00000000
00010000
00001000
00000000
00000100
00000000
00000010
00000000
00000100
00000000
,
00000000
00000000
00000000
00000001
00000000
00000000
00000000
00000000
00000000
00001000
00000000
00000000
00000010
00000000
00000000
00001000
00000000
00000000
00000010
00000000
00000000
00000000
00000100
00000000
00000000
00000000
00000001
00000000
00000000
00000000
00000100
00000000
00000000
00000000
00000000
00000000
00000001
00000000
00000000
00001000
00000000
00000000
00000000
00000000
00000000
00000100
00000000
00000000
,
00010000
00001000
00100000
00000000
01000000
00000000
00100000
00000000
01000000
00000000
00000000
10000000
00000000
00010000
01000000
00010000
,
01000000
00000000
00001000
00000000
00010000
00000000
00000010
00000100
00000000
00000001
00000100
00000000
00001000
00000000
00010000
00000000
,
00001000
00000000
01000000
00100000
00000000
10000000
00010000
10000000
00010000
00000000
00000000
00000000
10000000
00000000
01000000
00000000
,
00010000
00001000
00010000
00000000
00000100
00001000
00000100
00000000
00000000
00000000
00001000
00000001
00000000
00000001
00000000
00000000
,
00000100
00000010
00000100
00000000
00000001
00000000
00000010
00000000
00001000
00000000
00010000
00000000
01000000
00100000
01000000
00000000
,
10000000
00000000
00010000
00100000
00000000
00100000
00000000
00000000
00001000
00010000
00001000
00000000
00010000
00000000
00000010
00001000
,
00000010
00001000
00000001
00000000
00001000
00000000
00000100
00000000
00010000
00001000
00010000
00000000
00100000
00000000
10000000
00000000
,
00010000
01000000
00010000
00000000
10000000
00100000
00000000
00010000
00001000
00010000
00001000
00000000
00000100
00000000
00000001
00000000
,
00000010
00000100
00000010
00000000
00000100
00001000
00000100
00000000
00010000
00001000
00010000
00000000
01000000
00000000
11000000
00000000
,
10000000
00100000
00000000
00100000
00010000
00000000
00001000
00010000
00000100
00000000
00001000
00000000
00000001
00000100
00000001
00000000
,
00000010
00000000
00001000
00000000
00010000
00001000
00010000
00000000
00001000
01000000
00001000
01000000
00010000
00000000
00100000
00000000
,
00010000
00000000
10000000
00000000
01000000
00100000
01000000
00000000
10000000
00000000
00000000
00000000
00100000
00000000
00010000
00000000
,
00001000
00000000
00011000
00000000
00010000
00001000
00000000
00001000
00000100
00000000
00000001
00001000
00000001
00000000
00000100
00000000
,
00000010
00001000
00000010
00000000
00010000
00000000
00001000
00000000
01000000
00010000
10000000
00000000
00100000
01000000
00000000
00001000
,
00010000
00000000
00000000
00000000
00000000
00000000
00000100
00000000
00000000
00000000
00000000
00000000
00001000
00000000
00000000
00000000
00001000
00000000
00000000
00000000
00001000
00000000
00000000
00000000
00000001
00000000
00000000
00000000
00000000
00000000
00000010
00000000
00000000
00000100
00000000
00000000
00000010
00000000
00000000
00000000
00000000
00000000
00000001
00000000
00000000
00000000
00000000
00000000
,
00000100
00001000
00010000
00000000
00001000
00010000
00100000
00000000
10000000
00000000
00010000
00000000
10000000
01000000
00000000
00010000
,
00001000
00000000
00010000
00000000
01000000
00000000
00100000
00010000
00100000
00000000
00001000
00000000
00010000
00000000
00001000
00000000
,
00000100
00000001
00000010
00000000
00000001
00000010
00001000
00000000
00010000
00001000
00010000
00001000
00010000
00000000
01000000
00000000
,
10000000
00000000
00000000
01000000
00000000
00000000
00100000
00000000
00000000
00010000
00000000
00000000
10000000
00000000
00000000
00000000
10000000
00000000
00000000
00000000
10000000
00000000
00000000
00000000
01000000
00000000
00000000
00000000
00000000
00000000
01000000
00000000
00000000
00000000
00000000
00000000
00100000
00000000
00000000
00000000
00000000
00000000
00100000
00000000
00000000
00000000
00000000
00000000
,
00010000
00000000
00010000
00000000
00001000
00000000
00001000
00000000
00000100
00000000
00000100
00000000
00000010
00000001
00000000
00000001
,
00001000
00000000
00000000
00000000
00001000
00000000
00000000
00000000
00000010
00000000
00000000
00000000
00010000
00000000
00001000
00000000
00010000
00001000
00010000
00000000
00001000
00000000
00100000
00000000
00010000
00100000
00010000
00000000
10000000
00000000
00010000
00000000
,
10000000
00000000
00000000
00000000
00000000
00000000
01000000
00000000
00000000
00000000
00000000
00000000
00010000
00000000
00000000
00000000
00000000
00000000
00001000
00000000
00000000
00000000
00000000
00000000
00010000
00000000
00000000
00000000
00000000
00000000
00000000
00000000
00000000
00000000
00000000
00000000
00000100
00000000
00000000
00000000
00001000
00000000
00000000
00000000
00000100
00000000
00000000
00000000
00000010
00000000
00000000
00000000
00000000
00000000
00000001
00000000
00000000
00000000
00000000
00000000
00001000
00000000
00000000
00000001
00000000
00000000
00001000
00000000
00000000
00000000
00000000
00000000
00000100
00000000
00000000
00000000
00000000
00000000
00010000
00000000
00000000
00000000
00000000
00000000
00001000
00000000
00000000
01000000
00000000
00000000
00001000
00000000
00000000
00000000
00000000
00000000
,
01000000
00000000
00000000
00010000
00000000
00000000
10010000
00000000
00000000
00000000
00000000
00000000
11000000
00000000
00000000
00000000
00000000
00000000
01000000
00000000
00000000
00000000
01000000
00000000
00010000
00000000
00000000
00000000
00010000
00000000
00001000
00000000
00000000
00000000
00000000
00000000
00010000
00000000
00000000
00000000
00010000
00000000
00001000
00000000
00000000
00000000
00001000
00000000
,
00000010
00000000
00000000
00000000
00000010
00000000
00000001
00000000
00000000
00000000
00001000
00000000
00000001
00000000
00000000
00000000
00000100
00000000
00001000
00000000
00000000
00000000
00010000
00000000
00100000
00000000
00000000
10000000
00000000
00000000
00100000
00000000
00000000
00010000
00000000
00000000
00001000
00000000
00010000
00000000
00000100
00000000
00001000
00000000
00000100
00000000
00010000
00000000
,
00001000
00000000
00000000
00000000
01000000
00000000
00000000
00000000
00010000
00000000
00000000
00000000
01000000
00000000
00000000
00000000
00000000
00000000
00001000
00000000
00000000
00000000
00000000
00000000
00010000
00000000
00000000
00000000
00000000
00000000
00000000
00000000
00000000
00000000
00000000
00000000
00000000
00000000
00000000
00000000
00000000
00000000
00000000
00000000
00000000
00000000
00000000
00000000
00000010
00000000
00000000
00000000
00000000
00000000
00000100
00000000
00000000
00000000
00000000
00000000
00000001
00000000
00000000
00000100
00000000
00000000
00000001
00000000
00000000
00000000
00000000
00000000
00001000
00000000
00000000
00000000
00000000
00000000
00000100
00000000
00000000
00000000
00000000
00000000
00010000
00000000
00000000
00000100
00000000
00000000
00010000
00000000
00000000
00000000
00000000
00000000
,
00001000
00000000
00000000
00000000
00000000
00000000
00010000
00000000
00000000
01000000
00000000
00000000
00000000
00000000
00000000
00010000
00000000
00000000
00001000
00000000
00000000
00000000
00000000
00000000
01000000
00000000
00000000
00000000
00000000
00000000
00000000
00000000
00000000
00000000
00000000
00000000
00100000
00000000
00000000
00000000
10000000
00000000
00000000
00000000
00100000
00000000
00000000
00000000
10000000
00000000
00000000
00000000
00000000
00000000
01000000
00000000
00000000
00100000
00000000
00000000
00000000
00000000
00000000
00010000
00000000
00000000
00100000
00000000
00000000
00000000
00000000
00000000
00001000
00000000
00000000
00000000
00000000
00000000
00010000
00000000
00000000
00000010
00000000
00000000
00000000
00000000
00000000
00001000
00000000
00000000
00000001
00000000
00000000
00000000
00000000
00000000
,
00000100
00000000
00000000
00000000
00000110
00000000
00000000
00000000
00000002
00000000
00000000
00000203
00000000
00000000
00002300
00000000
00013000
00001000
00010000
00001000
00010000
00000000
00000100
00000000
00010000
00001000
00010000
00001000
00010000
00000000
00000010
00000000
,
00001000
00000000
00000000
00000000
00001000
00000000
00000001
00000000
00000000
00000000
00000000
00000000
00000001
00000000
00000000
00000000
00000001
00000000
00000100
00000000
00000000
00000000
00000100
00000000
00001000
00000000
00000000
00010000
00000000
00000000
00100000
00000000
00000000
10000000
00000000
00000000
00010000
00000000
00100000
00000000
00001000
00000000
00010000
00000000
00000010
00000000
00001000
00000000
,
00000001
00000100
00000010
00001000
00000100
00010000
00001000
00000000
00000000
00000000
00000000
00000000
00000000
00000000
00000000
00000000
00000000
00000000
00000000
00000000
00000000
00000000
00000000
00000000
,
00000000
00000000
00000000
00000000
,
00000000
00000000
00000000
00000000
00010000
00000000
00001000
00000000
00010000
00000000
00000000
00000010
00000000
00000000
00001000
00000000
,
00000000
00000001
00000100
00000000
00000001
00000000
00000010
00000000
00001000
00000000
00010000
00001000
00000000
00000000
00010000
00000000
,
00000100
00000000
00010000
00000000
00001000
00000000
00010000
00000000
00000000
00000100
00000000
00001000
00000010
00001000
00000010
00000000
,
00010000
00000000
00001000
00000000
00010000
00100000
00000000
10000000
00100000
00000000
01000000
00000000
00010000
00000000
01000000
00000000
,
00000000
00001000
00000000
00100000
00010000
00000000
00000000
10000000
00100000
00000000
00010000
00000000
00001000
00000000
00000100
00000000
,
00000001
00000010
00000100
00000000
00000010
00000000
00000001
00000000
00000100
00000000
00000000
00000010
00000000
00001000
00000100
00001000
,
00000100
00000000
00000000
00000000
00010000
00000000
00000000
00000000
00001000
00000000
00000000
00000000
00100000
00000000
00000000
00000000
00000000
00000000
00010000
00000000
00000000
01000000
00000000
00000000
00000000
00000000
00000000
10000000
00000000
00000000
01000000
00000000
00000000
00000000
00000000
00000000
00010000
00000000
00000000
00000000
00000000
00000000
00100000
00000000
00000000
00000000
00000000
00000000
,
00001000
00000000
00000000
00010000
00000000
00000010
00001000
00000000
00000001
00000000
00000100
00001000
00000000
00001000
00010000
00000000
,
00001000
00100000
00010000
10000000
01000000
00000000
10000000
00000000
00100000
00010000
00000000
00010000
00001000
00000000
00010000
00000100
,
00001000
00000001
00000010
00000000
00000001
00000000
00000100
00001000
00000000
00010000
00100000
00000000
10000000
00010000
00000000
00000000
,
00000000
00000000
00000000
00000000
;
