
//----- song ID: dade -----//
#TITLE:Dance and Death;
#ARTIST:ikaruga_nex;
#BANNER:Dance and Death.png;
#BACKGROUND:Dance and Death-bg.png;
#CDTITLE:./CDTitles/DDR WORLD.png;
#MUSIC:Dance and Death.ogg;
#SAMPLESTART:21.497;
#SAMPLELENGTH:15;
#BPMS:0=145;
#BGSTAGE:17;
#NOTES:
     dance-single:
     :
     Beginner:
     1:
     :
0000
0000
0000
0000
,
0000
0000
0000
0000
,
0000
0000
0000
0000
,
0000
0000
0000
0000
,
0000
0000
0000
0000
,
0010
0000
0000
0000
,
0010
0000
0000
0000
,
0010
0000
0000
0000
,
0000
0000
0000
0000
,
1001
0000
0000
0000
,
0000
0000
0000
0000
,
1001
0000
0000
0000
,
0000
0000
0000
0000
,
1000
0000
0000
0000
,
1000
0000
0000
0000
,
0010
0000
0000
0000
,
0000
0000
0000
0000
,
0010
0000
0000
0000
,
0010
0000
0000
0000
,
0001
0000
0000
0000
,
0000
0000
0000
0000
,
0001
0000
0000
0000
,
0001
0000
0000
0000
,
0010
0000
0000
0000
,
0000
0000
0000
0000
,
0010
0000
0000
0000
,
0010
0000
0000
0000
,
1000
0000
0000
0000
,
0000
0000
0000
0000
,
1000
0000
0000
0000
,
0100
0000
0000
0000
,
1000
0000
0000
0000
,
0000
0000
0000
0000
,
1000
0000
0000
0000
,
1000
0000
0000
0000
,
0010
0000
0000
0000
,
0000
0000
0000
0000
,
1001
0000
0000
0000
,
0000
0000
0000
0000
,
0001
0000
0000
0000
,
0001
0000
0000
0000
,
0010
0000
0000
0000
,
0010
0000
0000
0000
,
0001
0000
0000
0000
,
0000
0000
0000
0000
,
0100
0000
0000
0000
,
0000
0000
0000
0000
,
1000
0000
0000
0000
,
1000
0000
0000
0000
,
0010
0000
0000
0000
,
0000
0000
0000
0000
,
1000
0000
0000
0000
,
0010
0000
0000
0000
,
1000
0000
0000
0000
,
0000
0000
0000
0000
,
0010
0000
0000
0000
,
0010
0000
0000
0000
,
0001
0000
0000
0000
,
0001
0000
0000
0000
,
0010
0000
0000
0000
,
0001
0000
0000
0000
,
0010
0000
0000
0000
,
0000
0000
0000
0000
,
0010
0000
0000
0000
,
0010
0000
0000
0000
,
1000
0000
0000
0000
,
1000
0000
0000
0000
,
0010
0000
0000
0000
,
1000
0000
0000
0000
,
0010
0000
0000
0000
,
0000
0000
0000
0000
,
1001
0000
0000
0000
,
0000
0000
0000
0000
;
#NOTES:
     dance-single:
     :
     Easy:
     7:
     :
0000
0000
0000
0000
,
0000
0000
0000
0000
,
0000
0000
0000
0000
,
0000
0000
0000
0000
,
0000
0000
0000
0000
,
0002
0000
0000
0003
,
2000
0000
0000
3000
,
0020
0000
0000
0030
,
0200
0000
0000
0300
,
0001
0001
0001
0000
,
0010
0010
0010
0000
,
0100
0100
0100
0000
,
1000
1000
1000
0000
,
1000
0100
1000
0001
,
1000
0100
1000
0000
,
0001
0100
0001
1000
,
0001
0100
0001
0000
,
1000
0010
1000
0001
,
1000
0010
1000
0000
,
0001
0010
0001
1000
,
0001
0010
0001
0000
,
1000
0100
0010
0001
,
0100
0000
0010
0000
1000
0001
1000
0000
,
0001
0010
0100
1000
,
0010
0100
0110
0000
,
0001
0010
0100
1000
,
0010
0000
0100
0000
0001
1000
0001
0000
,
1000
0100
0010
0001
,
0100
0010
0110
0000
,
2000
0000
0000
3000
,
1000
0100
0010
0001
,
0002
0000
0000
0003
,
0001
0100
0010
1000
,
2000
0000
0000
3000
,
0020
0000
0000
0030
,
0200
0000
0000
0300
,
0002
0000
0000
0003
,
1001
0000
0000
0000
,
0000
0000
0000
0000
,
0001
0010
0001
0100
,
0010
0010
1000
1000
,
0001
0100
0010
1000
,
0100
0100
0110
0000
,
0001
0001
0001
0000
,
1000
1000
1000
0000
,
0100
0010
0100
0010
,
0110
0000
1001
0000
,
0001
0000
1000
0000
,
0001
0000
1000
0000
,
0100
0000
0010
0000
,
0100
0000
0010
0000
,
0001
0010
0001
0010
,
0001
0100
0001
0000
,
1000
0010
1000
0010
,
1000
0100
1000
0000
,
0001
0100
0010
0100
,
0001
0010
0001
0000
,
1000
0100
0010
0100
,
1000
0010
1000
0000
,
0001
0100
1000
0000
,
0100
0000
0001
0000
,
1000
0100
0001
0000
,
0100
0000
1000
0000
,
0002
0000
0000
0003
,
0001
0001
0100
0100
,
0020
0000
0000
0030
,
1000
0001
1000
0000
,
2000
0000
0000
3000
,
1000
1000
0100
0100
,
0020
0000
0000
0030
,
0001
1000
0001
0000
,
1001
0000
0000
0000
,
0000
0000
0000
0000
;
#NOTES:
     dance-single:
     :
     Medium:
     10:
     :
0000
0000
0000
0000
,
0000
0000
0000
0000
,
0000
0000
0000
0000
,
0000
0000
0000
0000
,
0000
0000
0000
0000
,
1000
0010
1000
0000
,
0001
0010
0001
0000
,
1000
0100
1000
0000
,
0001
0100
0001
0000
,
1000
0100
0010
0100
1000
0000
1001
0000
,
0001
0100
0010
0100
0001
0000
1001
0000
,
1000
0010
0100
0010
1000
0100
0010
0001
,
2000
0000
3000
0000
,
1001
0010
1001
0010
,
1001
0000
0010
0000
0100
0010
0100
0000
,
1001
0100
1001
0100
,
1001
0100
0220
0330
,
1000
0100
0010
0000
0001
0100
0010
0000
,
1000
0100
0010
0000
0001
0100
0010
0000
,
1000
0010
0100
0000
0001
0010
0100
0000
,
1000
0010
0100
0001
2000
0000
3000
0000
,
0001
0100
1000
0100
0001
0000
1001
0000
,
1000
0100
0001
0100
1000
0000
1001
0000
,
0001
0010
1000
0010
0001
0000
1001
0000
,
1000
0010
0001
0010
1000
0000
1001
0000
,
0001
0010
0100
0010
1000
0010
0100
0010
,
0001
0110
1000
0110
,
1000
0100
0010
0100
0001
0100
0010
0100
,
1000
0000
0000
0000
0110
0000
0000
0000
0001
0000
0000
1000
0000
0000
0001
0000
,
2000
0000
3200
0000
0310
0001
0010
0000
,
0002
0003
2000
3000
,
0002
0000
0203
0000
0310
1000
0010
0000
,
2000
3000
0002
0003
,
2000
0000
0000
3000
,
0002
0000
0000
0003
,
0200
0300
0020
0030
,
0220
0000
0000
0000
,
0330
0000
0000
0000
,
0000
0000
0000
0000
,
1000
0010
1000
0010
0100
0001
0100
0000
,
0001
0000
0100
0000
1000
0100
0001
0000
,
0010
0001
0010
0001
1000
0100
1000
0000
,
0001
0010
1000
0000
0020
0000
0030
0000
,
0001
0101
1000
1100
,
0001
0101
1000
1100
,
0001
1000
0001
1000
0001
1000
0001
1000
,
0010
0010
0010
0010
,
0110
0000
1001
0000
,
0110
0100
1001
0000
,
1010
0000
0101
0000
,
1010
1000
0101
0000
,
0011
0001
0101
0001
,
1010
1000
1100
1000
,
0001
0100
0001
0000
1000
0100
1000
0000
,
0001
1000
0001
0000
2000
0000
3000
0000
,
1000
0100
0001
0100
,
1000
0000
0100
0000
0010
0001
0010
0000
,
0001
0100
1000
0100
,
0001
0000
0100
0000
0010
1000
0010
0000
,
1000
0100
0010
0000
0100
1000
0010
0000
,
1000
0100
0010
0000
0001
0000
1001
0000
,
0001
0100
0010
0000
0100
0001
0010
0000
,
0001
0000
0100
0000
0010
0000
0000
0000
1000
0000
0000
0001
0000
0000
1000
0000
,
0001
0000
0001
1000
0010
0000
0100
0000
,
0001
0010
0001
1000
0002
0000
0003
0000
,
1000
0000
1000
0001
0010
0000
0100
0000
,
1000
0010
1000
0001
2000
0000
3000
0000
,
2000
0100
0000
3100
,
0002
0100
0000
0103
,
1000
0010
0100
0000
0001
0010
0100
0000
,
1000
0010
1000
0000
0001
0000
0100
0000
,
0110
0000
0000
0000
,
0000
0000
0000
0000
;
#NOTES:
     dance-single:
     :
     Hard:
     13:
     :
0000
0000
0000
0000
,
0000
0000
0000
0000
,
0000
0000
0000
0000
,
0000
0000
0000
0000
,
0000
0000
0000
0000
,
2000
0000
0000
3000
,
0002
0000
0000
0003
,
0001
0100
0010
0000
1000
0100
0010
0000
,
0001
1000
0001
1000
0001
0000
1001
0000
,
1000
0000
0100
0000
0001
0000
0100
0000
1000
0000
0000
1000
0000
0000
1000
0000
,
0001
0000
0100
0000
1000
0000
0100
0000
0001
0000
0000
0000
0001
1000
0001
0000
,
1000
0010
0100
0001
1000
0100
0010
0001
,
1000
0010
1000
0000
0001
0010
0001
0000
2000
0000
0000
0000
3000
0000
0000
0000
,
1010
0000
0000
0000
1000
0100
0000
0000
0011
0000
0000
0000
0001
0100
0000
0000
,
1010
0000
0000
0000
1000
0100
0000
0000
0011
0000
0001
0000
0101
0000
0000
0000
,
1100
0000
0000
0000
1000
0010
0000
0000
0101
0000
0000
0000
0001
0010
0000
0000
,
1100
0000
0000
0000
1000
0010
0000
0000
0102
0000
0000
0000
0013
0000
0000
0000
,
0001
0000
0010
0000
0100
1000
0000
0100
1000
0000
0010
0000
0100
0001
0000
0100
,
0001
0000
1000
0000
0100
0010
0000
0100
0010
0000
0001
0000
0100
0000
0001
0000
,
0010
0000
0100
0000
1000
0010
0000
1000
0010
0000
0100
0000
0001
0000
0010
0000
,
0001
0001
1000
1000
1001
0000
0110
0000
,
1000
0000
0000
0010
0000
0010
0000
1000
0010
0000
0000
0100
0000
0100
0000
0001
,
0100
0000
0000
0001
0000
0001
0000
0010
0001
0000
0100
0010
0100
0000
0000
0000
,
0001
0000
0000
0010
0000
0010
0000
0001
0010
0000
0000
0100
0000
0100
0000
1000
,
0100
0000
0000
1000
0000
1000
0000
0010
1000
0000
0100
0010
0100
0000
0000
0000
,
1000
0000
0000
0010
0000
0010
0000
0001
0010
0000
0000
1000
0000
1000
0000
0100
,
0010
0000
0000
0001
0000
0001
0000
0100
0010
0000
1000
0001
1000
0000
0000
0000
,
0001
0000
0000
0100
0000
0100
0000
1000
0100
0000
0000
0001
0000
0001
0000
0010
,
0100
0000
0000
1000
0000
1000
0000
0010
0100
0000
0010
0100
0000
0000
0110
0000
,
0001
0100
0010
0100
0001
0010
0100
0010
,
0001
0100
1000
0100
0001
0001
1001
0000
,
1000
0100
0010
0100
1000
0010
0100
0010
,
1000
0100
0001
0100
1000
1000
1001
0000
,
0002
0000
0023
0000
,
2030
0000
3020
0000
,
0032
0203
2300
3200
,
0302
0000
0000
0000
1003
0001
2000
0000
,
3001
0000
0000
0000
,
0000
0000
0000
0000
,
1000
0100
0010
0100
1000
0100
0001
0100
,
1000
0000
0010
0100
0010
0000
0010
0000
1000
0000
0001
0000
1001
0000
0000
0000
,
0001
0100
0010
0100
0001
0100
1000
0100
,
0001
0000
0000
0001
0010
0000
0100
0000
0010
0000
0001
0000
1002
0000
0000
0000
,
1003
0000
0000
0001
0100
0000
0010
0000
1010
0000
0000
0010
1000
0000
0100
0000
,
1100
0000
0000
0100
1000
0000
0001
0000
0010
0100
0010
0000
0001
0000
0000
0000
,
1000
0010
0001
0010
1000
0100
0001
0100
,
1100
1010
0011
0101
,
0002
0000
0003
0000
0001
0010
0001
0000
2000
0000
3000
0000
1000
0010
1000
0000
,
0002
0000
0003
0000
0001
0100
0001
0000
2000
0000
3000
0000
1000
0100
1000
0000
,
0002
0000
0003
0000
0001
0100
0010
0000
2000
0000
3000
0000
1000
0100
0010
0000
,
0002
0000
0003
0000
0001
0010
0100
0000
2000
0000
0000
0000
3000
0000
0000
0000
,
1000
0000
0100
0000
0010
0000
0001
0100
0000
0100
0001
0000
0010
0000
0100
1000
,
0000
1000
0100
0000
0010
0000
0001
1000
0000
1000
0001
0000
0100
0000
0000
0000
,
0001
0000
0100
0000
0010
0000
1000
0100
0000
0100
1000
0000
0010
0000
0110
0000
,
0200
0302
2003
3100
,
1000
0000
0100
0010
0000
0100
0010
0000
0001
0000
0100
0010
0000
0100
0010
0000
,
1000
0000
0010
0100
0000
0010
0100
0000
0001
0000
0001
0000
0001
0000
0000
0000
,
1000
0000
0001
0100
0000
0001
0100
0000
0010
0000
1000
0100
0000
1000
0100
0000
,
0010
0000
0001
1000
0000
0010
0100
0000
0001
0000
0001
0000
1001
0000
0000
0000
,
0001
0000
0100
0010
0000
0100
0010
0000
1000
0000
0100
0010
0000
0100
0010
0000
,
0001
0000
0010
0100
0000
0010
0100
0000
1000
0000
1000
0000
1000
0000
0000
0000
,
0001
0000
1000
0100
0000
1000
0100
0000
0010
0000
0001
0100
0000
0001
0100
0000
,
0010
0000
1000
0001
0000
0010
0100
0000
1000
0000
0000
1001
0000
0000
1001
0000
,
0001
0100
0010
1000
0001
0100
1000
0100
,
0001
0100
0001
0000
0010
0000
0010
0000
0100
0000
1000
0100
1000
0000
0000
0000
,
0001
0010
0100
1000
0001
0010
1000
0010
,
0001
0000
0000
0001
0100
0000
0100
0000
0010
1000
0010
0000
1000
0000
0000
0000
,
1000
0100
0010
0001
1000
0100
0001
0100
,
1000
0100
1000
0000
0010
0000
0010
0000
0100
0000
0001
0100
0001
0000
0000
0000
,
1000
0010
0100
0001
1000
0010
0001
0010
,
1000
0000
0000
1000
0100
0000
0100
0000
0010
0001
0010
0000
0001
0000
0000
0000
,
1001
0000
0000
0000
,
0000
0000
0000
0000
;
#NOTES:
     dance-double:
     :
     Easy:
     7:
     :
00000000
00000000
00000000
00000000
,
00000000
00000000
00000000
00000000
,
00000000
00000000
00000000
00000000
,
00000000
00000000
00000000
00000000
,
00000000
00000000
00000000
00000000
,
00002000
00000000
00000000
00003000
,
00020000
00000000
00000000
00030000
,
00002000
00000000
00000000
00003000
,
00200000
00000000
00000000
00300000
,
00010000
00000000
00010000
00000000
,
10000000
01000000
00100000
00000000
,
00001000
00000000
00001000
00000000
,
00010000
00000100
00001000
00000000
,
00000001
00000100
00000001
00000100
,
00000010
00001000
00000010
00000000
,
00001000
00000010
00001000
00000100
,
00010000
00001000
00010000
00000000
,
00001000
00010000
00001000
01000000
,
00010000
01000000
00010000
00000000
,
00100000
00010000
00100000
01000000
,
10000000
00010000
10000000
00000000
,
10000000
10000000
01000000
00000000
,
00100000
00000000
00001000
00000000
00010000
00001000
00010000
00000000
,
00001000
00001000
00010000
00000000
,
00000010
00000000
00001000
00000000
00000100
00000010
00000100
00000000
,
00000010
00000001
00000010
00000100
,
00001000
00000100
00010000
00011000
,
00001000
00010000
00100000
10000000
,
00010000
10000000
10010000
00000000
,
20000000
00000000
00000000
30000000
,
10000000
01000000
00100000
00000000
,
00002000
00000000
00000000
00003000
,
00001000
00010000
00000100
00000000
,
00002000
00000000
00000000
00003000
,
00000002
00000000
00000000
00000003
,
00000200
00000000
00000000
00000300
,
00000020
00000000
00000000
00000030
,
00000110
00000000
00000000
00000000
,
00000000
00000000
00000000
00000000
,
00000001
00000001
00000100
00000000
,
00001000
00010000
00001000
00000000
,
00010000
00010000
00100000
00000000
,
10000000
00010000
10010000
00000000
,
10000000
10000000
01000000
00000000
,
00100000
00100000
00010000
00000000
,
00100000
00001000
00010000
00001000
,
00011000
00000000
00000000
00000000
,
00010000
00001000
00010000
00000000
,
00010000
00000010
00001000
00000000
,
00000001
00000100
00000001
00000000
,
00000001
00001000
00000100
00000000
,
00000100
00010000
00001000
00010000
,
00000100
00010000
00001000
00000000
,
01000000
00001000
00010000
00001000
,
01000000
00001000
00010000
00000000
,
00001000
00010000
00100000
00000000
,
01100000
00000000
10010000
00000000
,
10000000
01000000
00010000
00000000
,
00011000
00000000
00011000
00000000
,
00010000
00001000
00000010
00000000
,
00000110
00000000
00001001
00000000
,
00000001
00000100
00001000
00000000
,
00010000
00010000
00011000
00000000
,
00002000
00000000
00000000
00003000
,
00010000
00001000
00100000
00000000
,
02000000
00000000
00000000
03000000
,
10000000
01000000
00100000
00000000
,
00002000
00000000
00000000
00003000
,
00001000
00010000
00000100
00000000
,
00000020
00000000
00000000
00000030
,
00000001
00001000
00000001
00000000
,
00001001
00000000
00000000
00000000
,
00000000
00000000
00000000
00000000
;
#NOTES:
     dance-double:
     :
     Medium:
     10:
     :
00000000
00000000
00000000
00000000
,
00000000
00000000
00000000
00000000
,
00000000
00000000
00000000
00000000
,
00000000
00000000
00000000
00000000
,
00000000
00000000
00000000
00000000
,
00001000
00010000
00001000
00000000
,
00010000
00001000
01000000
00000000
,
00010000
10000000
00010000
00000000
,
10000000
01000000
00100000
00000000
,
00010000
00100000
00010000
00100000
00001000
00000000
00011000
00000000
,
00010000
00001000
00010000
00000100
00001000
00000000
00001100
00000000
,
00000100
00001000
00000100
00000010
00000001
00000000
00000100
00000000
,
00000220
00000000
00000330
00000000
,
00001001
00000010
00001001
00000010
,
00001001
00000000
00000001
00001000
00000100
00010000
00001000
00000000
,
00011000
00100000
00011000
00000010
,
00011000
00000000
00010000
00001000
02000000
00000000
03000000
00000000
,
01000000
00100000
10000000
00000000
01000000
00100000
00010000
00000000
,
10000000
00000000
01000000
00000000
00010000
00001000
00010000
00000000
,
00000100
00000010
00000001
00000000
00000100
00000010
00001000
00000000
,
00000001
00001000
00000001
00001000
00000002
00000000
00000003
00000000
,
00000001
00000000
00000100
00000000
00001000
00010000
00001000
00000000
,
00010000
00000000
00100000
00000000
10000000
00010000
10000000
00000000
,
01000000
00000000
00010000
00000000
00001000
00010000
00001000
00000000
,
00000010
00000000
00000001
00000000
00001000
00000001
00001000
00000000
,
00000001
00000100
00000010
00001000
00000010
00000100
00000001
00000000
,
00001000
00000100
00010000
00001000
00010000
00000000
00011000
00000000
,
00001000
00100000
00010000
01000000
00010000
10000000
01000000
00000000
,
10000000
00100000
01000000
00010000
20000000
00000000
30000000
00000000
,
10000000
01000000
00010000
00001000
,
00000010
00000100
00010000
00000000
00000010
00000100
00001000
00000000
,
00000100
00000001
00001000
00000100
,
00010000
00001000
00100000
00000000
00010000
01000000
00100000
00000000
,
20000000
00000000
00000000
30000000
,
00020000
00000000
00000000
00030000
,
00200000
00300000
00002000
00003000
,
00022000
00000000
00000000
00000000
,
00033000
00000000
00000000
00000000
,
00000000
00000000
00000000
00000000
,
00001000
00010000
00001000
00010000
00000010
00001000
00000010
00000000
,
00001000
00000000
00000100
00000000
00000001
00000100
00001000
00000000
,
00000100
00001000
00000100
00010000
00001000
00010000
00001000
00000000
,
00010000
01000000
10000000
00000000
00020000
00000000
00030000
00000000
,
10000000
11000000
01000000
01100000
,
00100000
00010000
00100000
00000000
00001000
00010000
00001000
00000000
,
00010000
00000100
00010000
00000100
00001000
00000010
00001000
00000010
,
00000100
00000010
00000100
00000010
,
00000110
00000000
00001001
00000000
,
00000001
00000100
00001000
00010000
,
01100000
00000000
10010000
00000000
,
10000000
01000000
00010000
00001000
,
00000110
00000000
00001001
00000000
,
00000001
00000010
00001000
00010000
,
01000000
00100000
01000000
00000000
10000000
00010000
10000000
00000000
,
00010000
00010000
00100000
00100000
00002000
00000000
00003000
00000000
,
00001000
00010000
00000010
00000100
,
00000010
00010000
00001000
00011000
,
00010000
00001000
00100000
01000000
,
00100000
00001000
00010000
00011000
,
00001000
00010000
00000100
00000000
00000010
00000100
00001000
00000000
,
00000010
00000100
00001000
00000000
00010000
00000000
00011000
00000000
,
00010000
00001000
01000000
00000000
00100000
01000000
00010000
00000000
,
00100000
01000000
00010000
00000000
00001000
00000000
00011000
00000000
,
00010000
00000000
00000100
00000000
00000010
00000001
00001000
00000000
,
00000002
00000000
00000203
00000000
00001300
00010000
00001000
00000000
,
00010000
00000000
00100000
00000000
01000000
00100000
10000000
00000000
,
01000000
00100000
00010000
00100000
00002000
00000000
00003000
00000000
,
00020000
00000000
00100000
00000000
,
00031000
00010000
00011000
00000000
,
00002000
00000000
00000010
00000000
,
00013000
00000000
00011000
00000000
00001000
00000010
00000001
00000000
,
00001001
00000000
00000000
00000000
,
00000000
00000000
00000000
00000000
;
#NOTES:
     dance-double:
     :
     Hard:
     13:
     :
00000000
00000000
00000000
00000000
,
00000000
00000000
00000000
00000000
,
00000000
00000000
00000000
00000000
,
00000000
00000000
00000000
00000000
,
00000000
00000000
00000000
00000000
,
00020000
00000000
00000000
00030000
,
00002000
00000000
00000000
00003000
,
00010000
00001000
00010000
00001000
00000010
00000000
00000011
00000000
,
00000001
00000100
00000001
00000100
00001000
00000000
00011000
00000000
,
00001000
00000000
00010000
00000000
00100000
00000000
10000000
00000000
00010000
00000000
00000000
00010000
00000000
00000000
00010000
00000000
,
10000000
00000000
01000000
00000000
00010000
00000000
00000000
00000000
00001000
00000000
00000000
00000000
00001000
00010000
00001000
00000000
,
00010000
00001000
00010000
00001000
00000010
00000001
00000010
00000001
,
00001000
00000100
00001000
00000000
00000001
00000100
00000001
00000000
00002000
00000000
00000000
00000000
00003000
00000000
00000000
00000000
,
00001001
00000000
00000000
00000000
00000001
00000100
00000000
00000000
00000110
00000000
00000000
00000000
00000010
00010000
00000000
00000000
,
00011000
00000000
00000000
00000000
00001000
01000000
00000000
00000000
00010000
00000000
00100000
00000000
00010000
00000000
01000000
00000000
,
01010000
00000000
00000000
00000000
00010000
10000000
00000000
00000000
11000000
00000000
00000000
00000000
01000000
00100000
00000000
00000000
,
00101000
00000000
00000000
00000000
00001000
00010000
00000000
00000000
00022000
00000000
00000000
00000000
00033000
00000000
00000000
00000000
,
00010000
00000000
00001000
00000000
00010000
00000100
00000000
00010000
00000100
00000000
00001000
00000000
00000010
00000100
00000000
00000010
,
00000100
00000000
00000001
00000000
00001000
00000100
00000000
00001000
00000100
00000000
00000001
00000000
00000100
00000000
00001000
00000000
,
00000100
00000000
00010000
00000000
00001000
00010000
00000000
00001000
00010000
00000000
00001000
00000000
00100000
00000000
00010000
01000000
,
00020000
20030000
30100000
01100000
,
10000000
00000000
00000000
00010000
00000000
00010000
00000000
00100000
00010000
00000000
00000000
01000000
00000000
01000000
00000000
00001000
,
00010000
00000000
00000000
00001000
00000000
00001000
00010000
00000000
00000100
00000000
00000010
00000000
00000100
00000000
00010000
00000000
,
00000100
00000000
00000000
00001000
00000000
00001000
00000000
00000010
00000100
00000000
00000000
00000001
00000000
00000001
00000000
00000010
,
00000001
00000000
00000000
00000100
00000000
00000100
00000000
00001000
00010000
00000000
00001000
00000000
00011000
00000000
00000000
00000000
,
00001000
00000000
00000000
01000000
00000000
01000000
00000000
00010000
00100000
00000000
00000000
00010000
00000000
00010000
00000000
10000000
,
00100000
00000000
00000000
00010000
00000000
00010000
00000000
00001000
00010000
00000000
00001000
00000000
00000100
00000000
00000001
00000000
,
00001000
00000000
00000000
00000100
00000000
00000100
00000000
00000001
00000100
00000000
00000000
00000010
00000000
00000010
00000000
00001000
,
00010000
00000000
00000000
00001000
00000000
00001000
00000000
00100000
00010000
00000000
01000000
00010000
00000000
00000000
01000000
00000000
,
00200000
00000000
20300000
00000000
31000000
00010000
00001000
00010000
,
00002000
00000000
00003020
00000000
00000031
00000001
00001001
00000000
,
00000002
00000000
00000203
00000000
00001300
00010000
00100000
00010000
,
00200000
00000000
20300000
00000000
30010000
00010000
10010000
00000000
,
20000000
00000000
30020000
00000000
,
02030000
00000000
03002000
00000000
,
00023000
00030020
00002030
00003002
,
00002000
00000000
00000000
00000000
,
00003003
00000000
00000000
00000000
,
00000000
00000000
00000000
00000000
,
00000001
00000010
00000100
00001000
00000001
00000100
00001000
00000100
,
00000001
00000010
00000100
00000000
00001000
00000000
00001000
00000000
00000100
00010000
00000100
00000000
00010000
00000000
00000000
00000000
,
00001000
00100000
00010000
01000000
00010000
00100000
01000000
10000000
,
00010000
00000000
00000000
10000000
01000000
00000000
00100000
00000000
00001000
00000000
00010000
00000000
00012000
00000000
00000000
00000000
,
00013000
00000000
00000000
00000100
00001000
00000000
00000010
00000000
00000110
00000000
00000000
00000010
00000100
00000000
00000001
00000000
,
00001001
00000000
00000000
00001000
00000100
00000000
00010000
00000000
00011000
00000000
00000000
00010000
00001000
00000000
00100000
00000000
,
00010000
10000000
01000000
00010000
00001000
00100000
01000000
00010000
,
00001000
00001010
00000011
00001001
,
00000002
00000000
00000003
00000000
00000001
00000010
00000001
00000000
00000200
00000000
00000300
00000000
00000100
00000010
00000100
00000000
,
00002000
00000000
00003000
00000000
00001000
00010000
00001000
00000000
00200000
00000000
00300000
00000000
00100000
00010000
00100000
00000000
,
02000000
00000000
03000000
00000000
01000000
10000000
00010000
00000000
00200000
00000000
00300000
00000000
00100000
00001000
00010000
00000000
,
00002000
00000000
00003000
00000000
00001000
00010000
00000100
00000000
00002000
00000000
00000000
00000000
00003000
00000000
00000000
00000000
,
00001000
00000000
00000100
00000000
00000010
00000000
00000001
00000100
00000000
00000100
00000001
00000000
00000010
00000000
00000100
00010000
,
00000000
00010000
00001000
00000000
00100000
00000000
00010000
01000000
00000000
01000000
00100000
00000000
10000000
00000000
00000000
00000000
,
00010000
00100000
10000000
00100000
00001000
00010000
00001000
00000000
,
00010100
01001000
00010100
01001000
,
00001000
00000000
00010000
00000100
00000000
00010000
00000100
00000000
00001000
00000000
00000001
00000100
00000000
00000001
00000100
00000000
,
00001000
00010000
00001000
00000100
00000001
00000001
00000001
00000000
,
00001000
00000000
00000100
00000010
00000000
00000100
00000010
00000000
00001000
00000000
00010000
00001000
00000000
00010000
00001000
00000000
,
00100000
00000000
00010000
01000000
00000000
00010000
01000000
00000000
00100000
00000000
00100000
00000000
00100000
00000000
00000000
00000000
,
10000000
00000000
00100000
01000000
00000000
00010000
00100000
00000000
00001000
00000000
00010000
00000100
00000000
00001000
00000010
00000000
,
00000100
00000000
00000001
00000010
00000000
00000100
00001000
00000000
00000001
00000000
00000010
00000000
00001000
00000000
00000010
00000000
,
00000001
00000000
00000100
00000010
00000000
00001000
00000100
00000000
00010000
00000000
00001000
00100000
00000000
00010000
01000000
00000000
,
00100000
00000000
10000000
01000000
00000000
00100000
00010000
00000000
10000000
00000000
00000000
10000000
00000000
00000000
10000000
00000000
,
00010000
01000000
10000000
01000000
00010000
00100000
01000000
00000000
,
00100000
00001000
00100000
00000000
00001000
00000000
00001000
00000000
00010000
00000000
00001000
00000000
00011000
00000000
00000000
00000000
,
00010000
00000100
00000010
00000001
00000010
00001000
00000010
00000000
,
00000001
00000000
00000000
00000001
00001000
00000000
00001000
00000000
00000100
00000010
00000100
00000000
00001000
00000000
00000000
00000000
,
00001000
00000100
00000001
00000100
00001000
00000010
00000100
00000000
,
00000010
00010000
00000010
00000000
00010000
00000000
00010000
00000000
00001000
00000000
00010000
00000000
00011000
00000000
00000000
00000000
,
00001000
01000000
00100000
10000000
00100000
00010000
00100000
00000000
,
10000000
00000000
00000000
10000000
00010000
00000000
00010000
00000000
01000000
00100000
01000000
00000000
00010000
00000000
00000000
00000000
,
10010000
00000000
00000000
00000000
,
00000000
00000000
00000000
00000000
;
