
//----- song ID: dawm -----//
#TITLE:Dance With Me;
#ARTIST:Yuki Shibasaki feat. Ai Takekawa;
#BANNER:Dance With Me.png;
#BACKGROUND:Dance With Me-bg.png;
#CDTITLE:./CDTitles/DDR WORLD.png;
#MUSIC:Dance With Me.ogg;
#SAMPLESTART:48.735;
#SAMPLELENGTH:15;
#BPMS:0=128;
#BGSTAGE:16;
#NOTES:
     dance-single:
     :
     Beginner:
     2:
     :
0000
0000
0000
0000
,
0000
0000
0000
0000
,
0000
0000
0000
0000
,
0000
0000
0000
0000
,
0000
0000
0000
0000
,
0000
0000
0000
0000
,
1000
0000
0000
0000
,
1000
0000
0000
0000
,
0001
0000
0000
0000
,
0001
0000
0000
0000
,
1001
0000
0000
0000
,
0000
0000
0000
0000
,
1000
0000
0000
0000
,
0001
0000
0000
0000
,
1001
0000
0000
0000
,
0000
0000
0000
0000
,
0001
0000
0000
0000
,
1000
0000
0000
0000
,
0001
0000
0001
0000
,
0001
0000
0000
0000
,
1000
0000
1000
0000
,
1000
0000
0000
0000
,
0001
0000
0000
0000
,
0001
0000
0000
0000
,
1000
0000
0000
0000
,
1000
0000
0000
0000
,
1001
0000
0000
0000
,
0000
0000
0000
0000
,
1001
0000
0000
0000
,
0000
0000
0000
0000
,
0001
0000
0000
0000
,
0001
0000
0000
0000
,
1000
0000
0000
0000
,
1000
0000
0000
0000
,
0001
0000
0001
0000
,
0001
0000
0000
0000
,
1000
0000
1000
0000
,
1000
0000
0000
0000
,
0010
0000
0010
0000
,
0010
0000
0000
0000
,
0100
0000
0100
0000
,
0200
0000
0300
0000
,
0001
0000
0001
0000
,
0001
0000
0000
0000
,
1000
0000
1000
0000
,
1000
0000
0000
0000
,
0010
0000
0010
0000
,
0010
0000
0000
0000
,
0100
0000
0100
0000
,
0200
0000
0300
0000
,
0001
0000
1000
0000
,
0001
0000
1000
0000
,
0010
0000
0010
0000
,
0100
0000
0100
0000
,
0001
0000
1000
0000
,
0001
0000
1000
0000
,
0010
0000
0010
0000
,
0200
0000
0000
0300
,
0000
0000
0000
0000
;
#NOTES:
     dance-single:
     :
     Easy:
     4:
     :
0000
0000
0000
0000
,
0000
0000
0000
0000
,
0000
0000
0000
0000
,
0000
0000
0000
0000
,
0000
0000
0000
0000
,
0000
0000
0000
0000
,
1000
0000
0100
0000
,
1000
0100
1000
0000
,
0001
0000
0010
0000
,
0001
0010
0001
0000
,
1000
0000
1001
0000
,
0001
0000
1001
0000
,
0010
0000
0110
0000
,
1000
0001
0010
0000
,
0001
0000
0011
0000
,
0100
0000
1100
0000
,
0220
0000
0000
0330
,
2002
0000
0000
3003
,
0001
0001
1000
0000
,
1000
1000
0001
0000
,
0010
0010
0100
0000
,
0100
0100
0010
0000
,
0001
1000
0001
0000
,
1000
0001
1000
0000
,
0010
0100
0010
0100
,
0220
0000
0000
0330
,
2000
0000
3001
0000
,
0002
0000
1003
0000
,
1000
0000
0100
0000
,
1000
0010
0100
0001
,
2000
0000
3001
0000
,
0002
0000
1003
0000
,
0001
0000
0010
0000
,
0001
0000
1000
1001
,
0001
0001
1000
0000
,
1000
1000
0001
0000
,
0010
0010
0100
0000
,
0100
0100
0110
0000
,
0010
0001
0010
0000
,
0001
1000
0001
0000
,
1000
0100
1000
0100
,
2000
0000
0000
3000
,
0001
0001
1000
0000
,
1000
1000
0001
0000
,
0010
0010
0100
0000
,
0100
0100
0010
0000
,
0001
1000
0001
0000
,
1000
0001
1000
0000
,
0010
0100
0010
0000
,
0220
0000
0000
0330
,
0002
0000
1003
0000
,
2000
0000
3001
0000
,
1000
0010
1000
0010
,
1000
0100
1000
0000
,
0002
0000
1003
0000
,
2000
0000
3001
0000
,
1000
0010
1000
0010
,
0200
0000
0000
0300
,
0000
0000
0000
0000
;
#NOTES:
     dance-single:
     :
     Medium:
     9:
     :
0000
0000
0000
0000
,
0000
0000
0000
0000
,
0000
0000
0000
0000
,
0000
0000
0000
0000
,
0000
0000
0000
0000
,
0000
0000
0000
0000
,
1000
0000
0001
0000
1000
0000
0000
0000
0001
0000
0000
1000
0000
0000
0010
0000
,
0000
0100
0000
0000
0000
0000
0001
0010
,
0001
0000
0000
1000
0000
0000
0001
0000
1000
0000
0000
0000
0010
0000
2000
0000
,
0000
0000
0000
3000
0000
1000
0100
1000
,
0002
0000
0003
1000
0000
0001
0010
0100
,
2000
0000
3000
0001
0000
1000
0100
0010
,
0002
0000
0000
2000
0000
0000
0000
0000
,
0000
0000
3003
0000
0000
0001
0100
0001
,
2000
0000
3000
0001
0000
1000
0100
1000
,
0002
0000
0003
1000
0000
0001
0100
1000
,
0200
0000
0300
0002
0000
0003
2000
0000
,
0000
3000
0000
0000
,
1000
0001
1000
0001
0000
0010
0100
0010
,
0000
0000
0001
0000
1000
0100
0000
0000
,
0000
0000
0000
0000
1000
0000
0100
0000
0001
0000
0000
0100
0000
0000
2000
0000
,
0000
3000
0000
0001
1000
0100
0000
1000
,
0001
0100
1000
0100
0000
0001
1000
1001
,
0000
0000
1000
0000
0100
0100
0000
1000
,
0001
0000
0000
0100
0000
0000
1000
0000
0100
0000
0000
0020
0000
0000
0000
0000
,
0030
0000
0000
0000
1000
0000
0000
0000
0001
0000
2002
0000
0000
3003
0000
0000
,
1000
0100
1000
0000
0001
0100
0001
0000
,
1000
0000
0000
0000
0001
0000
0000
1000
0000
0000
1001
0000
0000
0000
0000
0000
,
1000
0010
0100
0000
0001
0010
0100
0000
,
1000
0010
0001
0010
2000
0002
0000
3003
,
0001
0100
0001
0000
1000
0100
1000
0000
,
0001
0000
0000
0000
1000
0000
0000
0001
0000
0000
1001
0000
0000
0000
0000
0000
,
0001
0100
0010
1000
0010
0200
0000
0300
,
0001
0000
0000
1000
0000
0000
0001
0000
1000
0000
0001
0000
1001
0000
0000
0000
,
0001
0100
0001
0000
1000
0100
1000
0000
,
0001
0000
0000
0000
1000
0000
0000
0001
0000
0000
1001
0000
0000
0000
0000
0000
,
0001
0010
0100
0000
1000
0010
0100
0000
,
0001
0010
1000
0010
0002
2000
0000
3003
,
1000
0100
1000
0000
0001
0100
0001
0000
,
1000
0000
0000
0000
0001
0000
0000
1000
0000
0000
1001
0000
0000
0000
0000
0000
,
1000
0001
0010
0000
0001
2000
0000
3000
,
0001
0000
0000
1000
0000
0000
0001
0000
1000
0000
0001
0000
1001
0000
0000
0000
,
0001
1000
0001
1000
0000
0010
0100
0010
,
0000
0000
1000
0000
0001
0100
0000
0000
,
0000
0000
0000
0000
0001
0000
0100
0000
1000
0000
0000
0100
0000
0000
0002
0000
,
0000
0003
0000
1000
0001
0100
0000
0001
,
1000
0100
0001
0100
0000
1000
0001
1000
,
0000
0000
0001
0000
0010
0100
0000
1000
,
0001
0000
0000
0100
0000
0000
1000
0000
0100
0000
0000
0020
0000
0000
0000
0000
,
0030
0000
0000
0000
1000
0000
0000
0000
0001
0000
2002
0000
0000
3003
0000
0000
,
1000
0100
1000
0000
0001
0100
0001
0000
,
1000
0000
0000
0000
0001
0000
0000
1000
0000
0000
1001
0000
0000
0000
0000
0000
,
1000
0010
0100
0000
0001
0010
0100
0000
,
1000
0010
0001
0010
2000
0002
0000
3003
,
0001
0100
0001
0000
1000
0100
1000
0000
,
0001
0000
0000
0000
1000
0000
0000
0001
0000
0000
1001
0000
0000
0000
0000
0000
,
1000
0100
0010
0001
0010
0100
0000
1000
,
0200
0000
0000
0300
,
0000
0000
0000
0000
;
#NOTES:
     dance-single:
     :
     Hard:
     13:
     :
0000
0000
0000
0000
,
0000
0000
0000
0000
,
0000
0000
0000
0000
,
0000
0000
0000
0000
,
0000
0000
0000
0000
,
0000
0000
0000
0000
,
1000
0000
0001
0000
1000
0000
0000
0000
0001
0000
0010
0100
0000
0000
1000
0000
,
0000
0010
0000
0000
0000
0000
1000
0100
,
1000
0000
0000
0010
0000
0000
0100
0000
0010
0000
0000
0000
1000
0000
0001
0200
,
0000
0000
0000
0300
0000
0001
0010
1000
,
0020
0030
0001
0100
0000
0001
0100
1000
,
0200
0300
0001
1000
0000
0010
0100
0001
,
2000
0000
0000
0002
0000
0000
3003
0000
,
0000
0000
0001
0010
0000
0000
0010
0001
0000
0000
1000
0010
0000
0000
0010
1000
,
0000
0000
0001
0010
0000
0000
0010
0100
0000
0000
0100
1000
0000
0000
1000
0010
,
0000
0000
0010
0100
0000
0000
0100
0001
0000
0000
1000
0000
0010
0000
0001
0000
,
0020
0000
0030
2000
0000
3000
0002
0000
,
0000
0003
0000
0000
,
0001
0000
1000
0000
0001
0000
1000
0010
0100
0000
0001
0000
1000
0000
0002
0000
,
0000
0003
0010
0000
0100
2000
0000
3001
,
1000
0000
0000
0000
0001
0000
0010
0000
0100
0000
0000
1000
0000
0000
2002
0000
,
0000
3003
0000
0010
0100
0110
0000
1000
,
0001
0010
1000
0020
0030
0001
0010
0022
,
0000
0000
0033
0000
0100
0000
0000
0000
1000
0000
1100
0000
0000
0000
0001
0100
,
0001
0000
1000
0100
1000
0000
0001
0010
0001
0000
1000
0010
1000
0000
0001
1000
,
0002
0000
1003
0000
0001
1000
1001
0000
,
1000
0000
0010
0000
1000
0000
0010
0100
0001
0000
0010
0000
0001
0000
1000
0010
,
0100
0000
0000
0000
0110
0000
0000
0001
0000
0000
1001
0000
0000
0001
0010
0000
,
0001
0000
0010
0000
0001
0000
0010
0100
1000
0000
0010
0000
1000
0000
0001
0010
,
0100
0000
1000
0000
0010
0000
0001
0000
0010
0000
2000
0000
0000
3000
0000
0000
,
0001
0000
0010
0000
0001
0000
0010
0100
1000
0000
0010
0000
1000
0000
0001
0010
,
0100
0000
0000
0000
0110
0000
0000
1000
0000
0000
1001
0000
0000
1000
0010
0000
,
1000
0000
0001
0000
1000
0000
0001
0000
1000
0010
1000
0000
0001
0100
0001
0000
,
1000
0000
0010
0100
0000
0010
0100
0000
0001
0010
0001
0000
2002
0000
3003
0000
,
1000
0000
0100
0000
1000
0000
0100
0010
0001
0000
0100
0000
0001
0000
1000
0100
,
0010
0000
0000
0000
0011
0000
0000
1000
0000
0000
1100
0000
0000
0001
0100
0000
,
0001
0000
0100
0000
0001
0000
0100
0010
1000
0000
0100
0000
1000
0000
0001
0100
,
0010
1000
0100
0001
0100
2000
0000
3000
,
0001
0000
0100
0000
0001
0000
0100
0010
1000
0000
0100
0000
1000
0000
0001
0100
,
0010
0000
0000
0000
1010
0000
0000
0100
0000
0000
0101
0000
0000
1000
0100
0000
,
1000
0000
0001
0000
1000
0000
0001
0000
1000
0100
1000
0000
0001
0010
0001
0000
,
1000
0000
0100
0010
0000
0100
0010
0000
0001
0100
0001
0100
0020
0000
0030
0000
,
1000
0000
0001
0000
1000
0000
0001
0010
0100
0000
1000
0000
0001
0000
2002
0000
,
0000
3003
0001
0000
0100
0002
0000
1003
,
0001
0000
0000
0000
1000
0000
0010
0000
0100
0000
0000
0001
0000
0000
2002
0000
,
0000
3003
0000
0010
0100
0110
0000
1000
,
0001
0000
1000
0000
0001
0000
1000
0010
0100
0000
0001
0100
0001
0000
2000
0000
,
0000
0000
3000
0000
0100
0000
0010
0001
0100
0000
0001
0100
0010
0000
1000
0100
,
1000
0000
0001
0100
0001
0000
1000
0010
1000
0000
0001
0010
0001
0000
1000
0001
,
2000
0000
3001
0000
1000
0001
1001
0000
,
1000
0000
0100
0000
1000
0000
0100
0010
0001
0000
0100
0000
0001
0100
0001
0100
,
0001
0000
0000
0000
0101
0000
0000
1000
0000
0000
1100
0000
0000
0100
1000
0000
,
0001
0000
0100
0000
0001
0000
0100
0010
0100
0000
0010
0000
1000
0100
0010
0001
,
1000
0000
0100
0000
0001
0000
0100
0000
1000
0000
0002
0000
0000
0003
0000
0000
,
1000
0000
0010
0000
1000
0000
0010
0100
0001
0000
0010
0000
0001
0010
0001
0010
,
0001
0000
0000
0000
0011
0000
0000
1000
0000
0000
1100
0000
0000
0100
0010
0000
,
0001
0000
1000
0000
0001
0000
1000
0000
0010
0100
0010
0100
0001
1000
0001
1000
,
0002
0000
0000
0003
,
0000
0000
0000
0000
;
#NOTES:
     dance-double:
     :
     Easy:
     4:
     :
00000000
00000000
00000000
00000000
,
00000000
00000000
00000000
00000000
,
00000000
00000000
00000000
00000000
,
00000000
00000000
00000000
00000000
,
00000000
00000000
00000000
00000000
,
00000000
00000000
00000000
00000000
,
10000000
00000000
10000000
00000000
,
01000000
00100000
00001000
00000000
,
00010000
00000000
00001000
00000000
,
00010000
00000010
00000100
00000000
,
00000001
00000100
00000001
00000000
,
00001000
00000010
00001000
00000000
,
00000100
00000000
00001000
00000000
,
00000010
00000000
00010000
00000000
,
00001000
01000000
00100000
00000000
,
01000000
00010000
10000000
00000000
,
02200000
00000000
00000000
03300000
,
20020000
00000000
00000000
30030000
,
10000000
10000000
00000000
00000000
,
01000000
01000000
00000000
00000000
,
00100000
00100000
00000000
00000000
,
00001000
00001000
00000000
00000000
,
00010000
00000100
00010000
00000000
,
00000010
00010000
00000010
00000000
,
00001000
00000001
00001000
00000000
,
00002002
00000000
00000000
00003003
,
00000002
00000000
00000103
00000000
,
00000020
00000000
00010030
00000000
,
00002000
00000000
00103000
00000000
,
02000000
00000000
13000000
00000000
,
20000000
00000000
31000000
00000000
,
00200000
00000000
00301000
00000000
,
00020000
00000000
00030010
00000000
,
00001000
00000000
00000001
00001001
,
00000001
00000100
00000001
00000000
,
00001000
00000010
00010000
00000000
,
00001000
00100000
01000000
00000000
,
01000000
01000000
00100000
00100000
,
00010000
00000000
00100000
00000000
,
01000000
00000000
10000000
00000000
,
01000000
00000000
01000000
00000000
,
20020000
00000000
00000000
30030000
,
10000000
10000000
00000000
00000000
,
01000000
01000000
00000000
00000000
,
00100000
00100000
00000000
00000000
,
00001000
00001000
00000000
00000000
,
00010000
00000010
00010000
00000000
,
00000100
00010000
00000100
00000000
,
00001000
00000001
00001000
00000000
,
00002002
00000000
00000000
00003003
,
00000002
00000000
00000013
00000000
,
00000200
00000000
00010300
00000000
,
00002000
00000000
01003000
00000000
,
00200000
00000000
10300000
00000000
,
00100000
10000000
00100000
00000000
,
01000000
00010000
01000000
00000000
,
00010000
00010000
10000000
10000000
,
02000000
00000000
00000000
03000000
,
00000000
00000000
00000000
00000000
;
#NOTES:
     dance-double:
     :
     Medium:
     9:
     :
00000000
00000000
00000000
00000000
,
00000000
00000000
00000000
00000000
,
00000000
00000000
00000000
00000000
,
00000000
00000000
00000000
00000000
,
00000000
00000000
00000000
00000000
,
00000000
00000000
00000000
00000000
,
10000000
00000000
00010000
00000000
01000000
00000000
00000000
00000000
00001000
00000000
00000000
00010000
00000000
00000000
00000100
00000000
,
00000000
00001000
00000000
00000000
00000000
00000000
00001000
00000001
,
00000010
00000000
00000000
00000001
00000000
00000000
00000100
00000000
00000010
00000000
00000000
00000000
00001000
00000000
00000200
00000000
,
00000000
00000000
00000000
00000300
00000000
00010000
00001000
00010000
,
00002000
00000000
00003000
00100000
00000000
00010000
00000000
10000000
,
02000000
00000000
03000000
00010000
00000000
00001000
00000000
00000010
,
00000002
00000000
00000000
00002000
00000000
00000000
00000000
00000000
,
00000000
00000000
00003003
00000000
00000000
00000001
00001000
00000100
,
00020000
00000000
00030000
00001000
00000000
00100000
00000000
00010000
,
00200000
00000000
00300000
01000000
00000000
10000000
00000000
00010000
,
02000000
00000000
03000000
00002000
00000000
00003000
00020000
00000000
,
00000000
00030000
00000000
00000000
,
00000010
00001000
00000010
00001000
00000000
00000100
00000000
00010000
,
00000000
00000000
00001000
00000000
00010000
00001000
00000000
00000000
,
00000000
00000000
00000000
00000000
00010000
00000000
00001000
00000000
00100000
00000000
00000000
00010000
00000000
00000000
02000000
00000000
,
00000000
03000000
00000000
00010000
10000000
01000000
00000000
10000000
,
00100000
01000000
00010000
01000000
00000000
00010000
00100000
00001000
,
00000000
00000000
00010000
00000000
00001000
00010000
00000000
00000100
,
00001000
00000000
00000000
00000010
00000000
00000000
00000100
00000000
00000001
00000000
00000000
00002000
00000000
00000000
00000000
00000000
,
00003000
00000000
00000000
00000000
00000001
00000000
00000000
00000000
00001000
00000000
00002002
00000000
00000000
00003003
00000000
00000000
,
00000001
00000100
00000001
00000000
00001000
00000010
00001000
00000000
,
00000100
00000000
00000000
00000000
00010000
00000000
00000000
00001000
00000000
00000000
00100000
00000000
00000000
00000000
00000000
00000000
,
00010000
01000000
00010000
00000000
01000000
00001000
01000000
00000000
,
00010000
01000000
00001000
00010000
,
00000010
00000100
00000010
00000000
00001000
00000010
00001000
00000000
,
00000100
00000000
00000000
00000000
00010000
00000000
00000000
00001000
00000000
00000000
00100000
00000000
00000000
00000000
00000000
00000000
,
00001000
00010000
00001000
00010000
00001000
00020000
00000000
00030000
,
00001000
00000000
00000000
00100000
00000000
00000000
00010000
00000000
00000000
00000000
10000000
00000000
10010000
00000000
00000000
00000000
,
10000000
01000000
10000000
00000000
00010000
00100000
00010000
00000000
,
01000000
00000000
00000000
00000000
00001000
00000000
00000000
00010000
00000000
00000000
00000010
00000000
00000000
00000000
00000000
00000000
,
00001000
00000100
00001000
00000000
00000010
00000100
00000010
00000000
,
00010000
00000100
00100000
00001000
,
00100000
01000000
00100000
00000000
00010000
00100000
00010000
00000000
,
01000000
00000000
00000000
00000000
00001000
00000000
00000000
00010000
00000000
00000000
00000010
00000000
00000000
00000000
00000000
00000000
,
00010000
00001000
00010000
00001000
00010000
00002000
00000000
00003000
,
00010000
00000000
00000000
00000010
00000000
00000000
00001000
00000000
00000000
00000000
00000001
00000000
00001001
00000000
00000000
00000000
,
00000001
00001000
00000001
00001000
00000000
00000001
00000100
00001000
,
00000000
00000000
00010000
00000000
00001000
00010000
00000000
00000000
,
00000000
00000000
00000000
00000000
00001000
00000000
00010000
00000000
00100000
00000000
00000000
01000000
00000000
00000000
02000000
00000000
,
00000000
03000000
00000000
00010000
10000000
01000000
00000000
10000000
,
00100000
01000000
00010000
01000000
00000000
00010000
00100000
00001000
,
00000000
00000000
00010000
00000000
00001000
00010000
00000000
00000100
,
00001000
00000000
00000000
00000010
00000000
00000000
00000100
00000000
00000001
00000000
00000000
00002000
00000000
00000000
00000000
00000000
,
00003000
00000000
00000000
00000000
00000001
00000000
00000000
00000000
00001000
00000000
00002002
00000000
00000000
00003003
00000000
00000000
,
00000001
00000100
00000001
00000000
00001000
00000010
00001000
00000000
,
00000100
00000000
00000000
00000000
00010000
00000000
00000000
00001000
00000000
00000000
00100000
00000000
00000000
00000000
00000000
00000000
,
00010000
01000000
00010000
00000000
00100000
01000000
00100000
00000000
,
00001000
00010000
00000010
00001000
,
00000001
00000100
00000001
00000000
00001000
00000010
00001000
00000000
,
00000100
00000000
00000000
00000000
00010000
00000000
00000000
00001000
00000000
00000000
00100000
00000000
00000000
00000000
00000000
00000000
,
00001000
00010000
00001000
00010000
00001000
01000000
00000000
00010000
,
20000000
00000000
00000000
30000000
,
00000000
00000000
00000000
00000000
;
#NOTES:
     dance-double:
     :
     Hard:
     12:
     :
00000000
00000000
00000000
00000000
,
00000000
00000000
00000000
00000000
,
00000000
00000000
00000000
00000000
,
00000000
00000000
00000000
00000000
,
00000000
00000000
00000000
00000000
,
00000000
00000000
00000000
00000000
,
10000000
00000000
00010000
00000000
10000000
00000000
00000000
00000000
00010000
00000000
00100000
01000000
00000000
00000000
10000000
00000000
,
00000000
00010000
00000000
00000000
00000000
00000000
10000000
01000000
,
00100000
00000000
00000000
00001000
00000000
00000000
00010000
00000000
00000010
00000000
00000000
00000000
00001000
00000000
00000001
00000200
,
00000000
00000000
00000000
00000300
00000000
00000001
00001000
00000100
,
00020000
00030000
00001000
00020000
00030000
00001000
00000100
00000001
,
00000200
00000300
00001000
00010000
00000000
00001000
01000000
00010000
,
20000000
00000000
00000000
00020000
00000000
00000000
30030000
00000000
,
00000000
00000000
00010000
00100000
00000000
00000000
00100000
00010000
00000000
00000000
10000000
00100000
00000000
00000000
00100000
10000000
,
00000000
00000000
10000000
01000000
00000000
00000000
01000000
00100000
00000000
00000000
00100000
00010000
00000000
00000000
00010000
00001000
,
00000000
00000000
00001000
00000100
00000000
00000000
00000100
00000010
00000000
00000000
00000010
00000000
00000001
00000000
00000010
00000000
,
00000200
00000000
00000300
00002000
00000000
00003000
00000002
00000000
,
00000000
00000003
00000000
00000000
,
00000001
00000010
00000100
00002000
00003000
00000100
00010000
00002000
,
00000000
00003000
00100000
00000000
01000000
20000000
00000000
30010000
,
10000000
00000000
00000000
00000000
00010000
00000000
00100000
00000000
00010000
00000000
00000000
10000000
00000000
00000000
22000000
00000000
,
00000000
33000000
00000000
00010000
01000000
01010000
00000000
10000000
,
01000000
00010000
00001000
00000020
00000030
00000001
00000010
00000022
,
00000000
00000033
00000001
00000000
00001000
00000100
00000000
00010000
,
00001000
00000000
00000000
00100000
00000000
00000000
01000000
00000000
00100000
00000000
00000000
00002000
00000000
00000000
00000000
00000000
,
00003000
00000000
00000000
00000000
00010000
00000000
00000000
00000000
00000100
00000000
00000220
00000000
00000000
00000330
00000000
00000000
,
00000001
00000000
00000010
00000000
00000001
00000000
00000010
00000000
00000100
00000000
00001000
00000000
00000000
00000010
00001000
00000000
,
00000100
00000000
00000000
00000000
00020000
00030000
00000000
00002000
00003000
00000000
00200000
00300000
00000000
00100000
00010000
00000000
,
10000000
00000000
00100000
00000000
00010000
00000000
00100000
00000000
10000000
00000000
01000000
00000000
00000000
00000000
00100000
00010000
,
01000000
00000000
00001000
00000000
00010000
00000000
00000100
00000000
00000010
00000000
00000022
00000000
00000000
00000033
00000000
00000000
,
00000001
00000000
00000100
00000000
00000001
00000000
00000100
00000000
00000010
00000000
00001000
00000000
00000000
00000100
00001000
00000000
,
00000010
00000000
00000000
00000000
00020000
00030000
00000000
00002000
00003000
00000000
02000000
03000000
00000000
01000000
00010000
00000000
,
01000000
00000000
00010000
00000000
01000000
00000000
00001000
00000000
00100000
00001000
00100000
00000000
00001000
00010000
00001000
00000000
,
00010000
00000000
00000100
00000010
00000000
00000100
00000010
00000000
00000001
00001000
00000001
00000000
00002002
00000000
00003003
00000000
,
00000001
00000000
00001000
00000000
00000100
00000000
00010000
00000000
00001000
00000000
00100000
00000000
00000000
00010000
00100000
00000000
,
00010000
00000000
00000000
00000000
20000000
30000000
00000000
02000000
03000000
00000000
00200000
00300000
00000000
00100000
00010000
00000000
,
10000000
00000000
01000000
00000000
00100000
00000000
00010000
00000000
00001000
00000000
00000100
00000000
00000000
00000000
00000010
00000001
,
00000100
00000001
00000100
00001000
00010000
00022000
00000000
00033000
,
00001000
00000000
01000000
00000000
00010000
00000000
10000000
00000000
01000000
00000000
00010000
00000000
00000000
00001000
00010000
00000000
,
00001000
00000000
00000000
00000000
00000020
00000030
00000000
00000002
00000003
00000000
00002000
00000000
00003000
00001000
00000100
00000000
,
00001000
00000000
00000010
00000000
00001000
00000000
00000010
00000000
00010000
00001000
00010000
00000000
00001000
01000000
00001000
00000000
,
01000000
00000000
00100000
01000000
00000000
00100000
01000000
00000000
00010000
10000000
00010000
10000000
00200000
00000000
00300000
00000000
,
10000000
00100000
01000000
00020000
00030000
01000000
00001000
00020000
,
00000000
00030000
00000010
00000000
00000100
00000002
00000000
00001003
,
00000001
00000000
00000000
00000000
00001000
00000000
00000010
00000000
00001000
00000000
00000000
00000001
00000000
00000000
00002002
00000000
,
00000000
00003003
00000000
00000001
00000100
00000101
00000000
00000001
,
00000100
00001000
00010000
00200000
00300000
10000000
00100000
20200000
,
00000000
30300000
10000000
00000000
00010000
00100000
00000000
00001000
,
00010000
00000000
00000000
00000010
00000000
00000000
00001000
00000000
00000100
00000000
00000000
00020000
00000000
00000000
00000000
00000000
,
00030000
00000000
00000000
00000000
00001000
00000000
00000000
00000000
01000000
00000000
02200000
00000000
00000000
03300000
00000000
00000000
,
10000000
00000000
00100000
00000000
10000000
00000000
00100000
00000000
01000000
00000000
00010000
00000000
00000000
00100000
00010000
00000000
,
01000000
00000000
00000000
00000000
00002000
00003000
00000000
00020000
00030000
00000000
00000020
00000030
00000000
00000010
00001000
00000000
,
00000001
00000000
00000010
00000000
00001000
00000000
00000010
00000000
00000001
00000000
00000100
00000000
00000000
00000000
00000010
00001000
,
00000100
00000000
00010000
00000000
00001000
00000000
01000000
00000000
00100000
00000000
20200000
00000000
00000000
30300000
00000000
00000000
,
10000000
00000000
01000000
00000000
10000000
00000000
01000000
00000000
00100000
00000000
00010000
00000000
00000000
01000000
00010000
00000000
,
00100000
00000000
00000000
00000000
00002000
00003000
00000000
00020000
00030000
00000000
00000200
00000300
00000000
00000100
00001000
00000000
,
00000100
00000000
00000010
00000000
00000001
00000000
00001000
00000000
00000001
00000100
00000001
00000100
00000010
00001000
00000010
00001000
,
00000020
00000000
00000000
00000030
,
00000000
00000000
00000000
00000000
;
