
//----- song ID: drat -----//
#TITLE:DanRevoAthlon;
#ARTIST:アツムワンダフル;
#ARTISTTRANSLIT:Atsumu wonderful;
#BANNER:DanRevoAthlon.png;
#BACKGROUND:DanRevoAthlon-bg.png;
#CDTITLE:./CDTitles/DDR WORLD.png;
#MUSIC:DanRevoAthlon.ogg;
#SAMPLESTART:92.031;
#SAMPLELENGTH:15;
#BPMS:0=133;
#BGSTAGE:4;
#NOTES:
     dance-single:
     :
     Beginner:
     1:
     :
0000
0000
0000
0000
,
0000
0000
0000
0000
,
0000
0000
0000
0000
,
0000
0000
0000
0000
,
0000
0000
0000
0000
,
0000
0000
0000
0000
,
0000
0000
0000
0000
,
0001
0000
0000
0000
,
0000
0000
0000
0000
,
0001
0000
0000
0000
,
0000
0000
0000
0000
,
0010
0000
0000
0000
,
0000
0000
0000
0000
,
0010
0000
0000
0000
,
0000
0000
0000
0000
,
0100
0000
0000
0000
,
0000
0000
0000
0000
,
0100
0000
0000
0000
,
0000
0000
0000
0000
,
1000
0000
0000
0000
,
0000
0000
0000
0000
,
1000
0000
0000
0000
,
0000
0000
0000
0000
,
1000
0000
0000
0000
,
1000
0000
0000
0000
,
0100
0000
0000
0000
,
0000
0000
0000
0000
,
0100
0000
0000
0000
,
0100
0000
0000
0000
,
0010
0000
0000
0000
,
0000
0000
0000
0000
,
0001
0000
0000
0000
,
0010
0000
0000
0000
,
0001
0000
0000
0000
,
0000
0000
0000
0000
,
0100
0000
0000
0000
,
0000
0000
0000
0000
,
0010
0000
0000
0000
,
0000
0000
0000
0000
,
0100
0000
0000
0000
,
0000
0000
0000
0000
,
0010
0000
0000
0000
,
0010
0000
0000
0000
,
0010
0000
0000
0000
,
0000
0000
0000
0000
,
1000
0000
0000
0000
,
0000
0000
0000
0000
,
0100
0000
0000
0000
,
0000
0000
0000
0000
,
0001
0000
0000
0000
,
0000
0000
0000
0000
,
0001
0000
0000
0000
,
0010
0000
0000
0000
,
1001
0000
0000
0000
,
0000
0000
0000
0000
,
1000
0000
0000
0000
,
0010
0000
0000
0000
,
1001
0000
0000
0000
,
0000
0000
0000
0000
,
0001
0000
0000
0000
,
0100
0000
0000
0000
,
0100
0000
0000
0000
,
1000
0000
0000
0000
,
1001
0000
0000
0000
,
0000
0000
0000
0000
;
#NOTES:
     dance-single:
     :
     Easy:
     4:
     :
0000
0000
0000
0000
,
0000
0000
0000
0000
,
0000
0000
0000
0000
,
0000
0000
0000
0000
,
0000
0000
0000
0000
,
0000
0000
0000
0000
,
0000
0000
0000
0000
,
1000
0000
0001
0000
,
1000
0001
1000
0000
,
0100
0000
0010
0000
,
0100
0010
0100
0000
,
1000
0000
0100
0000
,
0010
0010
0001
0000
,
0001
0000
0010
0000
,
0100
0100
1000
0000
,
2000
0000
0000
3000
,
1000
0001
1000
0000
,
0002
0000
0000
0003
,
0001
1000
0001
0000
,
0001
0100
0010
0000
,
0010
0100
0001
0000
,
1000
0100
0010
0000
,
0220
0000
0330
0000
,
1000
0000
1000
0000
,
1000
0001
0010
0000
,
0001
0000
0001
0000
,
0001
1000
0010
0000
,
1000
0000
1000
0000
,
1000
0001
0100
0000
,
0001
0000
0001
0000
,
0001
1000
0100
0000
,
2000
0000
0000
3000
,
1000
0010
0100
0001
,
0002
0000
0000
0003
,
0001
0010
0100
1000
,
1001
0000
0000
0000
,
0000
0000
0000
0000
,
1000
1000
0100
0000
,
0001
0001
0100
0000
,
1000
1000
0010
0000
,
0001
0001
0010
0000
,
1000
0001
1000
0001
,
1000
0001
0000
0000
,
1001
0000
0000
0000
,
1001
0000
0000
0000
,
0110
0000
0000
0000
,
0110
0000
0000
0000
,
0001
0100
0001
0000
,
0001
0010
0001
0000
,
1000
0100
1000
0000
,
1000
0010
1000
0000
,
2000
0000
0000
3000
,
1000
0010
0100
0001
,
0020
0000
0000
0030
,
0001
1000
0001
0000
,
0002
0000
0000
0003
,
0001
0100
0010
1000
,
0200
0000
0000
0300
,
1000
0001
1000
0000
,
1000
1000
1000
0000
,
0100
0100
0100
0000
,
0010
0010
0010
0000
,
0001
0001
0001
0000
,
1001
0000
0000
0000
,
0000
0000
0000
0000
;
#NOTES:
     dance-single:
     :
     Medium:
     8:
     :
0000
0000
0000
0000
,
0000
0000
0000
0000
,
0000
0000
0000
0000
,
0000
0000
0000
0000
,
0000
0000
0000
0000
,
0000
0000
0000
0000
,
0000
0000
0000
0000
,
1000
0000
0100
0000
1000
0000
0100
1000
,
0100
0000
0010
0000
0001
1000
0001
0000
,
1000
0000
0010
0000
1000
0000
0001
0100
,
0001
0000
1000
0001
2000
0000
3000
0000
,
0001
0000
0010
0000
0001
0000
0010
0001
,
0010
0000
0100
0000
1000
0001
1000
0000
,
0001
0000
0100
0000
0001
0000
1000
0010
,
1000
0000
0001
1000
0002
0000
0003
0000
,
2000
0000
3000
0000
1000
0001
1000
0000
,
0010
0100
0000
0000
0110
0000
1001
0000
,
0002
0023
0230
2300
,
3001
0100
0001
0000
1000
0100
1000
0000
,
0001
0000
0000
0000
0100
0000
0000
0000
0010
0000
0000
0010
0000
0000
0000
0000
,
1000
0000
0000
0000
0100
0000
0000
0000
0010
0000
0000
0010
0000
0000
0000
0000
,
0001
0000
0100
0000
1000
0100
0001
0000
,
2000
0000
3000
0000
,
1100
0000
0011
0000
,
0001
0000
0100
0000
0010
1000
0010
0000
,
1010
0000
0011
0000
,
0001
0000
0010
0000
0100
1000
0100
0000
,
1000
0000
0000
1000
0000
0000
0000
0000
0001
0000
0000
0001
0000
0000
0000
0000
,
0100
0000
0000
0100
0000
0000
0000
0000
0010
0000
0000
0010
0000
0000
0000
0000
,
1000
0100
0001
0100
,
0010
0010
0010
0000
,
0001
0000
1000
0000
0010
0000
0100
0001
,
0010
0000
0100
1000
0010
0000
0110
0000
,
1000
0000
0001
0000
0100
0000
0010
1000
,
0100
0000
0000
0100
0000
0000
0010
0000
0001
0000
0000
0001
0000
0000
1000
0000
,
0001
0010
1000
0010
,
0001
0100
0010
0110
,
1000
1000
0010
0010
,
0100
0010
2000
3000
,
1000
0100
1000
0000
0001
0000
0000
0000
,
0002
0000
0103
0000
,
0001
0000
0010
0000
1000
0010
0001
0000
,
1000
0000
0100
0010
0000
0000
0000
0000
,
0001
0000
0000
0011
0000
0000
0000
1000
,
0100
0000
0000
0110
0000
0000
0000
0000
,
1000
0000
0000
1010
0000
0000
0000
0001
,
0100
0000
0000
0110
0000
0000
0000
0000
,
0001
0100
0001
1000
,
0100
0000
1000
0000
0001
0100
0001
0000
,
1000
0010
1000
0001
,
0010
0000
0001
1000
0000
0000
0000
0000
,
0001
0000
0000
0010
0000
0000
0001
0000
0100
0000
0000
0010
0000
0000
1000
0000
,
0001
0100
0001
0000
0010
0100
1000
0000
,
0001
0000
0000
0100
0000
0000
0010
0000
1000
0000
0000
0100
0000
0000
1000
0000
,
0001
0010
0100
0010
0001
0000
0000
0000
,
1000
0000
0000
0100
0000
0000
1000
0000
0010
0000
0000
0100
0000
0000
0001
0000
,
1000
0010
1000
0000
0100
0010
0001
0000
,
1000
0000
0000
0010
0000
0000
0100
0000
0001
0000
0000
0010
0000
0000
0001
0000
,
1000
0100
0010
0100
1000
0000
0000
0000
,
1001
0000
0110
0000
,
0001
1000
0110
0000
,
0110
0000
1001
0000
,
0010
0100
1001
0000
,
1001
0000
0000
0000
,
0000
0000
0000
0000
;
#NOTES:
     dance-single:
     :
     Hard:
     12:
     :
0000
0000
0000
0000
,
0000
0000
0000
0000
,
0000
0000
0000
0000
,
0000
0000
0000
0000
,
0000
0000
0000
0000
,
0000
0000
0000
0000
,
0000
0000
0000
0000
,
0001
0010
0100
1000
0001
0010
0100
1000
,
0001
0100
1000
0000
1000
0100
0001
0000
,
1000
0010
0100
0001
1000
0010
0100
0001
,
1000
0010
0001
0000
0001
0010
1000
0000
,
0001
0100
0010
1000
0100
0010
0001
0100
,
0010
0001
0010
1000
0010
0100
0010
0000
,
1000
0010
0100
0001
0010
0100
1000
0010
,
0100
1000
0100
0001
0100
0010
0100
0000
,
0002
0000
0000
0010
0000
0000
0000
0000
1003
0000
0100
0000
0001
0000
0100
0000
,
2000
0020
0000
0030
3001
0100
1000
0100
,
0001
0000
0010
0000
0000
0010
0000
0000
0100
0000
0000
0100
0000
0000
1000
0000
,
0010
0200
1000
0000
0310
2000
0001
0001
,
3001
0000
0100
0000
0010
0000
1000
0000
1010
0000
0000
1001
0000
0000
0000
0000
,
1000
0000
0010
0000
0100
0000
0001
0000
0011
0000
0000
1001
0000
0000
0000
0000
,
1000
0100
1000
0011
1000
0100
1000
0001
,
0200
0000
0000
0000
0300
0100
0100
0000
,
1001
0000
0000
0000
1000
0000
0100
0000
0001
0000
0000
0100
0000
0000
1000
0000
,
0001
0000
0000
0010
0000
0000
0001
0000
1000
0000
0010
0000
1000
0000
0000
0000
,
0001
0000
0100
0000
0010
0000
1000
0000
0001
0000
0100
0010
0000
1000
0000
0001
,
1000
0100
0001
0100
1000
0100
0010
0000
,
0001
0000
0100
0001
0000
0100
0000
0000
0010
0000
1000
0010
0000
1000
0000
0010
,
1000
0000
0100
1000
0000
0100
0000
0000
0010
0000
0001
0010
0000
0001
0000
1000
,
0002
2003
3020
0230
,
0310
0010
0020
0030
,
1000
0010
0100
0001
1000
0100
0010
0001
,
1000
0100
0001
0100
1100
1000
1001
0000
,
0001
0100
0010
1000
0001
0010
0100
1000
,
0001
0000
0000
0011
0000
0000
1001
0000
1000
0000
0000
1010
0000
0000
1001
0000
,
0002
2003
3200
0320
,
0031
0000
0000
0001
0000
0000
0001
0000
0100
0000
0000
0000
0110
0000
0000
0000
,
1000
1000
1000
1000
0010
0000
0110
0000
,
0100
0100
0002
0003
,
0001
0010
0001
0000
0100
0000
0100
0010
,
1000
0000
1000
0000
1000
0000
0002
0000
0000
0103
0000
0000
,
0001
0010
1000
0010
0001
0010
1000
0010
,
0001
1000
0100
0001
0100
0000
0000
0000
,
1010
0000
0000
0011
0000
0000
0000
1000
,
1100
0000
0000
0101
0000
1001
0000
0000
,
1010
0000
0000
1100
0000
0000
0000
0001
,
0011
0000
0000
0101
0100
0010
0100
0000
,
0001
1000
0100
0000
0001
0100
1000
0000
,
1001
0000
0001
0100
1000
0100
0001
0000
,
1000
0001
0010
0000
1000
0010
0001
0000
,
1001
0000
1000
0010
0000
0000
0000
0000
,
1000
0010
0100
0010
1000
0100
0010
0001
,
0100
1000
0100
0010
0100
0001
0100
0000
,
0001
0100
0010
0100
0001
0010
0100
1000
,
0010
0001
0010
0100
0010
1000
0010
0000
,
1010
0000
1100
0000
1010
0000
1000
0100
,
0011
0000
0101
0000
0001
0010
0001
0000
,
0101
0000
1100
0000
0101
0000
0001
0100
,
1010
0000
0011
0000
1000
0010
1000
0000
,
0001
0000
0000
0001
0100
0000
0000
0000
0010
0000
0000
0010
1000
0000
0000
0000
,
1000
0000
0000
1000
0100
0000
0000
0000
0010
0000
0000
0010
0001
0000
0000
0000
,
0001
0000
0000
1000
0100
0000
0000
0000
1000
0000
0000
0001
0100
0000
0000
0000
,
0001
0000
0000
0010
0100
0000
0000
0000
1000
0000
0000
0010
0100
0000
0001
0000
,
1000
0000
0000
0000
,
0000
0000
0000
0000
;
#NOTES:
     dance-double:
     :
     Easy:
     4:
     :
00000000
00000000
00000000
00000000
,
00000000
00000000
00000000
00000000
,
00000000
00000000
00000000
00000000
,
00000000
00000000
00000000
00000000
,
00000000
00000000
00000000
00000000
,
00000000
00000000
00000000
00000000
,
00000000
00000000
00000000
00000000
,
10000000
00000000
00010000
00000000
,
00100000
01000000
00100000
00000000
,
00001000
00000000
00010000
00000000
,
00001000
00010000
00001000
00000000
,
00010000
00000000
00000010
00000000
,
00000100
00000010
00000100
00000000
,
00000001
00000000
00001000
00000000
,
00000001
00001000
00000001
00000000
,
00000002
00000000
00000000
00000003
,
00000100
00000010
00001000
00000000
,
00000020
00000000
00000000
00000030
,
00010000
00001000
00010000
00000000
,
00001000
01000000
00010000
00000000
,
00010000
00100000
01000000
00000000
,
10000000
00000000
01000000
00000000
,
02200000
00000000
03300000
00000000
,
10000000
00010000
00100000
00000000
,
00010000
00100000
00001000
00000000
,
00010000
00000100
00001000
00000000
,
00000100
00001000
00000010
00000000
,
00000110
00000000
00001001
00000000
,
00000001
00000100
00001000
00000000
,
00010000
00000000
00011000
00000000
,
00001000
00010000
00100000
00000000
,
10000000
00010000
10000000
00000000
,
10000000
01000000
00100000
00000000
,
00001000
00010000
00001000
00000000
,
00001000
00010000
00000100
00000000
,
00000110
00000000
00000000
00000000
,
00000000
00000000
00000000
00000000
,
00000001
00000000
00000010
00000000
,
00001000
00010000
00001000
00000000
,
00010000
00000000
01000000
00000000
,
10000000
00010000
10000000
00000000
,
10000000
01000000
00100000
00000000
,
00001000
00010000
00001000
00000000
,
00011000
00000000
00000000
00000000
,
00000110
00000000
00000000
00000000
,
00001001
00000000
00000000
00000000
,
00000110
00000000
00000000
00000000
,
00000001
00000100
00000010
00000000
,
00000010
00001000
00000010
00000000
,
00010000
00001000
00010000
00000000
,
00010000
00001000
01000000
00000000
,
00020000
00000000
00000000
00030000
,
10000000
01000000
00100000
01000000
,
20000000
00000000
00000000
30000000
,
00010000
00100000
01000000
00000000
,
00020000
00000000
00000000
00030000
,
00001000
00010000
00000100
00010000
,
00002000
00000000
00000000
00003000
,
00001000
00010000
00000100
00000000
,
00000110
00000000
00001001
00000000
,
00000001
00000100
00001000
00000000
,
00011000
00000000
00011000
00000000
,
00010000
00100000
10000000
00000000
,
01100000
00000000
00000000
00000000
,
00000000
00000000
00000000
00000000
;
#NOTES:
     dance-double:
     :
     Medium:
     8:
     :
00000000
00000000
00000000
00000000
,
00000000
00000000
00000000
00000000
,
00000000
00000000
00000000
00000000
,
00000000
00000000
00000000
00000000
,
00000000
00000000
00000000
00000000
,
00000000
00000000
00000000
00000000
,
00000000
00000000
00000000
00000000
,
10000000
00000000
01000000
00000000
10000000
00000000
00100000
01000000
,
00100000
00000000
01000000
00000000
00001000
00010000
00001000
00000000
,
00010000
00000000
00000100
00000000
00001000
00000000
00000010
00001000
,
00000010
00000100
00000002
00000003
,
00000001
00000000
00000100
00000000
00000001
00000000
00000010
00000100
,
00000010
00000000
00000100
00000000
00010000
00001000
00010000
00000000
,
00001000
00000000
01000000
00000000
00010000
00000000
00100000
00010000
,
00100000
01000000
20000000
30000000
,
00020000
00000000
00030000
00000000
00010000
00100000
00001000
00000000
,
00010000
00001000
00000000
00000000
00001000
00010000
00000100
00000000
,
00002000
00003020
00000230
00000302
,
00000013
00000100
00001000
00000000
00000100
00010000
00001000
00000000
,
00010000
00000000
00000000
00000000
00001000
00000000
00000000
00000000
01000000
00000000
00000000
01000000
00000000
00000000
00000000
00000000
,
00010000
00000000
00000000
00000000
00100000
00000000
00000000
00000000
01000000
00000000
00000000
01000000
00000000
00000000
00000000
00000000
,
10000000
00000000
01000000
00000000
00010000
00001000
00010000
00000000
,
00022000
00000000
00033000
00000000
,
00001000
00010000
00000010
00000100
,
00000010
00000000
00010000
00000000
00001000
00010000
00001000
00000000
,
00100000
01000000
00100000
00001000
,
00010000
00000000
00000100
00000000
00001000
00000100
00000010
00000000
,
00000001
00000000
00000000
00000001
00000000
00000000
00000000
00000000
00001000
00000000
00000000
00001000
00000000
00000000
00000000
00000000
,
00000100
00000000
00000000
00000100
00000000
00000000
00000000
00000000
00010000
00000000
00000000
00010000
00000000
00000000
00000000
00000000
,
00001000
00010000
00100000
10000000
,
00100000
00100000
00100000
00000000
,
10000000
00000000
00010000
00000000
01000000
00000000
00100000
00010000
,
00100000
00010000
00001000
00011000
,
00010000
00000000
00000010
00000000
00001000
00000000
00000100
00000010
,
00000100
00000000
00000000
00000100
00000000
00000000
00000010
00000000
00000001
00000000
00000000
00000001
00000000
00000000
00001000
00000000
,
00000001
00000100
00001000
00000000
,
00001000
00010000
00100000
00000000
,
10000000
01000000
00010000
00000000
,
00010000
00001000
00000010
00000000
,
00000001
00000100
00000010
00000000
00001000
00000000
00000000
00000000
,
00001000
00000100
00010000
00000000
,
00001000
00000000
00100000
00000000
00010000
01000000
00100000
00000000
,
10000000
00000000
01000000
00100000
00000000
00000000
00000000
00000000
,
00001000
00000000
00000000
00011000
00000000
00000000
00000000
00010000
,
00001000
00000000
00000000
00000110
00000000
00000000
00000000
00000000
,
00010000
00000000
00000000
00011000
00000000
00000000
00000000
00001000
,
00010000
00000000
00000000
01100000
00000000
00000000
00000000
00000000
,
10000000
00100000
00010000
00001000
,
01000000
00000000
00100000
00000000
00010000
00001000
00010000
00000000
,
00001000
00000010
00000100
00010000
,
00001000
00000000
00000100
00000001
00000000
00000000
00000000
00000000
,
00000001
00000000
00000000
00000010
00000000
00000000
00000001
00000000
00000100
00000000
00000000
00000010
00000000
00000000
00000100
00000000
,
00001000
00010000
00001000
00000000
00001000
00010000
00100000
00000000
,
10000000
00000000
00000000
00100000
00000000
00000000
10000000
00000000
01000000
00000000
00000000
00100000
00000000
00000000
01000000
00000000
,
00010000
00001000
00000010
00000000
00000001
00000000
00000000
00000000
,
00000001
00000000
00000000
00000100
00000000
00000000
00000001
00000000
00000010
00000000
00000000
00000100
00000000
00000000
00000010
00000000
,
00001000
00010000
00001000
00000000
00001000
00010000
01000000
00000000
,
10000000
00000000
00000000
01000000
00000000
00000000
10000000
00000000
00100000
00000000
00000000
01000000
00000000
00000000
00100000
00000000
,
00010000
00001000
00000100
00000000
00000001
00000000
00000000
00000000
,
00001001
00000000
00000110
00000000
,
00010000
00001000
00011000
00000000
,
01100000
00000000
10010000
00000000
,
10000000
01000000
00010000
00000000
,
00011000
00000000
00000000
00000000
,
00000000
00000000
00000000
00000000
;
#NOTES:
     dance-double:
     :
     Hard:
     12:
     :
00000000
00000000
00000000
00000000
,
00000000
00000000
00000000
00000000
,
00000000
00000000
00000000
00000000
,
00000000
00000000
00000000
00000000
,
00000000
00000000
00000000
00000000
,
00000000
00000000
00000000
00000000
,
00000000
00000000
00000000
00000000
,
10000000
01000000
10000000
01000000
00100000
00010000
00100000
00001000
,
00010000
00000000
00100000
00000000
00010000
00001000
00010000
00000000
,
00000100
00001000
00000100
00001000
00000001
00000010
00000001
00000010
,
00001000
00000000
00010000
00000000
00001000
00000100
00000001
00000000
,
00000001
00000010
00000001
00000010
00000100
00001000
00000100
00010000
,
00001000
00000000
00000100
00000000
00001000
00010000
00001000
00000000
,
00100000
00010000
00100000
00010000
10000000
01000000
10000000
01000000
,
00010000
00000000
00001000
00000000
00010000
00100000
10000000
00000000
,
00010000
00000000
00000000
00100000
00000000
00000000
00100000
00000000
00010000
00000000
10000000
00000000
01000000
00000000
00010000
00000000
,
00002000
00020000
00000000
00033000
00010000
00001000
00010000
00000000
,
00001000
00000000
00010000
00000000
00000000
00001000
00000000
00000000
00000010
00000000
00000000
00000001
00000000
00000000
00001000
00000000
,
00000100
00000010
00000001
00000000
00000100
00000010
00001000
00000000
,
00000001
00000000
00000100
00000000
00000010
00000000
00000100
00000000
00001000
00000000
00000000
00011000
00000000
00000000
00000000
00000000
,
00010000
00000000
00100000
00000000
01000000
00000000
00100000
00000000
10000000
00000000
00000000
10010000
00000000
00000000
00000000
00000000
,
10000000
00100000
00010000
00000000
00001000
00010000
01000000
00000000
,
00020000
00000000
00000000
00000000
00000000
00001000
00031000
00000000
,
00011000
00000000
00000000
00000000
00010000
00000000
00000010
00000000
00000100
00000000
00000000
00001000
00000000
00000000
00000001
00000000
,
00000010
00000000
00000000
00001000
00000000
00000000
00000010
00000000
00010000
00000000
00001000
00000000
00010000
00000000
00000000
00000000
,
00001000
00000000
01000000
00000000
00010000
00000000
00100000
00000000
01000000
00000000
10000000
00100000
00000000
01000000
00000000
00100000
,
10000000
01000000
00100000
00000000
00100000
00001000
00010000
00000000
,
00001000
00000000
00010000
00000010
00000000
00001000
00000000
00000000
00000010
00000000
00000100
00000001
00000000
00000100
00000000
00000000
,
00000001
00000000
00000010
00000100
00000000
00001000
00000000
00000000
00000100
00000000
00010000
00001000
00000000
00010000
00000000
00000000
,
00001000
00000000
01000000
00010000
00000000
00100000
00000000
00000000
00010000
00000000
01000000
00100000
00000000
10000000
00000000
00000000
,
01000000
00100000
01000000
00100000
02000000
00000000
03000000
00000000
,
10000000
01000000
00010000
00001000
00100000
01000000
00100000
00001000
,
00010000
00100000
00010000
00000000
00001000
00010000
00001000
00000000
,
00010000
00001000
00000010
00000001
00001000
00000100
00010000
00000100
,
00001000
00000000
00000000
00000010
00000000
00000000
00001010
00000000
00000001
00000000
00000000
00000010
00000000
00000000
00000011
00000000
,
00000002
00002003
00003200
00020300
,
00031000
00000000
00000000
00001000
00000000
00000000
00001000
00000000
00010000
00000000
00000000
00000000
00011000
00000000
00000000
00000000
,
00001000
01000000
00001000
01000000
00100000
00000000
01100000
00000000
,
10000000
00010000
20000000
30000000
,
10000000
00100000
01000000
00000000
01000000
00001000
00010000
00000000
,
00001000
00000000
00001000
00000000
00001000
00000000
00020000
00000000
00000000
00030000
00000000
00000000
,
00010000
00001000
00010000
00001000
00000010
00000001
00000010
00000001
,
00001000
00000100
00000001
00000100
00001000
00000000
00000000
00000000
,
00000001
00000000
00000000
00000110
00000000
00000000
00000000
00010000
,
00001000
00000000
00000000
00011000
00000000
00011000
00000000
00000000
,
01000000
00000000
00000000
01100000
00000000
00000000
00000000
10000000
,
00010000
00000000
00000000
10010000
00000000
00000000
00000000
00000000
,
10000000
01000000
00010000
00000000
00000100
00000000
00000010
00000000
,
00000001
00000100
00000010
00000000
00001000
00000100
00000010
00000000
,
00000001
00000100
00001000
00000000
01000000
00000000
00100000
00000000
,
10000000
00000000
00010000
10000000
00000000
00000000
00000000
00000000
,
10000000
00100000
01000000
00100000
00010000
00001000
00000100
00000010
,
00001000
00000100
00000001
00000100
00000010
00000001
00000100
00000000
,
00000001
00000010
00000100
00000010
00001000
00010000
01000000
00100000
,
00010000
01000000
10000000
01000000
00100000
10000000
01000000
00000000
,
01100000
00000000
00101000
00000000
00011000
00000000
00010000
00001000
,
00000010
00000000
00000100
00010000
00001000
00000100
00000010
00000000
,
00001010
00000000
00001001
00000000
00000011
00000000
00000010
00001000
,
00010000
00000000
00100000
01000000
00001000
00010000
01000000
00000000
,
10000000
00000000
00000000
10000000
01000000
00000000
00000000
00000000
00100000
00000000
00000000
00100000
00010000
00000000
00000000
00000000
,
00100000
00000000
00000000
00100000
00001000
00000000
00000000
00000000
00000010
00000000
00000000
00000010
00000100
00000000
00000000
00000000
,
00001000
00000001
00000100
00000010
00001000
00010000
01000000
00100000
,
10000000
11000000
01100000
00101000
,
00011000
00000000
00000000
00000000
,
00000000
00000000
00000000
00000000
;
