
//----- song ID: dais -----//
#TITLE:Daisycutter;
#ARTIST:ETIA.;
#BANNER:Daisycutter.png;
#BACKGROUND:Daisycutter-bg.png;
#CDTITLE:./CDTitles/SDVX VIVID WAVE.png;
#MUSIC:Daisycutter.ogg;
#SAMPLESTART:21.362;
#SAMPLELENGTH:15;
#BPMS:0=191;
#NOTES:
     dance-single:
     :
     Beginner:
     5:
     :
0000
0000
0000
0000
,
0000
0000
0000
0000
,
0000
0000
0000
0000
,
0000
0000
0000
0000
,
0000
0000
0000
0000
,
0001
0000
0001
0000
,
0010
0000
0000
0000
,
1000
0000
1000
0000
,
0010
0000
0000
0000
,
0001
0000
0001
0000
,
0010
0000
0001
0000
,
0010
0000
0010
0000
,
0010
0000
0000
0000
,
1000
0000
1000
0000
,
0010
0000
1000
0000
,
0010
0000
0010
0000
,
0010
0000
0000
0000
,
2000
0000
0000
0000
,
3000
0000
0000
0000
,
1000
0000
0100
0000
,
1000
0000
0000
0000
,
0002
0000
0000
0000
,
0003
0000
0000
0000
,
0001
0000
0100
0000
,
0001
0000
0000
0000
,
0001
0000
0001
0000
,
0010
0000
0010
0000
,
1000
0000
0010
0000
,
1000
0000
0000
0000
,
1000
0000
1000
0000
,
0010
0000
0010
0000
,
0001
0000
0010
0000
,
0001
0000
0000
0000
,
1001
0000
0000
0000
,
0000
0000
0000
0000
,
0000
0000
0000
0000
,
0000
0000
0000
0000
,
0020
0000
0000
0000
,
0030
0000
0000
0000
,
0200
0000
0000
0000
,
0300
0000
0000
0000
,
0002
0000
0000
0000
,
0003
0000
0000
0000
,
2000
0000
0000
0000
,
3000
0000
0000
0000
,
1000
0000
0100
0000
,
1000
0000
0000
0000
,
1000
0000
0010
0000
,
0001
0000
0000
0000
,
0001
0000
0100
0000
,
0001
0000
0000
0000
,
0001
0000
0010
0000
,
1000
0000
0000
0000
,
1000
1000
0010
0000
,
1000
0000
0010
0000
,
2000
0000
0000
0000
,
3000
0000
0000
0000
,
0001
0001
0010
0000
,
0001
0000
0010
0000
,
0002
0000
0000
0000
,
0003
0000
0000
0000
,
1001
0000
0000
0000
,
0110
0000
0000
0000
,
1001
0000
0000
0000
,
0000
0000
0000
0000
,
1001
0000
0000
0000
,
0110
0000
0000
0000
,
1001
0000
0000
0000
,
0000
0000
0000
0000
,
0001
0001
0001
0000
,
0010
0000
0100
0000
,
1000
0000
0010
0000
,
1000
0000
0000
0000
,
1000
1000
1000
0000
,
0010
0000
0100
0000
,
0001
0000
0010
0000
,
0001
0000
0000
0000
,
0001
0001
0001
0000
,
0010
0010
0010
0000
,
1000
1000
1000
0000
,
0010
0010
0010
0000
,
0001
0001
0001
0000
,
0010
0010
0010
0000
,
1000
1000
1000
0000
,
0200
0000
0000
0000
,
0300
0000
1001
0000
,
1001
0000
0000
0000
,
1000
0010
1000
0000
,
0001
0010
0001
0000
,
1001
0000
1001
0000
,
1001
0000
0000
0000
,
0001
0100
0001
0000
,
1000
0100
1000
0000
,
1001
0000
0000
0000
,
0000
0000
0000
0000
;
#NOTES:
     dance-single:
     :
     Easy:
     10:
     :
0000
0000
0000
0000
,
0000
0000
0000
0000
,
0000
0000
0000
0000
,
0000
0000
0000
0000
,
0000
0000
0000
0000
,
0001
1000
0000
0001
0000
0000
0000
0000
,
0011
0000
0000
1100
0000
0000
1001
0000
,
1000
0001
0000
1000
0000
0000
0000
0000
,
0220
0000
0000
0330
,
1000
0010
0000
0100
0000
0000
0000
0000
,
0110
0000
0000
0110
0000
0000
1001
0000
,
0110
0000
0000
0110
0000
0000
1001
0000
,
1000
0000
0100
0010
0001
0000
0000
0000
,
1000
0000
0100
0010
0001
0000
0000
0000
,
0001
0000
0100
0010
1000
0000
0000
0000
,
0001
1000
0001
0000
1000
0001
1000
0000
,
2002
0000
0000
3003
,
1000
0000
0100
0000
0010
0001
0010
0000
,
0002
1000
1000
1003
,
0101
0000
0000
1100
0000
0000
1001
0000
,
0101
0000
0000
1100
0000
0000
1001
0000
,
1000
0000
0100
0000
0010
0001
0010
0000
,
0002
0100
0100
0103
,
0110
0000
0000
1001
0000
0000
0110
0000
,
1000
0000
0000
0001
0000
1000
0000
0000
,
0001
0000
0010
0000
0100
1000
0100
0000
,
2000
0001
0001
3001
,
1010
0000
0000
0011
0000
0000
1001
0000
,
1010
0000
0000
0011
0000
0000
1001
0000
,
0001
0000
0010
0000
0100
1000
0100
0000
,
2000
0010
0010
3010
,
0110
0000
0000
1001
0000
0000
0110
0000
,
0001
0000
0000
1000
0000
0001
0000
0000
,
1001
0000
0000
0000
,
0000
0000
0000
0000
,
0000
0000
0000
0000
,
0000
0000
0000
0000
,
0001
0000
0000
0010
0000
0000
0001
0000
,
0000
0010
0000
0000
0001
0000
0000
0000
,
1000
0000
0000
0010
0000
0000
1000
0000
,
0000
0010
0000
0000
1000
0000
0000
0000
,
0001
0000
0000
0100
0000
0000
0001
0000
,
0000
0100
0000
0000
0001
0000
0000
0000
,
1000
0000
0000
0100
0000
0000
1000
0000
,
0000
0100
0000
0000
1000
0000
0000
0000
,
0002
0000
0000
0003
,
0001
0000
0000
0001
0000
0000
0001
0000
,
2000
0000
0000
3000
,
1000
0000
0000
1000
0000
0000
1000
0000
,
0020
0000
0000
0030
,
0010
0000
0000
0010
0000
0000
0010
0000
,
0200
0000
0000
0300
,
0110
0000
1001
0000
,
0001
0010
0001
0000
0010
0000
0000
0000
,
0010
0100
0010
0000
0100
0000
0000
0000
,
1000
0010
1000
0000
0010
0000
0000
0000
,
0010
0100
0010
0000
0100
0000
0000
0000
,
0001
0100
0010
1000
,
0001
0010
0100
1000
,
0001
1000
0001
0000
1000
0001
1000
0000
,
0002
0000
0000
0003
,
1001
0000
0011
0000
,
1100
0000
0110
0000
,
0011
0000
0101
0000
,
1010
0000
0110
0000
,
1001
0000
0110
0000
,
0101
0000
1100
0000
,
1010
0000
0011
0000
,
2002
0000
0000
3003
,
1000
0000
0001
0000
0100
0010
1000
0000
,
0100
0000
0010
0000
0001
1000
0001
0000
,
0100
0000
0001
0000
0010
0100
1000
0000
,
0010
0100
0001
1001
,
1000
0000
0001
0000
0010
0001
0100
0000
,
0010
0000
1000
0000
0100
0010
0001
0000
,
1000
0010
1000
0000
0001
0010
0001
0000
,
0000
0000
0000
0000
,
1001
1001
0110
0110
,
1000
0001
0110
0000
,
1010
1010
1100
1100
,
1000
0010
1100
0000
,
0011
0011
0101
0101
,
0001
0010
0101
0000
,
0101
1100
0101
1100
,
2002
0000
0000
3003
,
1010
1000
0001
0010
,
0011
0001
1000
0100
,
1100
1000
0010
0100
,
0101
0001
1000
0000
,
0001
0100
0101
0101
,
1000
0010
1010
1010
,
1000
0000
0100
0000
0010
0100
0010
0000
,
0001
0000
1000
0000
,
1001
0000
0000
0000
,
0000
0000
0000
0000
;
#NOTES:
     dance-single:
     :
     Medium:
     13:
     :
0000
0000
0000
0000
,
0000
0000
0000
0000
,
0000
0000
0000
0000
,
0000
0000
0000
0000
,
0000
0000
0000
0000
,
0001
0100
0000
0020
0000
0000
0030
0000
,
1000
0001
0000
1000
0001
0000
1000
0001
,
1000
0100
0000
0020
0000
0000
0030
0000
,
2002
0000
0000
3003
,
0001
0010
0100
2000
0000
0000
3000
0000
,
0010
0100
0000
0010
0100
0000
0010
0000
,
1000
0001
0000
1000
0001
0000
1000
0100
,
0010
0000
0000
0001
0000
0000
1000
0000
0002
0000
0000
0000
0003
0000
0000
0000
,
1000
0100
0010
0001
1000
0100
0010
0000
,
0001
0100
0010
1000
0001
0100
0010
0000
,
1000
0001
0100
0010
1000
0001
1000
0000
,
2002
0000
0000
3003
,
0001
0010
0001
0100
0000
1001
0000
0000
,
0001
0000
0000
0100
0000
0000
1000
0000
0100
0000
0000
0000
0001
0000
0000
0000
,
1000
0100
0000
1000
0010
0000
1000
0100
,
1000
0100
0000
1000
0000
0010
1010
0000
,
1000
0010
1000
0100
0000
1001
0000
0000
,
1000
0000
0000
0100
0000
0000
0001
0000
0100
0000
0000
0000
1000
0000
0000
0000
,
0001
0100
0000
0001
0000
0010
0001
0100
,
0001
0000
0100
0010
0000
0100
0100
0100
,
0001
0100
0001
0010
0000
1001
0000
0000
,
0001
0000
0000
0010
0000
0000
1000
0000
0010
0000
0000
0000
0001
0000
0000
0000
,
1000
0010
0000
1000
0100
0000
1000
0010
,
1000
0000
0000
0010
0000
0000
1000
0000
0100
0000
0000
1000
0000
0000
0100
0000
,
1000
0100
1000
0010
0000
1001
0000
0000
,
1000
0000
0000
0010
0000
0000
0001
0000
0010
0000
0000
0000
1000
0000
0000
0000
,
0001
0010
0000
0001
0000
0100
0001
0010
,
0001
0000
0010
0100
0000
0110
0000
0000
,
1001
0000
0000
0000
,
0000
0000
0000
0000
,
0000
0000
0000
0000
,
0000
0000
0000
0000
,
1000
0000
0001
0010
0000
0001
0010
0000
,
0100
1000
0000
0100
1000
0000
1000
0000
,
0001
0000
1000
0010
0000
1000
0010
0000
,
0100
0001
0000
0100
0001
0000
0001
0000
,
1000
0000
0100
0010
0000
0100
0010
0000
,
0001
1000
0000
0001
1000
0000
1000
0000
,
0001
0000
0100
0010
0000
0100
0010
0000
,
1000
0001
0000
1000
0001
0000
0001
0000
,
1000
0100
0001
0200
0000
0000
0300
0000
,
1000
0010
0000
0100
0001
0000
1000
0000
,
0001
0100
1000
0200
0000
0000
0300
0000
,
0001
0100
0010
1000
0000
0010
0100
0010
,
1000
0010
0001
0020
0000
0000
0030
0000
,
1000
0100
0000
0010
0001
0000
1000
0000
,
0001
0010
1000
0020
0000
0000
0030
0000
,
0011
0000
1100
0000
,
0001
0100
0001
0000
0100
0010
0100
0000
,
0010
1000
0010
0000
1010
0000
1001
0000
,
1000
0100
1000
0000
0100
0010
0100
0000
,
0010
0001
0010
0000
0011
0000
1001
0000
,
0001
0100
0010
1000
0100
0010
0100
0000
,
1000
0100
0010
0001
0100
0010
0100
0000
,
0001
0010
0100
1000
0010
0100
0001
1000
,
0200
0000
0000
0300
,
0110
0000
0000
0000
0000
1000
0000
0000
0001
0000
0001
0000
0000
0100
0000
0000
,
0110
0000
0000
0000
0000
0001
0000
0000
1000
0000
0000
0000
0001
0000
0000
0000
,
0110
0000
0000
0000
0000
0001
0000
0000
1000
0000
1000
0000
0000
0100
0000
0000
,
0010
0000
0100
0000
0000
1000
0000
0000
0001
0000
1000
0001
1000
0000
0000
0000
,
0001
0000
0000
0000
0110
0000
0000
0000
1000
0000
1000
0000
0000
0100
0000
0000
,
0110
0000
0000
0000
0000
0010
0000
0000
0001
0000
0000
0000
1000
0000
0000
0000
,
0001
0000
0100
0000
0000
0001
0000
0000
1000
0000
0100
0000
0000
1000
0000
0000
,
0010
0000
0100
0000
0000
0010
0000
0100
0010
0000
0100
0000
0010
0000
0000
0000
,
1000
0010
0100
1000
0100
0010
1000
0001
,
0010
0100
1000
0100
0001
0100
1000
0000
,
0001
0010
0100
1000
0001
0010
1000
0010
,
0001
0000
1000
0000
0100
0000
0010
0000
0001
0000
0100
0010
0100
0000
0000
0000
,
0110
0000
1001
0000
0001
0100
0010
0001
,
1000
0100
0010
1000
0001
0010
0100
0010
,
0001
0001
1000
1000
0010
0100
0010
0100
,
0010
0000
0000
0000
,
0110
0000
0000
0000
1001
0000
0000
1000
0000
0100
0010
0000
0001
0000
0000
1000
,
0000
0100
0010
0000
0001
0000
0000
1000
0000
0100
0010
0000
0001
0000
0000
0000
,
0110
0000
0000
0000
1001
0000
0000
0001
0000
0100
0010
0000
1000
0000
0000
0001
,
0000
0100
0010
0000
1000
0000
0001
0000
2000
0000
0000
0000
3000
0000
0000
0000
,
0110
0000
0000
0000
1001
0000
0000
1000
0000
0010
0100
0000
0001
0000
0000
1000
,
0000
0010
0100
0000
0001
0000
0000
1000
0000
0010
0100
0000
0001
0000
0000
0000
,
0110
0000
0000
0000
1001
0000
0000
0001
0000
0010
0100
0000
1000
0000
0001
1000
,
0002
0003
2000
3000
0020
0030
0200
0300
,
0001
1000
0001
0100
1000
0001
0010
1000
,
0001
0100
1000
0001
0010
1000
0001
0000
,
1000
0001
1000
0100
0001
1000
0010
0001
,
1000
0000
0100
0000
0001
0000
1000
0000
0010
0000
0001
1000
0001
0000
0000
0000
,
1000
0010
0100
0001
0010
0100
0001
1000
,
0010
0100
1000
0010
0100
1000
0001
0010
,
1000
0000
0100
1000
0100
0000
1000
0000
0001
0000
0010
0001
0010
0000
0001
0000
,
0100
0000
0010
0000
,
1001
0000
0000
0000
,
0000
0000
0000
0000
;
#NOTES:
     dance-single:
     :
     Hard:
     17:
     :
0000
0000
0000
0000
,
0000
0000
0000
0000
,
0000
0000
0000
0000
,
0000
0000
0000
0000
,
0000
0000
0000
0000
,
0001
0100
0010
2000
0000
0000
0000
0000
,
3001
0100
0000
1000
0100
0000
0001
1000
,
0001
0010
0100
2000
0000
0000
0000
0000
,
3001
0000
0100
0010
0100
0000
0001
0010
0100
1000
0001
0000
1000
0000
0000
0000
,
0001
0000
0100
0010
1000
0000
0002
0000
0000
0000
0000
0000
0003
0000
0000
0000
,
0001
1010
0000
0001
1100
0000
1001
0000
,
1000
0000
0010
0100
0001
0000
1000
0000
0010
0100
0001
0000
1000
0000
0001
0000
,
1000
0000
0100
0010
0000
0100
0010
0000
0001
0000
1000
0001
0000
1000
0001
0000
,
1000
0000
0100
0010
0001
0000
1000
0000
0100
0010
0001
0000
1000
0000
1000
0000
,
0001
0000
0100
0010
1000
0000
0001
0000
0100
0010
1000
0000
0001
0000
0001
0000
,
1000
0000
0100
0010
0100
0000
1000
0000
0010
0100
0010
0000
1000
0000
0001
0000
,
0010
0100
0001
0100
0010
0001
1000
1000
,
0001
0100
0010
1000
0000
1000
0001
0000
,
1001
0000
0000
0110
0000
0000
1001
0000
0110
0000
0000
0000
1000
0001
1000
0001
,
1000
0100
0010
1000
0010
0100
1000
1000
,
0001
0100
0010
0001
0000
0001
0010
0000
,
1000
0010
0100
0001
0000
0001
0010
1000
,
0110
0000
0000
1001
0000
0000
0110
0000
1001
0000
0000
0000
1000
0001
1000
0001
,
1000
0100
0001
0100
0000
0100
0010
0000
,
0012
0000
1000
2003
0000
0010
0010
3010
,
1000
0010
0100
0001
0000
0001
1000
0000
,
1001
0000
0000
0110
0000
0000
1001
0000
0110
0000
0000
0000
2000
0000
0000
0000
,
3001
0010
0100
0001
0100
0010
0001
0001
,
1000
0000
0010
0100
0000
1000
0100
0000
0010
0000
1000
0100
0000
0100
0010
0000
,
0001
0100
0010
1000
0000
1000
0100
0001
,
0110
0000
0000
1001
0000
0000
0110
0000
1001
0000
0000
0000
0001
1000
0001
1000
,
0001
0010
1000
0010
0000
0010
0100
0000
,
2100
0000
0001
3002
0000
0100
0000
0103
,
0110
0000
0000
0000
,
0000
0000
0000
0000
,
0000
0000
0000
0000
,
0000
0000
0000
0000
,
1100
0000
1010
1010
0000
0101
0101
0000
,
0011
0011
0000
1100
1100
0000
0110
0000
,
1001
0000
0101
0101
0000
1010
1010
0000
,
1100
1100
0000
0011
0011
0000
0110
0000
,
1001
0000
0101
0011
0000
1010
1100
0000
,
0101
1010
0000
1100
0011
0000
0110
0000
,
1001
0000
0101
1100
0000
0011
1010
0000
,
1100
0011
0000
1010
0101
0000
0110
0000
,
0001
0100
0010
2000
0000
0000
3000
0000
,
0101
0001
0010
1100
1000
0010
0110
0010
,
1000
0100
0010
0002
0000
0000
0003
0000
,
1001
0000
0001
0010
0100
0000
2000
0000
0000
0000
0001
0000
0001
0000
3001
0000
,
1000
0100
0010
0002
0000
0000
0003
0000
,
1100
1000
0010
0101
0001
0010
0110
1001
,
0001
0100
0010
2000
0000
0000
3000
0000
,
0110
0000
1001
0000
,
0001
0100
1000
0100
0001
0100
0010
0000
,
1000
0100
0001
0100
1000
0100
0010
0000
,
0001
0010
1000
0010
0001
0010
0100
0000
,
1000
0010
0001
0010
1000
0010
0100
0000
,
0001
0000
0100
0010
1000
0000
0001
0000
1000
0000
0100
0010
0001
0000
1000
0000
,
0001
0000
0010
0100
1000
0000
0001
0000
1000
0000
0010
0100
0001
0000
1000
0000
,
0001
0010
0001
0000
1000
0100
1000
0000
0001
1000
0001
1000
0001
1000
0001
1000
,
0001
0000
0000
0000
,
1001
0000
0000
0000
1000
0100
0000
0010
0001
0000
1000
0000
0000
1001
0000
0001
,
1000
0000
0000
0000
0001
0100
0000
0010
1000
0000
0000
0000
0010
0000
0000
0000
,
1001
0000
0000
0000
1000
0100
0000
0010
0001
0000
0100
0000
0000
0011
0000
0100
,
1000
0000
0001
0000
0010
1000
0000
0010
0001
0010
0001
1000
0100
1000
0100
0000
,
0010
0000
0000
0000
1001
0000
0000
0000
1000
0010
1000
0000
0001
0100
0000
0000
,
1001
0000
0000
0000
1000
0010
0000
1000
0100
0000
0000
0000
0010
0000
0000
0000
,
0001
0000
0100
0000
0010
1000
0000
0010
1000
0000
0100
0000
0010
0001
0000
0010
,
0001
0000
1000
0000
0001
1000
0000
1000
0001
0000
0001
0000
0001
0000
0000
0000
,
1000
0000
0010
0000
0100
0001
0000
0001
0010
0000
0100
0000
1000
0010
0000
0010
,
1000
0000
0001
0000
0100
0010
0000
0010
0100
0000
0001
0000
1001
0000
0000
0000
,
0001
0000
0100
0000
0010
1000
0000
0100
1000
0000
0010
0000
0100
0001
0000
0010
,
0001
0000
0100
0000
1000
0100
0000
0001
0100
0000
0010
1000
0001
0100
0010
0000
,
1000
0000
0000
0000
1001
0000
0000
0000
0001
0000
0010
0000
0100
1000
0010
0100
,
0001
0000
0000
0000
1000
0001
0100
0010
1000
0000
0001
0100
0000
0100
0000
0100
,
0010
0000
1000
0000
0001
0100
0001
0000
0010
0000
0001
0000
1000
0100
1000
0000
,
0002
0000
0000
0003
,
1001
0000
0000
0000
1000
0000
0010
0100
0000
0001
1000
0010
0100
0000
0001
1000
,
0000
0010
0100
0001
1000
0000
0010
0100
0000
0001
1000
0010
0100
0000
0000
0000
,
1001
0000
0000
0000
0001
0000
0010
0100
0000
1000
0001
0010
0100
0000
1000
0001
,
0000
0010
0100
1000
0001
0000
0010
0100
1000
0000
0001
0100
0010
0100
0001
0000
,
1001
0000
0000
0000
0001
0000
0100
0010
0000
1000
0100
0010
0001
0000
0100
0010
,
0000
1000
0100
0010
0001
0000
0100
0010
0000
1000
0100
0010
0001
0000
0000
0000
,
1000
0000
0010
0100
0001
0000
0010
0100
0000
1000
0100
0010
0001
0000
0010
0100
,
0020
0031
2000
3010
0002
0013
0200
0301
,
1000
0000
0001
1000
0001
0000
0100
0010
1000
0010
1000
0010
0100
0000
0001
0010
,
0001
0010
0100
1000
0100
0000
1000
0010
0100
0001
0100
0001
0100
0000
0010
0000
,
1000
0000
0100
0010
0001
0000
1000
0001
0100
0001
0100
0001
1000
0000
0010
0100
,
0001
0100
0001
0100
0010
0000
1000
0001
0010
0100
0010
0100
0010
0000
0000
0000
,
0001
0010
0100
1000
0001
0000
1000
0010
0100
0010
1000
0010
0100
0000
0001
1000
,
0100
0010
0001
1000
0010
0000
0100
0001
0010
0100
1000
0010
0100
0000
0000
0000
,
0001
0100
0001
0100
0010
1000
0010
1000
0100
0010
0001
1000
0100
0010
0001
0100
,
0010
0000
0110
0000
,
1001
0000
0000
0000
,
0000
0000
0000
0000
;
#NOTES:
     dance-double:
     :
     Easy:
     9:
     :
00000000
00000000
00000000
00000000
,
00000000
00000000
00000000
00000000
,
00000000
00000000
00000000
00000000
,
00000000
00000000
00000000
00000000
,
00000000
00000000
00000000
00000000
,
00001000
00010000
00000000
00001000
00000000
00000000
00000000
00000000
,
00011000
00000000
00000000
00010100
00000000
00000000
00001100
00000000
,
00001000
00000100
00000000
00001000
00000000
00000000
00000000
00000000
,
00000220
00000000
00000000
00000330
,
00000001
00000010
00000000
00000001
00000000
00000000
00000000
00000000
,
00000110
00000000
00000000
00000110
00000000
00000000
00001001
00000000
,
00001100
00000000
00000000
00001100
00000000
00000000
00010100
00000000
,
00010000
00000000
00001000
00010000
00001000
00000000
00000000
00000000
,
00010000
00000000
00001000
00000000
01000000
00010000
01000000
00000000
,
00100000
00000000
10000000
00000000
00010000
00100000
00010000
00000000
,
10000000
00010000
10000000
00000000
00010000
10000000
00010000
00000000
,
20020000
00000000
00000000
30030000
,
10000000
00000000
01000000
00000000
00100000
00010000
00100000
00000000
,
00002000
00010000
00010000
00013000
,
00011000
00000000
00000000
00101000
00000000
00000000
00011000
00000000
,
00011000
00000000
00000000
00010010
00000000
00000000
00011000
00000000
,
00010000
00000000
00000100
00000000
00001000
00000010
00001000
00000000
,
00000200
00000010
00000010
00000310
,
00000110
00000000
00000000
00001001
00000000
00000000
00000110
00000000
,
00000001
00000000
00000000
00001000
00000000
00000001
00000000
00000000
,
00000001
00000000
00000100
00000000
00000010
00001000
00000010
00000000
,
00020000
00001000
00001000
00031000
,
00011000
00000000
00000000
00010010
00000000
00000000
00011000
00000000
,
00011000
00000000
00000000
00101000
00000000
00000000
00011000
00000000
,
00001000
00000000
01000000
00000000
00010000
00100000
00010000
00000000
,
02000000
00100000
00100000
03100000
,
01100000
00000000
00000000
10010000
00000000
00000000
01100000
00000000
,
10000000
00000000
00000000
00010000
00000000
10000000
00000000
00000000
,
10010000
00000000
00000000
00000000
,
00000000
00000000
00000000
00000000
,
00000000
00000000
00000000
00000000
,
00000000
00000000
00000000
00000000
,
10000000
00000000
00000000
01000000
00000000
00000000
10000000
00000000
,
00000000
01000000
00000000
00000000
00100000
00000000
00000000
00000000
,
00010000
00000000
00000000
00100000
00000000
00000000
00001000
00000000
,
00000000
00010000
00000000
00000000
00001000
00000000
00000000
00000000
,
00010000
00000000
00000000
00000100
00000000
00000000
00010000
00000000
,
00000000
00000100
00000000
00000000
00001000
00000000
00000000
00000000
,
00000100
00000000
00000000
00000010
00000000
00000000
00000100
00000000
,
00000000
00000010
00000000
00000000
00000001
00000000
00000000
00000000
,
00002000
00000000
00000000
00003000
,
00000100
00000000
00000000
00000100
00000000
00000000
00000100
00000000
,
00020000
00000000
00000000
00030000
,
00010000
00000000
00000000
00010000
00000000
00000000
00010000
00000000
,
00002000
00000000
00000000
00003000
,
01000000
00000000
00000000
01000000
00000000
00000000
01000000
00000000
,
00020000
00000000
00000000
00030000
,
10000000
00000000
10010000
00000000
,
10000000
00100000
10000000
00000000
00100000
00000000
00000000
00000000
,
00100000
01000000
00100000
00000000
01000000
00000000
00000000
00000000
,
00010000
01000000
00010000
00000000
01000000
00000000
00001000
00000000
,
00010000
00001000
00010000
00000000
00001000
00000000
00000000
00000000
,
00010000
00001000
00010000
00000100
,
00001000
00000010
00000100
00000010
,
00001000
00000001
00001000
00000000
00000001
00001000
00000001
00000000
,
00002000
00000000
00000000
00003000
,
00001001
00000000
00001010
00000000
,
00010010
00000000
00011000
00000000
,
01001000
00000000
01010000
00000000
,
00110000
00000000
01100000
00000000
,
10010000
00000000
01100000
00000000
,
11000000
00000000
01100000
00000000
,
00110000
00000000
00101000
00000000
,
00022000
00000000
00000000
00033000
,
00010000
00000000
00000100
00000000
00001000
00000010
00000100
00000000
,
00000001
00000010
00000100
00001000
,
00000100
00000000
00010000
00000000
00001000
00010000
00001000
00000000
,
00100000
00010000
01000000
00100000
,
10000000
00000000
01000000
00000000
00100000
00010000
10000000
00000000
,
01000000
00010000
00001000
00000010
,
00000001
00000010
00000100
00000000
00001000
00000100
00000010
00000000
,
00000000
00000000
00000000
00000000
,
00000001
00000001
00000110
00000110
,
00000001
00001000
00000110
00000000
,
00000001
00000100
00001000
00010000
,
00100000
01000000
01100000
00000000
,
10000000
10000000
01100000
01100000
,
10000000
00010000
01100000
00000000
,
10000000
01000000
00010000
00001000
,
00000010
00000100
00000110
00000000
,
00000011
00000001
00001000
00000100
,
00001100
00001000
00000100
00010000
,
00011000
00001000
00100000
00010000
,
01010000
01000000
00100000
00000000
,
10000000
00100000
10100000
10100000
,
10000000
00010000
00110000
00110000
,
00100000
00000000
00001000
00000000
00010000
00001000
00010000
00000000
,
00001000
00000000
00010000
00000000
,
00011000
00000000
00000000
00000000
,
00000000
00000000
00000000
00000000
;
#NOTES:
     dance-double:
     :
     Medium:
     13:
     :
00000000
00000000
00000000
00000000
,
00000000
00000000
00000000
00000000
,
00000000
00000000
00000000
00000000
,
00000000
00000000
00000000
00000000
,
00000000
00000000
00000000
00000000
,
00001000
00010000
00000000
00002000
00000000
00000000
00003000
00000000
,
00010000
00001000
00000000
00100000
00010000
00000000
00100000
00000000
,
01000000
10000000
00000000
00020000
00000000
00000000
00030000
00000000
,
20020000
00000000
00000000
30030000
,
10000000
01000000
00100000
00020000
00000000
00000000
00030000
00000000
,
00100000
00010000
00000000
00100000
00001000
00000000
00010000
00000000
,
00001000
00010000
00000000
00000100
00010000
00000000
00000100
00000000
,
00001000
00000000
00000000
00000010
00000000
00000000
00000100
00000000
00000002
00000000
00000000
00000000
00000003
00000000
00000000
00000000
,
00000001
00000100
00000001
00000100
00000010
00001000
00000010
00000000
,
00010000
00001000
00010000
00001000
01000000
00010000
01000000
00000000
,
00010000
01000000
00100000
10000000
01000000
00100000
00010000
00000000
,
20020000
00000000
00000000
30030000
,
10000000
01000000
00100000
01000000
00000000
10000000
00010000
00000000
,
00100000
00000000
00000000
00001000
00000000
00000000
00010000
00000000
00001000
00000000
00000000
00000000
00011000
00000000
00000000
00000000
,
00001000
00100000
00000000
00001000
00010000
00000000
00001000
01000000
,
00001000
00010000
00000000
00001000
00000000
00010000
00011000
00000000
,
00001000
00010000
00000100
00010000
00000000
00001000
00010000
00000000
,
00000010
00000000
00000000
00000100
00000000
00000000
00000010
00000000
00001000
00000000
00000000
00000000
00001010
00000000
00000000
00000000
,
00000010
00010000
00000000
00001000
00000000
00010000
00000100
00000000
,
00001000
00000000
00000010
00000100
00000000
00000010
00000100
00000000
,
00000001
00000010
00000100
00000010
00000000
00000001
00001000
00000000
,
00000100
00000000
00000000
00010000
00000000
00000000
00001000
00000000
00010000
00000000
00000000
00000000
00011000
00000000
00000000
00000000
,
00010000
00000100
00000000
00010000
00001000
00000000
00010000
00000010
,
00010000
00000000
00000000
00001000
00000000
00000000
00010000
00000000
00001000
00000000
00000000
01000000
00000000
00000000
00001000
00000000
,
00010000
00001000
00100000
00001000
00000000
00010000
00001000
00000000
,
01000000
00000000
00000000
00100000
00000000
00000000
01000000
00000000
00010000
00000000
00000000
00000000
01010000
00000000
00000000
00000000
,
01000000
00001000
00000000
00010000
00000000
00001000
00100000
00000000
,
00010000
00000000
01000000
00100000
00000000
10000000
00000000
00010000
,
10000000
00000000
00000000
00000000
,
00000000
00000000
00000000
00000000
,
00000000
00000000
00000000
00000000
,
00000000
00000000
00000000
00000000
,
10000000
00000000
01000000
00100000
00000000
01000000
00100000
00000000
,
00001000
00010000
00000000
00001000
00010000
00000000
00001000
00000000
,
00010000
00000000
00000100
00000010
00000000
00000100
00000010
00000000
,
00000001
00001000
00000000
00000001
00001000
00000000
00001000
00000000
,
00000001
00000000
00000100
00000010
00000000
00000100
00000010
00000000
,
00010000
00001000
00000000
00010000
00001000
00000000
00010000
00000000
,
00001000
00000000
01000000
00100000
00000000
01000000
00100000
00000000
,
10000000
00010000
00000000
10000000
00010000
00000000
00010000
00000000
,
10000000
00100000
01000000
00020000
00000000
00000000
00030000
00000000
,
00100000
00010000
00000000
01000000
00010000
00000000
00100000
01000000
,
00100000
00001000
00010000
00002000
00000000
00000000
00003000
00000000
,
00010000
00000100
00001000
00000010
00000000
00000100
00000010
00000100
,
00000001
00000010
00000100
00002000
00000000
00000000
00003000
00000000
,
00000010
00001000
00000000
00000100
00001000
00000000
00000010
00000100
,
00000010
00010000
00001000
00020000
00000000
00000000
00030000
00000000
,
00011000
00000000
00011000
00000000
,
00001000
00010000
00001000
00000000
00100000
00010000
00100000
00000000
,
00010000
01000000
00010000
00000000
01010000
00000000
10010000
00000000
,
10000000
01000000
10000000
00000000
00010000
00100000
00010000
00000000
,
00100000
01000000
00100000
00000000
01100000
00000000
00110000
00000000
,
00100000
00001000
00010000
00001000
00010000
00000010
00001000
00000000
,
00000001
00000100
00000001
00000010
00000100
00001000
00000100
00000000
,
00001000
00000010
00001000
00000100
00010000
00001000
00100000
00001000
,
00020000
00000000
00000000
00030000
,
00011000
00000000
00000000
00000000
00000000
00001000
00000000
00000000
01000000
00000000
00100000
00000000
00000000
01000000
00000000
00000000
,
01100000
00000000
00000000
00000000
00000000
10000000
00000000
00000000
00010000
00000000
00000000
00000000
10010000
00000000
00000000
00000000
,
10000000
00000000
00000000
00000000
00000000
00100000
00000000
00000000
01000000
00000000
01000000
00000000
00000000
00010000
00000000
00000000
,
00100000
00000000
01000000
00000000
00000000
00100000
00000000
00000000
00001000
00000000
00010000
00001000
00010000
00000000
00000000
00000000
,
00001000
00000000
00000000
00000000
00011000
00000000
00000000
00000000
00010000
00000000
00000010
00000000
00000000
00001000
00000000
00000000
,
00001100
00000000
00000000
00000000
00000000
00000100
00000000
00000000
00000010
00000000
00000000
00000000
00000001
00000000
00000000
00000000
,
00001000
00000000
00000001
00000000
00000000
00000100
00000000
00000000
00000010
00000000
00000100
00000000
00000000
00001000
00000000
00000000
,
00010000
00000000
00001000
00000000
00000000
00010000
00000000
00001000
00010000
00000000
00001000
00000000
00010000
00000000
00000000
00000000
,
00001000
00100000
00010000
01000000
00010000
00100000
01000000
10000000
,
00010000
01000000
10000000
01000000
00010000
00100000
01000000
00000000
,
10000000
01000000
00100000
00001000
00010000
01000000
00100000
00001000
,
00010000
00000000
00000100
00000000
00001000
00000000
00000100
00000000
00000010
00000000
00000001
00001000
00000001
00000000
00000000
00000000
,
00000110
00000000
00001001
00000000
00000001
00000100
00000010
00000001
,
00001000
00000100
00000010
00001000
00000100
00010000
00001000
00000000
,
00010000
00001000
01000000
00010000
00100000
01000000
10000000
00000000
,
00020000
00000000
00000000
00030000
,
01100000
00000000
00000000
00000000
10010000
00000000
00000000
10000000
00000000
01000000
00100000
00000000
00010000
00000000
00000000
10000000
,
00000000
01000000
00100000
00000000
00010000
00000000
00000000
10000000
00000000
01000000
00100000
00000000
00010000
00000000
00000000
00000000
,
00110000
00000000
00000000
00000000
00101000
00000000
00000000
00001000
00000000
01000000
00010000
00000000
00100000
00000000
00000000
00001000
,
00000000
01000000
00010000
00000000
00100000
00000000
00001000
00000000
00020000
00000000
00000000
00000000
00030000
00000000
00000000
00000000
,
00011000
00000000
00000000
00000000
00010100
00000000
00000000
00000100
00000000
00001000
00000001
00000000
00000010
00000000
00000000
00000100
,
00000000
00001000
00000001
00000000
00000010
00000000
00000000
00000100
00000000
00001000
00000001
00000000
00000010
00000000
00000000
00000000
,
00000110
00000000
00000000
00000000
00001001
00000000
00000000
00000001
00000000
00001000
00000100
00000000
00010000
00000000
00001000
00010000
,
00002000
00003000
00020000
00030000
00002000
00003000
00020000
00030000
,
00001000
00010000
00100000
01000000
00010000
00100000
01000000
00010000
,
10000000
00100000
01000000
10000000
00010000
00100000
00001000
00000000
,
00010000
00001000
00000010
00000100
00001000
00000010
00000100
00001000
,
00000001
00000010
00000100
00000001
00001000
00000010
00010000
00000000
,
00001000
00010000
01000000
00100000
00010000
01000000
00100000
00010000
,
00001000
00000100
00000010
00001000
00000100
00000010
00000001
00000000
,
00000001
00000100
00001000
00010000
00100000
10000000
00010000
00000000
,
01000000
00000000
00100000
00000000
,
10010000
00000000
00000000
00000000
,
00000000
00000000
00000000
00000000
;
#NOTES:
     dance-double:
     :
     Hard:
     17:
     :
00000000
00000000
00000000
00000000
,
00000000
00000000
00000000
00000000
,
00000000
00000000
00000000
00000000
,
00000000
00000000
00000000
00000000
,
00000000
00000000
00000000
00000000
,
00001000
00010000
01000000
20000000
00000000
00000000
00000000
00000000
,
30010000
00100000
00000000
10000000
00100000
00000000
00010000
10000000
,
00100000
00010000
00001000
00020000
00000000
00000000
00000000
00000000
,
00031000
00000000
00010000
00001000
00010000
00000000
00000100
00001000
00000100
00000000
00000010
00000000
00000001
00000000
00000000
00000000
,
00000001
00000000
00000010
00000100
00001000
00000000
00000200
00000000
00000000
00000000
00000000
00000000
00000300
00000000
00000000
00000000
,
00000100
00011000
00000000
00000100
00011000
00000000
00011000
00000000
,
00010000
00000000
00001000
00100000
00001000
00000000
01000000
00000000
00010000
00100000
00010000
00000000
01000000
00000000
00100000
00000000
,
10000000
00000000
01000000
00100000
00000000
01000000
00100000
00000000
00010000
00000000
10000000
00010000
00000000
10000000
00010000
00000000
,
10000000
00000000
00100000
01000000
00100000
00000000
00010000
00000000
00100000
01000000
00100000
00000000
10000000
00000000
00010000
00000000
,
00100000
00000000
00001000
00010000
00001000
00000000
01000000
00000000
00001000
00010000
00001000
00000000
00010000
00000000
00000100
00000000
,
00001000
00000000
00000010
00000100
00000010
00000000
00000001
00000000
00000010
00000100
00000010
00000000
00001000
00000000
00000001
00000000
,
00000010
00000100
00000001
00000100
00000010
00000001
00001000
00001000
,
00000001
00000100
00001000
00010000
00000000
00010000
00100000
10000000
,
00010000
00000000
00000000
01000000
00000000
00000000
00100000
00000000
10010000
00000000
00000000
00000000
10000000
00010000
10000000
00010000
,
10000000
01000000
00010000
00001000
00010000
01000000
00100000
00001000
,
00010000
00100000
01000000
00100000
00000000
00100000
00010000
00000000
,
00001000
00000100
00000010
00001000
00000000
00001000
00000001
00000100
,
00000001
00000000
00000000
00000010
00000000
00000000
00000100
00000000
00001001
00000000
00000000
00000000
00000001
00001000
00000001
00001000
,
00000001
00001000
00000100
00010000
00001000
01000000
00010000
00000000
,
00120000
00000000
10000000
20030000
00000000
00100000
00100000
30100000
,
10000000
01000000
00010000
00001000
00000000
00001000
00000010
00000001
,
00001000
00000000
00000000
00000100
00000000
00000000
00000010
00000000
00001001
00000000
00000000
00000000
00000001
00001000
00000001
00001000
,
00000001
00000100
00001000
00010000
00001000
00000100
00000010
00010000
,
00001000
00000000
00000010
00000100
00000000
00000100
00000010
00000000
00000100
00000000
00010000
00001000
00000000
00010000
00001000
00000000
,
00010000
01000000
00100000
00010000
00000000
00010000
10000000
01000000
,
10000000
00000000
00000000
00100000
00000000
00000000
01000000
00000000
10010000
00000000
00000000
00000000
10000000
00010000
10000000
00010000
,
10000000
00010000
01000000
00001000
00010000
00000100
00001000
00000000
,
00002010
00000000
00000001
00003002
00000000
00000013
00001000
00010000
,
00001000
00000000
00000000
00000000
,
00000000
00000000
00000000
00000000
,
00000000
00000000
00000000
00000000
,
00000000
00000000
00000000
00000000
,
00011000
00000000
00010000
00000100
00000000
00000110
00000110
00000000
,
00000010
00000001
00000000
00001001
00001001
00000000
00001010
00000000
,
00010010
00000000
00000010
00010000
00000000
00011000
00011000
00000000
,
00001000
01000000
00000000
01010000
01010000
00000000
00110000
00000000
,
01100000
00000000
01000000
10000000
00000000
10010000
10010000
00000000
,
00010000
00100000
00000000
00101000
00101000
00000000
00011000
00000000
,
00010100
00000000
00000100
00001000
00000000
00001001
00001001
00000000
,
00000001
00000100
00000000
00000110
00000110
00000000
00001001
00000000
,
00000001
00000010
00000100
00002000
00000000
00000000
00003000
00000000
,
00001100
00000100
00010000
00011000
00001000
01000000
01010000
00010000
,
10000000
00100000
01000000
00020000
00000000
00000000
00030000
00000000
,
01010000
00000000
01000000
00001000
00010000
00000000
00002000
00000000
00000000
00000000
00010000
00000000
00010000
00000000
00013000
00000000
,
00001000
00000100
00000001
00002000
00000000
00000000
00003000
00000000
,
00001010
00000010
00010000
00011000
00001000
00100000
00110000
00010000
,
10000000
01000000
00010000
02000000
00000000
00000000
03000000
00000000
,
01100000
00000000
00011000
00000000
,
00001000
00010000
00001000
00000010
00001000
00010000
00001000
00000000
,
00010000
00001000
00010000
00100000
00010000
00001000
00010000
00000000
,
00001000
00010000
00001000
00000100
00001000
00010000
00001000
00000000
,
00010000
00001000
00010000
01000000
00010000
00001000
00010000
00000000
,
00001000
00000000
00010000
00001000
00010000
00000000
00000100
00000000
00001000
00000000
00000010
00000100
00000010
00000000
00001000
00000000
,
00000001
00000000
00000010
00000100
00000010
00000000
00000100
00000000
00010000
00000000
00001000
00010000
00001000
00000000
00100000
00000000
,
00010000
00100000
00010000
00000000
10000000
01000000
10000000
00000000
00010000
10000000
00010000
10000000
00010000
10000000
00010000
10000000
,
00010000
00000000
00000000
00000000
,
10010000
00000000
00000000
00000000
10000000
00100000
00000000
01000000
00010000
00000000
00100000
00000000
00000000
01100000
00000000
01000000
,
00010000
00000000
00000000
00000000
00010000
00001000
00000000
00001000
00000010
00000000
00000000
00000000
00000110
00000000
00000000
00000000
,
00001001
00000000
00000000
00000000
00000001
00000100
00000000
00000010
00001000
00000000
00000100
00000000
00000000
00000011
00000000
00000001
,
00001000
00000000
00000100
00000000
00010000
00001000
00000000
00001000
00100000
00001000
00100000
00010000
00100000
00010000
00100000
00000000
,
01000000
00000000
00000000
00000000
10010000
00000000
00000000
00000000
10000000
00100000
10000000
00000000
01000000
00100000
00000000
00000000
,
01100000
00000000
00000000
00000000
00100000
00001000
00000000
00010000
00001000
00000000
00000000
00000000
00011000
00000000
00000000
00000000
,
00010000
00000000
00000010
00000000
00001000
00000010
00000000
00001000
00000010
00000000
00000100
00000000
00000001
00000010
00000000
00000001
,
00000010
00000000
00000100
00000000
00001000
00000001
00000000
00001000
00000001
00000000
00001000
00000000
00000100
00000000
00000000
00000000
,
00010000
00000000
00001000
00000000
01000000
00010000
00000000
00010000
00100000
00000000
01000000
00000000
10000000
00100000
00000000
00100000
,
01000000
00000000
00001000
00000000
00010000
00001000
00000000
00001000
00010000
00000000
00000100
00000000
00001000
00000000
00000000
00000000
,
00000001
00000000
00000100
00000000
00000001
00000010
00000000
00000100
00001000
00000000
00000100
00000000
00010000
00001000
00000000
00100000
,
00001000
00000000
00010000
00000000
00100000
01000000
00000000
00010000
01000000
00000000
00100000
10000000
00010000
01000000
00010000
00000000
,
01000000
00000000
00000000
00000000
01100000
00000000
00000000
00000000
00100000
00000000
10000000
00000000
01000000
00100000
00010000
00100000
,
01000000
00000000
00000000
00000000
10000000
00010000
00100000
00001000
00010000
00000000
00001000
00010000
00000000
00000100
00000000
00001000
,
00000010
00000000
00000100
00000000
00001000
00000100
00001000
00000000
00000100
00000000
00000001
00000000
00001000
00000100
00000010
00000000
,
00000002
00000000
00000000
00000003
,
00001001
00000000
00000000
00000000
00001000
00000000
00000100
00010000
00000000
00000010
00001000
00000100
00010000
00000000
00000010
00001000
,
00000000
00000100
00010000
00000010
00001000
00000000
00000100
00010000
00000000
00000010
00001000
00000100
00010000
00000000
00000000
00000000
,
00011000
00000000
00000000
00000000
00001000
00000000
00100000
00001000
00000000
01000000
00010000
00100000
00001000
00000000
01000000
00010000
,
00000000
00100000
00001000
01000000
00010000
00000000
00100000
00001000
01000000
00000000
00010000
01000000
00100000
10000000
00100000
00000000
,
10000000
00000000
00000000
00000000
10010000
00000000
00010000
00100000
00000000
00001000
01000000
00010000
00100000
00000000
01000000
00100000
,
00000000
00010000
01000000
00001000
00100000
00000000
00010000
00100000
00000000
00010000
01000000
00001000
00100000
00000000
00000000
00000000
,
00001000
00000000
00010000
00000100
00001000
00000000
00000100
00000010
00000000
00000001
00001000
00000010
00000100
00000000
00000001
00001000
,
00000002
00000103
00002000
00013000
00200000
10300000
00020000
00000000
,
10030000
00000000
00100000
01000000
00100000
00000000
01000000
00010000
01000000
00010000
01000000
00001000
01000000
00000000
00001000
00010000
,
00001000
00010000
00000010
00001000
00000010
00000000
00001000
00000100
00001000
00000100
00000010
00000001
00000010
00000000
00000000
00000000
,
00000001
00000000
00000010
00000100
00000010
00000000
00000100
00001000
00000100
00001000
00000100
00010000
00000100
00000000
00010000
00001000
,
00010000
00001000
00100000
00010000
00100000
00000000
00010000
01000000
00100000
10000000
00100000
10000000
00100000
00000000
00000000
00000000
,
10000000
00000000
00100000
01000000
00010000
00000000
00100000
01000000
00100000
00010000
00100000
00001000
00010000
00000000
00001000
00010000
,
00000100
00001000
00000100
00000010
00000001
00000000
00000010
00000001
00000100
00000010
00001000
00000100
00000010
00000000
00000000
00000000
,
00000001
00000010
00000001
00000010
00000100
00001000
00000100
00010000
00001000
00010000
00001000
00100000
00010000
00100000
00010000
00100000
,
01000000
00000000
01100000
00000000
,
10010000
00000000
00000000
00000000
,
00000000
00000000
00000000
00000000
;
