
//----- song ID: dddd2 -----//
#TITLE:打打打打打打打打打打 (にじさんじダンス部 ver.);
#ARTIST:長尾景 & 倉持めると & セラフ・ダズルガーデン;
#TITLETRANSLIT:Dadadadadadadadadada (NIJISANJI Dance-bu ver.);
#ARTISTTRANSLIT:Kei Nagao & Meruto Kuramochi & Seraph Dazzle Garden;
#BANNER:Dadadadadadadadadada (NIJISANJI Dance-bu ver).png;
#BACKGROUND:Dadadadadadadadadada (NIJISANJI Dance-bu ver)-bg.png;
#CDTITLE:./CDTitles/DDR WORLD.png;
#MUSIC:Dadadadadadadadadada (NIJISANJI Dance-bu ver).ogg;
#SAMPLESTART:75.251;
#SAMPLELENGTH:15;
#DISPLAYBPM:156;
#BPMS:0=155,4=156;
#BGSTAGE:2;
#NOTES:
     dance-single:
     :
     Beginner:
     2:
     :
0000
0000
0000
0000
,
0000
0000
0000
0000
,
0000
0000
0000
0000
,
0000
0000
0000
0000
,
0000
0000
0000
0000
,
0000
0000
0000
0000
,
0002
0000
0000
0000
,
0003
0000
0000
0000
,
0001
0000
0000
0000
,
1000
0000
0000
0000
,
1000
0000
0000
0000
,
0010
0000
0000
0000
,
0010
0000
0000
0000
,
0100
0000
0000
0000
,
0100
0000
0000
0000
,
0001
0000
0000
0000
,
1000
0000
0000
0000
,
0001
0000
0001
0000
,
0001
0000
0000
0000
,
1000
0000
0000
0000
,
0001
0000
0000
0000
,
1000
0000
1000
0000
,
1000
0000
0000
0000
,
0010
0000
0000
0000
,
0010
0000
0000
0000
,
1000
0000
0000
0000
,
1000
0000
0000
0000
,
0001
0000
0000
0000
,
0001
0000
0000
0000
,
0100
0000
0000
0000
,
0100
0000
0000
0000
,
0001
0000
0000
0000
,
0001
0000
0000
0000
,
0001
0000
0001
0000
,
0001
0000
0000
0000
,
1000
0000
0000
0000
,
1000
0000
0000
0000
,
1000
0000
1000
0000
,
2000
0000
3000
0000
,
0001
0000
0001
0000
,
0001
0000
0000
0000
,
1000
0000
1000
0000
,
1000
0000
0000
0000
,
0010
0000
0010
0000
,
0010
0000
0000
0000
,
0100
0000
0100
0000
,
0100
0000
0000
0000
,
1001
0000
0000
0000
,
1001
0000
0000
0000
,
2000
0000
3000
0000
,
0002
0000
0003
0000
,
2000
0000
0000
0000
,
0000
0000
3000
0000
,
0002
0000
0003
0000
,
2000
0000
3000
0000
,
0002
0000
0000
0000
,
0000
0000
0003
0000
,
1000
0000
0000
0000
,
0001
0000
0000
0000
,
1000
0000
0000
0000
,
1000
0000
0000
0000
,
0010
0000
0000
0000
,
0010
0000
0000
0000
,
0100
0000
0000
0000
,
0100
0000
0000
0000
,
0001
0000
0000
0000
,
0001
0000
0000
0001
,
0000
0000
0000
0000
;
#NOTES:
     dance-single:
     :
     Easy:
     5:
     :
0000
0000
0000
0000
,
0000
0000
0000
0000
,
0000
0000
0000
0000
,
0000
0000
0000
0000
,
0000
0000
0000
0000
,
0000
0000
0000
0000
,
0001
1000
0001
1000
,
0001
0000
0010
0000
,
0100
0000
1000
0001
,
1000
0000
0010
0000
,
0100
0000
0001
1000
,
0001
0000
1000
0000
,
0010
0000
0100
0001
,
0100
0000
0001
0000
,
0010
0000
0100
1000
,
0100
0000
0100
0000
,
0010
0000
0010
0000
,
0001
0010
0001
0000
,
1000
0010
1000
0000
,
0010
0000
0010
0000
,
0100
0000
0100
0000
,
0001
0100
0001
0000
,
1000
0100
1000
0000
,
1001
0000
0000
0000
,
0110
0000
0000
0000
,
1001
0000
0000
0000
,
0110
0000
0000
0000
,
1001
0000
1001
0000
,
0110
0000
0110
0000
,
1001
0000
1001
0000
,
0110
0000
0000
0000
,
0001
0000
0001
0000
,
1000
0000
1000
0000
,
0010
0100
0010
0000
,
0100
0010
0100
0000
,
0001
0000
0001
0000
,
1000
0000
1000
0000
,
0100
0010
0100
0000
,
0010
0100
0010
0000
,
0001
0010
0001
0010
,
0100
1000
0100
0000
,
1000
0010
1000
0010
,
0100
0001
0100
0000
,
0001
0010
0001
1000
,
0001
0100
0001
0000
,
1000
0010
1000
0001
,
1000
0100
1000
0000
,
0002
0000
2000
3003
,
2002
0000
3003
0000
,
0001
0001
0001
0001
,
1000
1000
1000
1000
,
0001
0001
0001
0001
,
0001
0001
0001
0000
,
0010
0010
0010
0010
,
0100
0100
0100
0100
,
0010
0010
0010
0010
,
0010
0010
0010
0000
,
0001
0000
1000
0000
,
0001
1000
0001
0000
,
1000
0100
0010
0001
,
1000
0100
0010
0000
,
0001
0100
0010
1000
,
0001
0100
0010
0000
,
1000
0001
0010
0100
,
1000
0001
0010
0000
,
0001
1000
0010
0100
,
0001
1000
0010
0010
,
0000
0000
0000
0000
;
#NOTES:
     dance-single:
     :
     Medium:
     10:
     :
0000
0000
0000
0000
,
0000
0000
0000
0000
,
0000
0000
0000
0000
,
0000
0000
0000
0000
,
0000
0000
0000
0000
,
0000
0000
0000
0000
,
1001
1001
1001
1001
,
1000
0010
0100
0001
,
1000
0000
0010
0000
0100
0001
1000
0000
,
0001
0010
0100
1000
,
0001
0000
0010
0000
0100
1000
0001
0000
,
0100
0010
1000
0001
,
0100
0000
0010
0000
1000
0001
0100
0000
,
0010
0100
0001
1000
,
0010
0000
0100
0000
0001
1000
0010
0000
,
1000
1000
1000
1000
,
0001
0001
0001
0001
,
1000
0100
1000
0000
0001
0100
0001
0000
,
1000
0010
1000
0000
0001
0010
0001
0000
,
0010
0010
0010
0010
,
0100
0100
0100
0100
,
0010
0001
0010
0000
0100
1000
0100
0000
,
0010
0100
0010
0000
0110
0000
1001
0000
,
1000
0000
0000
1000
0000
0000
1000
0000
0001
0000
0000
0001
0000
0000
0001
0000
,
1000
0000
0000
1000
0000
0000
1000
0000
0100
0000
0010
0000
0100
0000
0000
0000
,
0010
0000
0000
0010
0000
0000
0010
0000
0100
0000
0000
0100
0000
0000
0100
0000
,
0010
0000
0000
0010
0000
0000
0010
0000
0001
0000
1000
0000
0001
0000
0000
0000
,
1000
0000
0000
0001
0000
0000
1000
0000
0001
0000
0000
1000
0000
0000
0001
0000
,
1000
0000
0000
0001
0000
0000
1000
0000
0010
0000
0100
0000
0010
0000
0000
0000
,
0100
0000
0000
0010
0000
0000
0100
0000
0010
0000
0000
0100
0000
0000
0010
0000
,
0100
0000
0000
0010
0000
0000
0100
0000
0002
0000
0000
0000
0003
0000
0000
0000
,
1000
1000
1000
1000
,
0001
0001
0001
0001
,
0100
0001
0100
0000
0010
1000
0010
0000
,
1000
0100
1000
0000
0001
0010
0001
0000
,
0010
0010
0010
0010
,
0100
0100
0100
0100
,
1000
0100
1000
0000
0001
0100
0001
0000
,
0010
0100
0010
0100
0010
0000
0000
0001
,
1000
0000
0000
0100
0000
0000
1000
0000
0100
0000
0000
0010
0000
0000
0100
0000
,
0010
0000
0000
0001
0000
0000
0010
0000
1000
0000
0010
0000
0002
0000
0000
0000
,
0003
0000
0100
0000
0010
0000
0100
0000
0001
0000
0000
0001
0000
0000
0001
0000
,
0010
0100
1000
0001
0100
0000
0000
0001
,
0010
0000
0000
0100
0000
0000
0010
0000
0100
0000
0000
1000
0000
0000
0100
0000
,
1000
0000
0000
0001
0000
0000
1000
0000
0010
0000
0001
0000
0020
0000
0000
0000
,
0000
0030
0000
0000
0000
0000
0000
0100
,
0001
0010
1000
0010
,
0002
0000
0200
0303
,
0020
0000
2000
3030
,
1010
1010
1010
1010
,
0101
0101
0101
0101
,
1001
1001
1001
1001
,
1001
1001
1001
0000
,
1100
1100
1100
1100
,
0011
0011
0011
0011
,
1001
1001
1001
1001
,
1001
1001
1001
0000
,
1010
0000
0011
0000
,
1100
0101
1001
0000
,
1000
0100
0010
0100
,
0001
0000
0100
0000
0010
0100
0010
0000
,
0001
0100
0010
0100
,
1000
0000
0100
0000
0010
0100
0010
0000
,
1000
0100
0001
0100
,
1000
0000
0100
0000
0010
0100
0010
0000
,
0001
0100
1000
0100
,
0001
0000
0100
0000
0010
0100
0010
0000
,
0000
0000
0000
0000
;
#NOTES:
     dance-single:
     :
     Hard:
     14:
     :
0000
0000
0000
0000
,
0000
0000
0000
0000
,
0000
0000
0000
0000
,
0000
0000
0000
0000
,
0000
0000
0000
0000
,
0000
0000
0000
0000
,
0001
1000
0001
1000
0001
1000
0001
1000
0001
1000
0000
0000
,
0001
0100
0000
0001
0100
0000
0001
0000
1000
0100
0000
1000
0100
0000
1000
0000
,
0001
0010
0000
0001
0010
0000
0001
0000
1000
0000
0001
0000
0001
0000
0000
0000
,
1000
0100
0000
1000
0100
0000
1000
0000
0001
0100
0000
0001
0100
0000
0001
0000
,
1000
0010
0000
1000
0010
0000
1000
0000
0001
0000
1000
0000
1000
0000
0000
0000
,
0001
0100
0000
0010
1000
0000
0001
0000
1000
0100
0000
0010
0001
0000
1000
0000
,
0010
0100
0000
0001
1000
0000
0100
0000
0010
0000
0001
0000
0001
0000
0000
0000
,
1000
0010
0000
0100
0001
0000
1000
0000
0001
0010
0000
0100
1000
0000
0001
0000
,
0100
0010
0000
1000
0001
0000
0010
0000
0100
0000
1000
0000
1000
0000
0000
0000
,
0001
1000
0001
0000
1000
0100
0000
0010
0000
0001
0010
0001
1000
0000
0001
0000
,
1000
0100
1000
0000
0001
0100
0001
0100
0010
1000
0010
1000
0010
0000
2000
0000
,
0000
3000
0000
0000
,
0000
0000
0000
0000
,
0001
1000
0100
0000
1000
0001
0100
0001
0000
0010
0001
0010
0100
0000
1000
0000
,
0001
0010
0001
0010
0100
1000
0100
1000
0000
0001
0100
0001
1000
0000
0020
0000
,
0000
0000
0030
0000
,
0000
0000
0110
1001
,
1000
0100
1000
0001
0000
0000
0100
0000
0010
1000
0010
0100
0000
0000
0001
0000
,
1000
0100
1000
0001
0000
0000
0100
0000
0010
0000
1000
0000
1000
0000
0000
0000
,
0001
0010
0001
1000
0000
0000
0010
0000
0100
0001
0100
0010
0000
0000
1000
0000
,
0001
0010
0001
1000
0000
0000
0010
0000
0100
0000
0001
0000
0001
0000
0000
0000
,
0010
0001
0010
0100
0000
0000
1000
0000
0010
0100
0010
1000
0000
0000
0100
0000
,
0010
0001
0010
0100
0000
0000
1000
0000
0010
0000
0100
0000
0100
0000
0000
0000
,
0010
1000
0010
0100
0000
0000
0001
0000
0010
0100
0010
0001
0000
0000
0100
0000
,
0010
1000
0010
0100
0000
0000
0001
0000
2000
0000
0000
0000
3001
0000
0000
0000
,
1000
0000
0010
0000
0100
0000
0001
0100
0000
0010
0100
0001
1000
0000
0100
0000
,
0010
0001
0010
0001
1000
0100
1000
0100
0000
1000
0001
0100
0001
0000
2000
0000
,
0000
3000
0000
0000
,
0000
0000
0000
0000
0000
0020
0000
0130
,
0001
0100
0001
1000
0000
0000
0010
0000
1000
0100
1000
0001
0000
0000
0010
0000
,
0001
0100
0010
0000
1000
0100
0010
0001
0010
0001
0010
0100
1000
0000
0020
0000
,
0000
0000
0030
0000
,
0220
0000
0000
0000
0330
0000
0000
0001
,
0010
0000
0000
0100
0000
0000
1000
0000
0010
0000
0000
0100
0000
0000
0001
0000
,
0010
0000
0000
1000
0000
0000
1000
0000
0010
0000
0001
0000
2000
0000
0000
0000
,
3000
0000
0010
0000
0100
0000
0001
0000
1000
0000
0000
1000
0000
0000
1000
0000
,
0001
0010
1000
0001
0100
0000
0000
1000
,
0010
0000
0000
0100
0000
0000
0001
0000
0010
0000
0000
0100
0000
0000
1000
0000
,
0010
0000
0000
0001
0000
0000
0001
0000
0010
0000
1000
0000
0020
0000
0000
0000
,
0000
0030
0000
0000
0000
0000
0000
0100
,
0001
0010
1000
0001
,
0200
0000
0000
1300
0002
0000
0003
0000
,
0020
0000
0200
0330
,
0010
0100
0010
0100
0010
0100
0010
0100
0010
0100
0000
0000
,
1000
0001
1000
0001
1000
0001
1000
0001
1000
0001
0000
0000
,
0010
0100
0010
0100
0010
0100
0010
0100
0010
0100
0010
0100
,
0010
0100
0010
0100
0010
0100
0010
0000
0000
0000
0000
0000
,
0001
0010
0001
0010
0001
0010
0001
0010
0001
0010
0000
0000
,
0100
1000
0100
1000
0100
1000
0100
1000
0100
1000
0000
0000
,
0001
0100
0001
0100
0001
0100
0001
0100
0001
0100
0001
0100
,
0001
0100
0001
0100
0001
0100
0001
0000
0000
0000
0000
0000
,
1000
0100
1000
0100
0000
0000
0010
0001
0010
0001
0000
0000
,
1000
0001
1000
0001
1000
0001
1000
0000
0000
1001
0000
0000
,
1000
0100
0000
1000
0100
0000
1000
0000
0001
1000
0000
0001
1000
0000
0001
0000
,
1000
0010
0000
1000
0010
0000
1000
0000
0001
0000
0010
0000
0010
0000
0000
0000
,
0001
0100
0000
0001
0100
0000
0001
0000
1000
0001
0000
1000
0001
0000
1000
0000
,
0001
0010
0000
0001
0010
0000
0001
0000
1000
0000
0010
0000
0010
0000
0000
0000
,
1000
0100
0000
1000
0010
0000
0100
0000
0001
0010
0000
0001
0100
0000
0010
0000
,
0100
1000
0000
0100
0001
0000
1000
0000
0100
0000
0010
0000
0010
0000
0000
0000
,
0001
0100
0010
1000
0000
0000
0001
0000
1000
0100
0010
0001
0000
0000
1000
0010
,
0100
0001
0010
0100
0000
0000
1000
0000
0001
0000
1001
0000
1001
0000
0000
0000
,
0000
0000
0000
0000
;
#NOTES:
     dance-single:
     :
     Challenge:
     16:
     :
0000
0000
0000
0000
,
0000
0000
0000
0000
,
0000
0000
0000
0000
,
0000
0000
0000
0000
,
0000
0000
0000
0000
,
0000
0000
0000
0000
,
0100
0100
0100
0100
0100
0100
0100
0100
0100
0100
0000
0000
,
0001
0100
0000
1000
0100
0000
0001
0000
1000
0100
0000
0001
0100
0000
1000
0000
,
0001
0100
0000
1000
0100
0000
0001
0000
0010
0000
0100
0000
0100
0000
0000
0000
,
1000
0010
0000
0001
0010
0000
1000
0000
0001
0010
0000
1000
0010
0000
0001
0000
,
1000
0010
0000
0001
0010
0000
1000
0000
0100
0000
0010
0000
0010
0000
0000
0000
,
0001
0100
0000
0100
1000
0000
0100
0000
1000
0100
0000
0100
0001
0000
0100
0000
,
0001
0100
0000
0100
1000
0000
0100
0000
0010
0000
0100
0000
0100
0000
0000
0000
,
0001
0010
0000
0010
1000
0000
0010
0000
1000
0010
0000
0010
0001
0000
0010
0000
,
0001
0010
0000
0010
1000
0000
0010
0000
0100
0000
0010
0000
0010
0000
0000
0000
,
0001
0100
0010
0100
1000
0100
0000
0001
0000
1000
0100
0001
0100
0000
1000
0000
,
0010
0001
0010
0000
1000
0010
0001
0010
1000
0010
0001
0010
1000
0000
0001
0000
,
1000
0100
0000
0100
1000
0000
0100
0000
0010
0000
0001
0000
0010
0000
0001
0000
,
1000
0010
0000
0010
1000
0000
0010
0000
0100
0001
0010
0000
0100
0000
1000
0000
,
0010
1000
0001
0000
0100
1000
0100
0001
0000
0010
1000
0010
0001
0000
1000
0000
,
0010
0100
0001
0010
0100
1000
0010
0100
0000
0001
0010
0001
0100
0000
0010
0000
,
1000
0010
0000
0010
1000
0000
0010
0000
0100
0001
1000
0000
0100
0000
1000
0000
,
0001
0100
0000
0100
0001
0000
0100
0000
0110
0000
0000
0000
1001
0000
0000
0000
,
1000
0100
0010
1000
0000
0000
0010
0000
0001
0100
0010
0001
0000
0000
0010
0000
,
1000
0100
0010
1000
0000
0000
0010
0000
0001
0000
0100
0000
1000
0000
0000
0000
,
0100
0001
0010
1000
0000
0000
0001
0000
0100
1000
0010
0001
0000
0000
1000
0000
,
0100
0001
0010
1000
0000
0000
0001
0000
0100
0000
1000
0000
0010
0000
0000
0000
,
0001
0010
1000
0100
0000
0000
0010
0000
1000
0010
0001
0100
0000
0000
0010
0000
,
0001
0010
1000
0100
0000
0000
0010
0000
0100
0000
1000
0000
0010
0000
0000
0000
,
0001
1000
0100
0001
0000
0000
0010
0000
1000
0001
0100
1000
0000
0000
0010
0000
,
0001
1000
0100
0001
0000
0000
0010
0000
0220
0000
0000
0000
0330
0000
0000
0000
,
0001
0000
0010
0000
1000
0000
0001
0100
0000
1000
0010
0100
0001
0000
0010
0000
,
0100
1000
0001
0100
0010
1000
0001
0010
0100
1000
0001
0100
0010
0000
0100
0000
,
0001
0100
0000
0100
0001
0000
0100
0000
0010
0000
1000
0000
0010
0000
1000
0000
,
0001
0010
0000
0010
0001
0000
0010
0000
0100
1000
0010
0000
0100
0000
0001
0000
,
1000
0100
0001
0100
0000
0000
1000
0000
0001
0100
1000
0100
0000
0000
0001
0000
,
0010
0100
1000
0000
0010
0100
0010
0001
0010
0100
0010
1000
0010
0000
0100
0000
,
0001
0010
0000
0010
0001
0000
1000
0000
0100
0000
0010
0000
0001
0000
1000
0000
,
0010
0100
0001
0100
0010
0100
1000
0100
0010
0000
0000
0000
0000
0000
0100
0000
,
0010
0000
0000
1000
0000
0000
0100
0000
0010
0000
0000
0001
0000
0000
0100
0000
,
0010
0000
0000
0001
0000
0000
0001
0000
0010
0000
1000
0000
0002
0000
0000
0000
,
0003
0000
0010
0000
0001
0000
0100
0000
1000
0000
0000
1000
0000
0000
1000
0000
,
0001
0010
1000
0100
0001
0000
0000
0100
,
1000
0000
0000
0010
0000
0000
0100
0000
0001
0000
0000
0010
0000
0000
0100
0000
,
0010
0000
0000
1000
0000
0000
1000
0000
0010
0000
0001
0000
0100
0000
0000
0000
,
0010
1000
0000
1000
0010
0000
1000
0000
0010
0100
0000
0100
0010
0000
0100
0000
,
0010
0001
0000
0001
0010
0000
0001
0000
0010
0000
0100
0000
0010
0000
0100
0000
,
0001
1000
0001
1000
0001
1000
0001
1000
0001
1000
0001
1000
0001
1000
0001
1000
,
0002
0000
2000
3003
,
0010
0010
0010
0010
0010
0010
0010
0010
0010
0010
0000
0000
,
0001
0001
0001
0001
0001
0001
0001
0001
0001
0001
0000
0000
,
0100
0100
0100
0100
0100
0100
0100
0100
0100
0100
0100
0100
,
0100
0100
0100
0100
0100
0100
0100
0000
0000
0000
0000
0000
,
1000
1000
1000
1000
1000
1000
1000
1000
1000
1000
0000
0000
,
0010
0010
0010
0010
0010
0010
0010
0010
0010
0010
0000
0000
,
0100
0100
0100
0100
0100
0100
0100
0100
0100
0100
0100
0100
,
0100
0100
0100
0100
0100
0100
0100
0000
0000
0000
0000
0000
,
0001
0001
0001
0001
0000
0000
0010
0010
0010
0010
0000
0000
,
0100
0100
0100
0100
0100
0100
0100
0000
0000
1001
0000
0000
,
1000
0100
0000
0001
0100
0000
1000
0000
0001
0100
0000
1000
0100
0000
0001
0000
,
1000
0100
0000
0001
0100
0000
1000
0000
0010
0000
0100
0000
0100
0000
0000
0000
,
0001
0010
0000
1000
0010
0000
0001
0000
1000
0010
0000
0001
0010
0000
1000
0000
,
0001
0010
0000
1000
0010
0000
0001
0000
0100
0000
0010
0000
0010
0000
0000
0000
,
1000
0100
0000
0100
0001
0000
0100
0000
0001
0100
0000
0100
1000
0000
0100
0000
,
1000
0100
0000
0100
0001
0000
0100
0000
0010
0000
0100
0000
0100
0000
0000
0000
,
1000
0010
0100
1000
0000
0000
0100
0000
0001
0010
0100
0001
0000
0000
0100
1000
,
0010
0100
0001
0010
0000
0000
0100
0000
1000
0000
1001
0000
1001
0000
0000
0000
,
0000
0000
0000
0000
;
#NOTES:
     dance-double:
     :
     Easy:
     5:
     :
00000000
00000000
00000000
00000000
,
00000000
00000000
00000000
00000000
,
00000000
00000000
00000000
00000000
,
00000000
00000000
00000000
00000000
,
00000000
00000000
00000000
00000000
,
00000000
00000000
00000000
00000000
,
00010000
00001000
00010000
00001000
,
00010000
00100000
10000000
01000000
,
00010000
00001000
00010000
00000000
,
00001000
00000010
00000001
00000100
,
00001000
00010000
00001000
00000000
,
00010000
01000000
10000000
00100000
,
00010000
00001000
00010000
00000000
,
00001000
00000100
00000001
00000010
,
00001000
00010000
00001000
00000000
,
00010000
00000000
00100000
00000000
,
00010000
00000000
00001000
00000000
,
00010000
00100000
00010000
00001000
,
00010000
00100000
00010000
00000000
,
00001000
00000000
00000010
00000000
,
00001000
00000000
00010000
00000000
,
00001000
00000010
00001000
00010000
,
00001000
00000010
00001000
00000000
,
00010000
00000000
00100000
00000000
,
10000000
00000000
10010000
00000000
,
10000000
00000000
00100000
00000000
,
00010000
00000000
00011000
00000000
,
00001000
00000000
00000010
00000000
,
00000001
00000000
00001001
00000000
,
00000001
00000000
00000010
00000000
,
00001000
00000000
00011000
00000000
,
00010000
00000000
01000000
00000000
,
00010000
00000000
00001000
00000000
,
00010000
01000000
00010000
00001000
,
00010000
01000000
00010000
00000000
,
00001000
00000000
00000100
00000000
,
00001000
00000000
00010000
00000000
,
00001000
00000100
00001000
00010000
,
00001000
00000100
00001000
00000000
,
00010000
00100000
10000000
01000000
,
00010000
00001000
00010000
00000000
,
00001000
00000010
00000001
00000100
,
00001000
00010000
00001000
00000000
,
00010000
00100000
01000000
00010000
,
00100000
00001000
00010000
00000000
,
00001000
00000010
00000100
00001000
,
00000010
00010000
00001000
00000000
,
00020000
00000000
00031000
00000000
,
00002000
00000000
00013000
00000000
,
00010000
00010000
00010000
00010000
,
00001000
00001000
00001000
00001000
,
00100000
00100000
00100000
00100000
,
00100000
00100000
00100000
00000000
,
00010000
00010000
00010000
00010000
,
10000000
10000000
10000000
10000000
,
01000000
01000000
01000000
01000000
,
01000000
01000000
01000000
00000000
,
10000000
00000000
00010000
00000000
,
00100000
00001000
00010000
00000000
,
00001000
00010000
00100000
00010000
,
00001000
00010000
00100000
00010000
,
00001000
00010000
01000000
00010000
,
00001000
00010000
01000000
00010000
,
00001000
00000010
00001000
00010000
,
00001000
00000010
00001000
00010000
,
00001000
00000100
00001000
00010000
,
00001000
00000100
00001000
00010000
,
00000000
00000000
00000000
00000000
;
#NOTES:
     dance-double:
     :
     Medium:
     10:
     :
00000000
00000000
00000000
00000000
,
00000000
00000000
00000000
00000000
,
00000000
00000000
00000000
00000000
,
00000000
00000000
00000000
00000000
,
00000000
00000000
00000000
00000000
,
00000000
00000000
00000000
00000000
,
00011000
00011000
00011000
00011000
,
00001000
00010000
01000000
00100000
,
00001000
00000000
00010000
00000000
01000000
00100000
01000000
00000000
,
00010000
00001000
00000100
00000010
,
00010000
00000000
00001000
00000000
00000100
00000010
00000100
00000000
,
00001000
00010000
00100000
01000000
,
00001000
00000000
00010000
00000000
00100000
01000000
00100000
00000000
,
00010000
00001000
00000010
00000100
,
00010000
00000000
00001000
00000000
00000010
00000100
00000010
00000000
,
00000001
00000001
00000001
00000001
,
00001000
00001000
00001000
00001000
,
00000010
00010000
00000010
00000000
00010000
00001000
00010000
00000000
,
00001000
00100000
00001000
00000000
00100000
00010000
00100000
00000000
,
01000000
01000000
01000000
01000000
,
10000000
10000000
10000000
10000000
,
00100000
10000000
00100000
00000000
01000000
00010000
01000000
00000000
,
00001000
00010000
00001000
00000000
00010000
00000100
00010000
00000000
,
00000100
00000000
00000000
00001000
00000000
00000000
00000100
00000000
00000001
00000000
00000000
00000100
00000000
00000000
00000001
00000000
,
00000100
00000000
00000000
00001000
00000000
00000000
00000100
00000000
00000010
00000000
00001000
00000000
00010000
00000000
00000000
00000000
,
01000000
00000000
00000000
10000000
00000000
00000000
01000000
00000000
00010000
00000000
00000000
01000000
00000000
00000000
00010000
00000000
,
01000000
00000000
00000000
10000000
00000000
00000000
01000000
00000000
00100000
00000000
00001000
00000000
00010000
00000000
00000000
00000000
,
00001000
00000000
00000000
00000100
00000000
00000000
00000001
00000000
00000010
00000000
00000000
00001000
00000000
00000000
00010000
00000000
,
01000000
00000000
00000000
10000000
00000000
00000000
00010000
00000000
01000000
00000000
00001000
00000000
00010000
00000000
00000000
00000000
,
00001000
00000000
00000000
00000010
00000000
00000000
00001000
00000000
00010000
00000000
00000000
00100000
00000000
00000000
00010000
00000000
,
00001000
00000000
00000000
00000100
00000000
00000000
00001000
00000000
00020000
00000000
00000000
00000000
00030000
00000000
00000000
00000000
,
01000000
01000000
01000000
01000000
,
00100000
00100000
00100000
00100000
,
00010000
00100000
00010000
00000000
00100000
00001000
00100000
00000000
,
00001000
00010000
00001000
00000000
00010000
00000010
00010000
00000000
,
00000010
00000010
00000010
00000010
,
00000100
00000100
00000100
00000100
,
00000001
00000100
00000001
00000000
00001000
00000100
00001000
00000000
,
00000100
00010000
00000100
00010000
00001000
00000000
00000000
00010000
,
00100000
00000000
00000000
00010000
00000000
00000000
00001000
00000000
00000010
00000000
00000000
00001000
00000000
00000000
00010000
00000000
,
01000000
00000000
00000000
00010000
00000000
00000000
00001000
00000000
00000100
00000000
00000010
00000000
00000200
00000000
00000000
00000000
,
00000300
00000000
00000010
00000000
00000100
00000000
00000001
00000000
00000010
00000000
00000000
00001000
00000000
00000000
00010000
00000000
,
01000000
10000000
00100000
00010000
00001000
00000000
00000000
00010000
,
00100000
00000000
00000000
00010000
00000000
00000000
00001000
00000000
00000010
00000000
00000000
00001000
00000000
00000000
00010000
00000000
,
01000000
00000000
00000000
00010000
00000000
00000000
00001000
00000000
00000100
00000000
00000010
00000000
00000200
00000000
00000000
00000000
,
00000000
00000300
00000000
00000000
00000000
00000000
00000000
00000001
,
00000010
00001000
00010000
00001000
,
00000200
00000000
00000002
00000303
,
00002000
00000000
00000020
00003030
,
00001010
00001010
00001010
00001010
,
00011000
00011000
00011000
00011000
,
01010000
01010000
01010000
01010000
,
01010000
01010000
01010000
00000000
,
01100000
01100000
01100000
01100000
,
00011000
00011000
00011000
00011000
,
00000110
00000110
00000110
00000110
,
00000110
00000110
00000110
00000000
,
00001001
00000000
00010100
00000000
,
01001000
01010000
10010000
00000000
,
10000000
00100000
01000000
00010000
,
00001000
00000000
00000010
00000000
00000100
00000001
00000100
00000000
,
00000001
00000010
00000100
00001000
,
00010000
00000000
00100000
00000000
01000000
10000000
01000000
00000000
,
00100000
00010000
00001000
00010000
,
00100000
00000000
00001000
00000000
00010000
00001000
00010000
00000000
,
00000010
00001000
00010000
00001000
,
00000010
00000000
00010000
00000000
00001000
00010000
00001000
00000000
,
00000000
00000000
00000000
00000000
;
#NOTES:
     dance-double:
     :
     Hard:
     14:
     :
00000000
00000000
00000000
00000000
,
00000000
00000000
00000000
00000000
,
00000000
00000000
00000000
00000000
,
00000000
00000000
00000000
00000000
,
00000000
00000000
00000000
00000000
,
00000000
00000000
00000000
00000000
,
00001000
00010000
00001000
00010000
00001000
00010000
00001000
00010000
00001000
00010000
00000000
00000000
,
00001000
00010000
00000000
00000010
00001000
00000000
00000001
00000000
00001000
00000100
00000000
00010000
00001000
00000000
01000000
00000000
,
00001000
00010000
00000000
00000100
00001000
00000000
00000001
00000000
00000010
00000000
00001000
00000000
00010000
00000000
00000000
00000000
,
00010000
00001000
00000000
00100000
00010000
00000000
10000000
00000000
00010000
01000000
00000000
00001000
00010000
00000000
00000100
00000000
,
00010000
00001000
00000000
01000000
00010000
00000000
10000000
00000000
00100000
00000000
00010000
00000000
00001000
00000000
00000000
00000000
,
00010000
00000100
00000000
00001000
00000001
00000000
00000100
00000000
00000001
00001000
00000000
00000010
00010000
00000000
00001000
00000000
,
00100000
00010000
00000000
10000000
01000000
00000000
10000000
00000000
00100000
00000000
00010000
00000000
00001000
00000000
00000000
00000000
,
00001000
01000000
00000000
00010000
10000000
00000000
01000000
00000000
10000000
00010000
00000000
00100000
00001000
00000000
00010000
00000000
,
00000010
00001000
00000000
00000001
00000100
00000000
00000001
00000000
00000010
00000000
00001000
00000000
00010000
00000000
00000000
00000000
,
00001000
00010000
00001000
00000000
00100000
00010000
00000000
10000000
00000000
01000000
00100000
00010000
10000000
00000000
00010000
00000000
,
10000000
00100000
10000000
00000000
00010000
01000000
00010000
01000000
00001000
00010000
00001000
00010000
00000010
00000000
00002000
00000000
,
00000000
00003000
00000000
00000000
,
00000000
00000000
00000000
00000000
,
00000001
00001000
00000100
00000000
00001000
00000001
00000100
00000001
00000000
00001000
00000010
00010000
00001000
00000000
01000000
00000000
,
00100000
10000000
00100000
10000000
00010000
01000000
00010000
01000000
00000000
00001000
00010000
00001000
00010000
00000000
00000020
00000000
,
00000000
00000000
00000030
00000000
,
00000000
00000000
00000110
00001001
,
00000001
00000010
00000001
00001000
00000000
00000000
00000100
00000000
00001000
00000100
00010000
00000100
00000000
00000000
00010000
00000000
,
00001000
00010000
00001000
01000000
00000000
00000000
00010000
00000000
01000000
00000000
00100000
00000000
00100000
00000000
00000000
00000000
,
10000000
00100000
10000000
00010000
00000000
00000000
01000000
00000000
00010000
01000000
00001000
01000000
00000000
00000000
00001000
00000000
,
00010000
00001000
00010000
00000100
00000000
00000000
00001000
00000000
00000100
00000000
00001000
00000000
00001000
00000000
00000000
00000000
,
00000100
00001000
00000001
00000010
00000000
00000000
00001000
00000000
00010000
00001000
00010000
00000100
00000000
00000000
00000010
00000000
,
00001000
00010000
00001000
00100000
00000000
00000000
01000000
00000000
10000000
00000000
00010000
00000000
00010000
00000000
00000000
00000000
,
01000000
00010000
10000000
00100000
00000000
00000000
00010000
00000000
00001000
00010000
00001000
00100000
00000000
00000000
01000000
00000000
,
00010000
00001000
00010000
00000010
00000000
00000000
00000100
00000000
00000002
00000000
00000000
00000000
00000003
00000000
00000000
00000000
,
00000010
00000000
00001000
00000000
00010000
00000000
00001000
00000010
00000000
00001000
00010000
00001000
00000010
00000000
00001000
00000000
,
00010000
00001000
00010000
00001000
00010000
01000000
00000000
00010000
00000000
01000000
10000000
01000000
10000000
00000000
00020000
00000000
,
00000000
00030000
00000000
00000000
,
00000000
00000000
00000000
00000000
00000000
20000000
00000000
30010000
,
00100000
00001000
00100000
00001000
00000000
00000000
00010000
00000000
00000010
00001000
00000010
00001000
00000000
00000000
00000001
00000000
,
00001000
00000100
00001000
00000000
00000001
00000100
00000001
00001000
00000010
00010000
00000100
00001000
00000001
00000000
00000020
00000000
,
00000000
00000000
00000030
00000000
,
00000022
00000000
00000000
00000000
00000033
00000000
00000000
00000001
,
00000010
00000000
00000000
00001000
00000000
00000000
00010000
00000000
00100000
00000000
00000000
10000000
00000000
00000000
00010000
00000000
,
00100000
00000000
00000000
01000000
00000000
00000000
00010000
00000000
00001000
00000000
00000100
00000000
00000002
00000000
00000000
00000000
,
00000003
00000000
00000010
00000000
00001000
00000000
00010000
00000000
00001000
00000000
00000000
00000100
00000000
00000000
00000001
00000000
,
00000100
00001000
00010000
00100000
10000000
00000000
00000000
00010000
,
00100000
00000000
00000000
10000000
00000000
00000000
00100000
00000000
00010000
00000000
00000000
00001000
00000000
00000000
00000100
00000000
,
00000010
00000000
00000000
00000001
00000000
00000000
00000100
00000000
00001000
00000000
00010000
00000000
00002000
00000000
00000000
00000000
,
00000000
00003000
00000000
00000000
00000000
00000000
00000000
01000000
,
00100000
00010000
00001000
00000010
,
00000002
00000000
00000000
00001003
00000200
00000000
00000300
00000000
,
00000020
00000000
00000002
00000033
,
00000010
00000001
00000010
00000001
00000010
00000001
00000010
00000001
00000010
00000001
00000000
00000000
,
00001000
00000100
00001000
00000100
00001000
00000100
00001000
00000100
00001000
00000100
00000000
00000000
,
00010000
00001000
00010000
00001000
00010000
00001000
00010000
00001000
00010000
00001000
00010000
00001000
,
00010000
00001000
00010000
00001000
00010000
00001000
00010000
00000000
00000000
00000000
00000000
00000000
,
00001000
00100000
00001000
00100000
00001000
00100000
00001000
00100000
00001000
00100000
00000000
00000000
,
00010000
10000000
00010000
10000000
00010000
10000000
00010000
10000000
00010000
10000000
00000000
00000000
,
01000000
00100000
01000000
00100000
01000000
00100000
01000000
00100000
01000000
00100000
01000000
00100000
,
01000000
00100000
01000000
00100000
01000000
00100000
01000000
00000000
00000000
00000000
00000000
00000000
,
00100000
00001000
00100000
00001000
00000000
00000000
00010000
00000010
00010000
00000010
00000000
00000000
,
00010000
00001000
00010000
00001000
00010000
00001000
00010000
00000000
00000000
00011000
00000000
00000000
,
00001000
00010000
00000000
00001000
00000100
00000000
00001000
00000000
00010000
00001000
00000000
00010000
01000000
00000000
00010000
00000000
,
00001000
00010000
00000000
00001000
00000100
00000000
00001000
00000000
00010000
00000000
00001000
00000000
00001000
00000000
00000000
00000000
,
00010000
00001000
00000000
00010000
00100000
00000000
00010000
00000000
00001000
00010000
00000000
00001000
00000010
00000000
00001000
00000000
,
00010000
00001000
00000000
00010000
00100000
00000000
00010000
00000000
00001000
00000000
00010000
00000000
00010000
00000000
00000000
00000000
,
00001000
00010000
00000000
01000000
10000000
00000000
00010000
00000000
10000000
01000000
00000000
00010000
00001000
00000000
00010000
00000000
,
00001000
00000100
00000000
00000001
00001000
00000000
00000001
00000000
00000010
00000000
00001000
00000000
00010000
00000000
00000000
00000000
,
00001000
00010000
00000010
00001000
00000000
00000000
00000001
00000000
00001000
00000100
00010000
00001000
00000000
00000000
00100000
00010000
,
10000000
01000000
00100000
00001000
00000000
00000000
00010000
00000000
00001000
00000000
00011000
00000000
00011000
00000000
00000000
00000000
,
00000000
00000000
00000000
00000000
;
#NOTES:
     dance-double:
     :
     Challenge:
     16:
     :
00000000
00000000
00000000
00000000
,
00000000
00000000
00000000
00000000
,
00000000
00000000
00000000
00000000
,
00000000
00000000
00000000
00000000
,
00000000
00000000
00000000
00000000
,
00000000
00000000
00000000
00000000
,
00000100
00000100
00000100
00000100
00000100
00000100
00000100
00000100
00000100
00000100
00000000
00000000
,
00000001
00000010
00000000
00001000
00000010
00000000
00000001
00000000
00000100
00001000
00000000
00010000
00001000
00000000
00000100
00000000
,
00000001
00000010
00000000
00001000
00010000
00000000
01000000
00000000
10000000
00000000
00100000
00000000
00100000
00000000
00000000
00000000
,
10000000
00100000
00000000
00010000
00100000
00000000
10000000
00000000
01000000
00010000
00000000
00001000
00010000
00000000
01000000
00000000
,
10000000
00100000
00000000
00010000
00001000
00000000
00000100
00000000
00000001
00000000
00000010
00000000
00000010
00000000
00000000
00000000
,
00000001
00000100
00000000
00001000
00010000
00000000
00001000
00000000
00000100
00000001
00000000
00000100
00001000
00000000
00010000
00000000
,
00100000
10000000
00000000
00100000
00010000
00000000
00100000
00000000
10000000
00000000
01000000
00000000
01000000
00000000
00000000
00000000
,
10000000
01000000
00000000
00010000
00001000
00000000
00010000
00000000
01000000
10000000
00000000
01000000
00010000
00000000
00001000
00000000
,
00000010
00000001
00000000
00000010
00001000
00000000
00000010
00000000
00000001
00000000
00000100
00000000
00000100
00000000
00000000
00000000
,
00000001
00000100
00000010
00001000
00000100
00010000
00000000
00001000
00000000
00010000
00001000
00010000
01000000
00000000
10000000
00000000
,
00010000
01000000
00010000
00000000
01000000
00010000
00100000
00001000
00010000
00000100
00001000
00000010
00000100
00000000
00000001
00000000
,
00001000
00000100
00000000
00000100
00001000
00000000
00000100
00000000
00010000
00000000
00001000
00000000
00010000
00000000
00001000
00000000
,
00100000
00010000
00000000
00010000
00100000
00000000
00010000
00000000
10000000
01000000
00100000
00000000
00010000
00000000
10000000
00000000
,
00100000
01000000
00100000
00000000
10000000
00010000
10000000
00010000
00000000
00100000
01000000
00100000
01000000
00000000
10000000
00000000
,
00100000
01000000
00100000
01000000
00001000
00010000
00001000
00010000
00000000
01000000
00100000
01000000
00100000
00000000
00010000
00000000
,
10000000
00100000
00000000
00100000
10000000
00000000
00100000
00000000
01000000
00010000
00100000
00000000
00001000
00000000
00010000
00000000
,
00000100
00001000
00000000
00001000
00000100
00000000
00000010
00000000
00000110
00000000
00000000
00000000
00001001
00000000
00000000
00000000
,
00000001
00000100
00001000
00010000
00000000
00000000
00001000
00000000
00010000
00001000
00000010
00000001
00000000
00000000
00001000
00000000
,
00000001
00000100
00001000
00010000
00000000
00000000
00001000
00000000
00010000
00000000
00100000
00000000
10000000
00000000
00000000
00000000
,
10000000
01000000
00010000
00001000
00000000
00000000
00010000
00000000
00001000
00010000
00100000
10000000
00000000
00000000
00010000
00000000
,
10000000
01000000
00010000
00001000
00000000
00000000
00010000
00000000
00001000
00000000
00000010
00000000
00000001
00000000
00000000
00000000
,
00000001
00000010
00001000
00010000
00000000
00000000
01000000
00000000
10000000
00100000
00010000
00001000
00000000
00000000
00000100
00000000
,
00000001
00000010
00001000
00010000
00000000
00000000
01000000
00000000
10000000
00000000
00100000
00000000
00100000
00000000
00000000
00000000
,
10000000
01000000
00010000
00001000
00000000
00000000
00000010
00000000
00000001
00000100
00001000
00010000
00000000
00000000
00100000
00000000
,
10000000
01000000
00010000
00001000
00000000
00000000
00010000
00000000
00022000
00000000
00000000
00000000
00033000
00000000
00000000
00000000
,
00010000
00000000
00001000
00000000
00000100
00000000
00001000
00010000
00000000
00001000
00010000
00001000
00000100
00000000
00000001
00000000
,
00000100
00001000
00000100
00000000
00001000
00010000
00001000
00000000
00010000
01000000
00010000
01000000
10000000
00000000
00010000
00000000
,
10000000
01000000
00000000
01000000
10000000
00000000
01000000
00000000
00100000
00000000
00001000
00000000
00010000
00000000
00000100
00000000
,
00001000
00000010
00000000
00000010
00001000
00000000
00000001
00000000
00001000
00000100
00000010
00000000
00001000
00000000
00010000
00000000
,
00001000
00010000
00001000
00000100
00000000
00000000
00001000
00000000
00010000
00001000
00010000
01000000
00000000
00000000
00010000
00000000
,
00001000
00000100
00001000
00000000
00010000
00001000
00010000
00000000
00001000
00010000
01000000
00010000
00001000
00000000
00010000
00000000
,
01000000
00100000
00000000
00100000
01000000
00000000
00100000
00000000
00001000
00000000
00010000
00000000
00000010
00000000
00000100
00000000
,
00000002
00000000
00000000
00000000
00001003
00000000
00000000
00000001
,
00000010
00000000
00000000
00001000
00000000
00000000
00010000
00000000
00100000
00000000
00000000
10000000
00000000
00000000
01000000
00000000
,
00010000
00000000
00000000
00001000
00000000
00000000
00010000
00000000
00001000
00000000
00000100
00000000
00000002
00000000
00000000
00000000
,
00000003
00000000
00000010
00000000
00001000
00000000
00010000
00000000
01000000
00000000
00000000
00100000
00000000
00000000
00010000
00000000
,
01000000
00100000
00001000
00010000
00000100
00000000
00000000
00000001
,
00000010
00000000
00000000
00001000
00000000
00000000
00010000
00000000
00100000
00000000
00000000
10000000
00000000
00000000
01000000
00000000
,
00010000
00000000
00000000
00001000
00000000
00000000
00010000
00000000
00001000
00000000
00000100
00000000
00000001
00000000
00000000
00000000
,
00000010
00000100
00000000
00000100
00000010
00000000
00001000
00000000
00010000
00001000
00000000
00001000
00010000
00000000
01000000
00000000
,
00100000
01000000
00000000
01000000
00100000
00000000
00010000
00000000
01000000
00000000
00001000
00000000
00010000
00000000
00001000
00000000
,
00010000
00001000
00010000
00001000
00010000
00001000
00010000
00001000
00010000
00001000
00010000
00001000
00010000
00001000
00010000
00001000
,
00020000
00000000
00002000
00033000
,
00010000
00010000
00010000
00010000
00010000
00010000
00010000
00010000
00010000
00010000
00000000
00000000
,
00100000
00100000
00100000
00100000
00100000
00100000
00100000
00100000
00100000
00100000
00000000
00000000
,
01000000
01000000
01000000
01000000
01000000
01000000
01000000
01000000
01000000
01000000
01000000
01000000
,
01000000
01000000
01000000
01000000
01000000
01000000
01000000
00000000
00000000
00000000
00000000
00000000
,
00010000
00010000
00010000
00010000
00010000
00010000
00010000
00010000
00010000
00010000
00000000
00000000
,
00001000
00001000
00001000
00001000
00001000
00001000
00001000
00001000
00001000
00001000
00000000
00000000
,
00000100
00000100
00000100
00000100
00000100
00000100
00000100
00000100
00000100
00000100
00000100
00000100
,
00000100
00000100
00000100
00000100
00000100
00000100
00000100
00000000
00000000
00000000
00000000
00000000
,
00001000
00001000
00001000
00001000
00000000
00000000
00000010
00000010
00000010
00000010
00000000
00000000
,
00000100
00000100
00000100
00000100
00000100
00000100
00000100
00000000
00000000
00001001
00000000
00000000
,
00000001
00000010
00000000
00001000
00000010
00000000
00000001
00000000
00000100
00001000
00000000
00010000
00001000
00000000
00000100
00000000
,
00000001
00000010
00000000
00001000
00010000
00000000
01000000
00000000
10000000
00000000
00100000
00000000
00100000
00000000
00000000
00000000
,
10000000
00100000
00000000
00010000
00100000
00000000
10000000
00000000
01000000
00010000
00000000
00001000
00010000
00000000
01000000
00000000
,
10000000
00100000
00000000
00010000
00001000
00000000
00000100
00000000
00000001
00000000
00000010
00000000
00000010
00000000
00000000
00000000
,
00000001
00000100
00000000
00001000
00010000
00000000
00001000
00000000
00000100
00000001
00000000
00000100
00001000
00000000
00010000
00000000
,
00001000
00000010
00000000
00001000
00010000
00000000
00100000
00000000
10000000
00000000
01000000
00000000
01000000
00000000
00000000
00000000
,
10000000
00100000
00010000
00001000
00000000
00000000
00010000
00000000
01000000
10000000
00100000
00010000
00000000
00000000
00001000
00010000
,
01000000
10000000
00100000
00010000
00001000
00000000
00010000
00000000
01000000
00000000
10000000
00000000
10010000
00000000
00000000
00000000
,
00000000
00000000
00000000
00000000
;
