
//----- song ID: diav -----//
#TITLE:DIAVOLO;
#ARTIST:度胸兄弟;
#ARTISTTRANSLIT:Dokyou kyoudai;
#BANNER:DIAVOLO.png;
#BACKGROUND:DIAVOLO-bg.png;
#CDTITLE:./CDTitles/bm IIDX 19 Lincle.png;
#MUSIC:DIAVOLO.ogg;
#SAMPLESTART:67.51;
#SAMPLELENGTH:15;
#BPMS:0=160;
#NOTES:
     dance-single:
     :
     Beginner:
     3:
     :
0000
0000
0000
0000
,
0000
0000
0000
0000
,
0000
0000
0000
0000
,
0000
0000
0000
0000
,
0000
0000
0000
0000
,
0001
0000
0100
0000
,
0001
0000
1000
0000
,
0010
0000
0100
0000
,
0010
0010
0010
0000
,
1000
0000
0010
0000
,
1000
0000
0010
0000
,
0100
0000
0001
0000
,
0100
0000
0001
0000
,
1000
0000
0010
0000
,
1000
0000
0001
0000
,
0100
0000
0010
0000
,
0100
0100
0100
0000
,
0001
0000
1000
0000
,
0001
0000
1000
0000
,
0100
0000
0010
0000
,
0001
0001
0001
0000
,
2000
0000
3000
0000
,
0002
0000
0003
0000
,
2000
0000
3000
0000
,
0002
0000
0003
0000
,
0100
0000
0010
0000
,
1000
0000
0001
0000
,
1000
0000
0001
0000
,
0100
0100
0100
0000
,
0010
0000
1000
0000
,
0010
0000
0100
0000
,
0001
0000
1000
0000
,
0001
0000
0010
0000
,
0100
0000
1000
0000
,
0001
0000
1000
0000
,
0010
0000
0100
0000
,
0001
1000
0001
0000
,
1000
0000
0100
0000
,
0010
0000
0001
0000
,
1000
0000
0001
0000
,
2000
0000
0000
3000
,
0010
0000
1000
0000
,
0001
0000
1000
0000
,
0010
0000
0100
0000
,
0020
0000
0000
0030
,
1000
1000
1000
0000
,
0001
0001
0001
0000
,
0100
0000
0010
0000
,
1000
0000
0001
0000
,
0010
0010
0010
0000
,
0100
0100
0100
0000
,
1000
0000
0001
0000
,
0100
0000
0010
0000
,
1000
0000
0001
0000
,
0010
0000
0100
0000
,
1000
0000
0001
0000
,
1000
0000
0010
0000
,
0100
0000
0001
0000
,
1000
0000
0100
0000
,
0010
0000
0001
0000
,
1000
0000
0001
0000
,
0001
0000
1000
0000
,
1000
0000
0010
0000
,
0100
0000
0110
0000
,
0000
0000
0001
0000
,
1000
0000
0001
0000
,
1000
0000
0100
0000
,
0010
0000
0100
0000
,
0010
0000
0001
0000
,
1000
0000
0001
0000
,
0200
0000
0000
0000
,
0300
0000
0001
0001
,
0000
0000
0000
0000
;
#NOTES:
     dance-single:
     :
     Easy:
     8:
     :
0000
0000
0000
0000
,
0000
0000
0000
0000
,
0000
0000
0000
0000
,
0000
0000
0000
0000
,
0000
0000
0000
0000
,
1000
0000
0001
0100
,
0110
0000
0001
0010
,
0002
0103
0020
1030
,
0001
0000
1000
0000
0100
0010
0100
0000
,
1000
0100
1000
0001
,
0100
0010
0100
0001
,
1000
0010
0100
0010
,
1000
0001
0010
0100
,
1000
0001
0010
0001
,
1000
0100
0010
0100
,
2000
3010
0002
0013
,
1000
0000
0100
0000
0010
0100
0010
0000
,
0001
0100
0001
0100
,
0010
1000
0010
1000
,
0001
1000
0001
1000
,
0100
0000
0010
0000
0100
0010
0100
0000
,
2000
0000
0000
3000
0001
0010
0001
0000
,
2000
0000
0000
3000
0010
0100
0010
0100
,
0002
0000
0000
0003
1000
0100
1000
0000
,
0002
0000
0000
0003
0100
0010
0100
0010
,
2000
0000
0000
3100
0010
0000
0100
0000
,
0020
0000
0000
0031
0100
0000
0001
0000
,
2000
0000
0000
3100
0020
0000
0000
0031
,
1000
0001
1001
0000
,
0001
0010
0100
1000
,
0001
0100
0002
0003
,
0100
0010
1000
0001
,
0010
0100
0010
0000
,
0001
1000
0100
1000
,
0001
0100
0010
0100
,
0001
1000
0100
0010
,
0001
1000
0010
0000
,
1000
0010
1000
0000
0010
0100
0010
0000
,
0100
0001
0100
0000
0002
0000
0023
0000
,
0230
1300
0001
0100
,
0010
0000
0100
0000
0001
0010
0001
0000
,
1000
0100
1000
0000
0010
0000
0100
0000
,
0001
0010
0001
0000
0100
0000
0010
0000
,
1000
0100
0000
0010
0001
0000
1000
0000
,
0001
0100
0000
0010
1000
0000
0001
0000
,
1000
0001
0010
0100
,
1000
0001
0100
0010
,
1000
0100
0010
0001
,
1000
0001
1001
0110
,
0001
1000
0100
0010
,
0001
1000
0010
0100
,
0001
0010
0100
1000
,
0001
1000
0001
0100
,
0001
0100
0010
1000
,
0100
1000
0001
0100
,
0010
1000
0001
0010
,
0100
0000
1000
0000
0010
0100
0010
0000
,
1000
0000
0001
0000
0010
0001
0010
0000
,
0100
0000
1000
0000
0010
1000
0010
0000
,
0100
0000
0001
0000
0010
0100
0010
0000
,
0001
1000
0001
0101
,
0110
0001
1000
1010
,
0110
1000
0100
0010
,
0100
0010
0110
0011
,
0101
0000
1100
0000
0001
0100
0001
0000
,
1000
0100
1000
0000
0100
0010
0100
0000
,
0110
0000
1001
0000
1000
0100
1000
0000
,
0001
0100
0001
0000
0100
0010
0100
0000
,
0110
0000
1001
0000
1000
0100
0001
0000
,
0001
0100
1000
0000
1000
0100
0001
0000
,
0100
0010
0100
0010
,
0001
1000
0010
0110
,
0000
0000
0000
0000
;
#NOTES:
     dance-single:
     :
     Medium:
     13:
     :
0000
0000
0000
0000
,
0000
0000
0000
0000
,
0000
0000
0000
0000
,
0000
0000
0000
0000
,
0000
0000
0000
0000
,
0001
0000
1000
0010
2000
0000
3001
0010
,
0002
0000
0103
0010
0200
0000
0301
0010
,
0002
0000
0000
0013
1000
0000
0010
0000
0002
0000
0000
0103
1000
0000
0100
0000
,
0001
0010
0100
1000
0010
0100
0010
0000
,
1000
0100
1000
0100
0010
0001
0010
0000
,
0001
0100
0001
0100
0010
1000
0010
0000
,
1000
0100
0010
0100
1000
0001
0100
0000
,
0001
0010
0100
0010
0001
0100
0010
0000
,
1000
0000
0001
0100
0002
0000
1003
0100
,
2000
0000
3010
0100
0020
0000
1030
0100
,
2000
0000
0000
3100
0001
0000
0100
0000
2000
0000
0000
3010
0001
0000
0010
0000
,
1000
0100
0010
0001
0100
0010
0100
0000
,
0001
0100
0001
0100
0010
0100
0010
0100
,
0001
1000
0001
1000
0100
0010
0001
1000
,
0100
0010
0100
0010
0001
0010
0001
0010
,
0001
1000
0010
0100
0001
1000
0100
0010
,
0002
0000
0000
0103
0010
0100
0010
0000
,
2000
0000
0000
3100
0010
0100
0010
0001
,
2000
0000
0000
3010
0100
0010
0100
0000
,
0002
0000
0000
0103
0010
1000
0001
0100
,
0002
0000
0000
1003
0100
0010
0001
1000
,
0200
0000
0000
0310
0001
1000
0010
0100
,
0002
0000
0000
0013
2000
0000
0000
3010
,
0001
0100
0010
1000
1001
0000
0000
0000
,
1000
0000
1000
0100
0000
0100
0010
0000
0010
0001
0000
0001
,
0100
0000
0100
0010
0000
0010
0200
0000
0000
0300
0000
0000
,
0001
0000
0001
0100
0000
0100
1000
0000
1000
0100
0000
0100
,
0010
0000
0010
1000
0000
1000
0001
0000
1000
0000
0001
0000
,
0100
0000
0100
0010
0000
0010
1000
0000
1000
0100
0010
0100
,
0010
0000
0010
0001
0000
0001
1000
0000
1000
0010
0100
0010
,
0100
0000
0001
0010
0000
1000
0010
0000
0100
1000
0000
0100
,
0001
0000
0100
0010
0000
0001
1000
0000
0000
0000
0000
0000
,
0010
0100
0001
0100
0010
1000
0001
1000
,
0100
0010
0100
1000
0002
0000
0203
0000
,
0302
0000
1003
0010
2000
0000
3010
0100
,
0020
0000
1030
0100
1000
0001
0010
0100
,
1000
0010
1000
0010
0100
0010
0100
0001
,
0010
0001
0010
0001
0100
0001
0010
0100
,
0010
0200
0000
1300
0001
0100
0010
0100
,
0010
2000
0000
3001
0100
0010
1000
0100
,
2000
0000
3001
0100
0001
0100
0010
1000
,
0002
0000
1003
0100
1000
0100
0010
0001
,
2000
0000
3100
0010
0100
1000
0001
1000
,
0010
0100
0001
1000
0100
0010
0100
0010
,
0002
0000
1003
0010
1000
0010
0100
0001
,
2000
0000
3001
0010
0001
0010
0100
1000
,
0002
0000
0013
0100
0010
0001
1000
0001
,
0100
0010
1000
0001
1000
1000
0001
0001
,
1000
1000
0001
0001
0100
0100
0010
0010
,
0100
0100
0010
0010
1000
0010
0100
0001
,
1000
0010
0100
0001
1000
0100
0010
0001
,
1000
0100
0010
0001
1000
0001
0010
0100
,
1000
0000
0000
0010
0000
1000
0000
0001
1000
0000
0100
0000
0010
0000
0001
0000
,
1000
0010
0100
0001
1000
0001
0100
0010
,
1000
0000
0000
0100
0000
1000
0000
0001
1000
0000
0010
0000
0100
0000
0001
0000
,
1000
0100
0010
0001
1000
0001
0100
0010
,
0100
0001
0010
0100
1000
0100
0010
0100
,
1000
0001
0010
0100
1000
0010
1000
0010
,
0100
0001
0100
0001
0010
0100
0010
0100
,
1000
0000
0010
0000
1000
0000
0000
0000
0001
0100
0001
0000
0100
0000
0010
0000
,
1000
0010
1000
0000
0010
0000
0100
0000
0001
0010
0001
0000
0010
0000
0100
0000
,
0110
0000
0000
0000
1001
0000
0000
0000
1000
0001
1000
0000
0010
0000
0100
0000
,
0010
0100
0010
0000
1000
0000
0001
0000
0010
0100
0010
0000
0001
0000
1000
0000
,
1001
0000
0000
0000
0110
0000
0000
0000
0001
0010
0001
0000
0010
0100
0010
0000
,
0001
0010
0001
0000
0010
0100
0010
0000
0001
0010
0001
0000
0010
0100
0010
0000
,
0001
0010
0001
0010
0100
1000
0100
1000
,
0001
0010
0100
1000
0001
0000
1001
0000
,
0000
0000
0000
0000
;
#NOTES:
     dance-single:
     :
     Hard:
     16:
     :
0000
0000
0000
0000
,
0000
0000
0000
0000
,
0000
0000
0000
0000
,
0000
0000
0000
0000
,
0000
0000
0000
0000
,
1001
0000
0000
0000
1000
0010
1000
0000
0002
0000
0000
0103
0010
0100
0010
0000
,
0110
0000
0000
0000
0001
0100
0001
0000
2000
0000
0000
3100
0010
0100
0010
0000
,
0002
0000
0000
1003
0010
1000
0010
0000
0200
0000
0000
0310
1000
0010
1000
0000
,
0001
0000
0010
0000
0100
0000
1000
0000
0010
0000
0100
0010
0100
0000
0001
0100
,
0001
1000
0010
1000
0001
0010
0001
0010
,
0100
1000
0001
1000
0010
0100
0110
0000
,
1000
0001
0100
0001
1000
0100
1000
0100
,
0010
0001
1000
0001
0100
0010
0110
0000
,
0002
0000
0000
0000
1003
0100
0010
0000
0200
0000
0000
1300
0001
0010
0100
0000
,
2000
0000
0000
0000
3001
0100
0010
0000
0200
0000
0000
0301
1000
0100
0010
0000
,
0002
0000
0000
0013
0100
0010
0001
0000
2000
0000
0000
3100
0010
0100
1000
0000
,
1001
0100
0010
0100
0110
0001
1001
0000
,
1000
0100
1000
0000
0001
0100
0001
0000
1000
0010
1000
0000
0001
0010
0001
0000
,
1000
0100
1000
0000
0001
0010
0001
0000
1000
0100
1000
0000
0001
0010
0001
0000
,
0100
0010
0100
0000
0001
0100
0001
0000
1000
0100
1000
0000
0100
0010
0100
0000
,
1000
0010
0100
0000
0001
0010
0100
0000
1000
0010
1000
0010
0100
0001
0100
0001
,
2000
0000
0000
3001
0010
0100
1000
0000
,
0002
0000
0000
1003
0010
0100
0001
0010
,
0120
0000
0000
0031
1000
0100
0010
0000
,
0210
0000
0000
1300
0001
0010
0001
0100
,
0020
0000
0000
0000
0000
0000
1030
0000
0001
0100
0001
1000
0010
1000
0100
0000
,
0020
0000
0000
0000
0000
0000
0031
0000
1000
0100
1000
0001
0010
0001
0100
0000
,
0020
0100
0130
0001
0020
0100
0130
1000
,
0001
0000
0000
0100
0000
0000
0010
0000
0000
1000
0000
0000
1001
0000
0000
0000
0001
0000
0010
0000
0001
0000
0010
0000
,
0001
1000
0100
1000
0000
0001
0100
0010
0100
0010
0000
1000
,
0100
0010
0100
1000
0000
0001
2000
0000
0000
3000
0000
0000
,
0001
0100
0010
0100
0000
0001
1000
0100
1000
0100
0000
0010
,
0100
1000
0100
0010
0001
1000
0010
0000
0100
0000
0110
0000
,
1000
0100
1000
0001
0010
0100
1000
0010
0001
0010
1000
0100
,
0010
0100
0010
0001
0100
0010
1000
0100
0001
0100
1000
0001
,
0100
0010
0100
0001
0010
0001
0100
0010
0100
0001
0010
0100
,
1000
0010
0001
1000
0100
0001
1000
0000
0000
0000
0000
0000
,
0001
0000
0010
0100
0010
0000
0100
1000
0100
0000
1000
0001
1000
0000
0010
0100
,
0010
0000
0100
0001
0100
0000
0001
0010
0001
0000
1000
0100
1000
0000
0010
0100
,
0010
0000
0000
0000
1000
0100
0010
0000
0200
0000
0000
0000
1300
0010
0100
0010
,
2000
0000
0000
0000
3001
0010
0100
0000
0010
0001
0010
0001
0010
0000
0100
0000
,
1000
0010
1000
0000
0010
0000
0100
0000
0001
0100
0001
0100
0010
1000
0010
0000
,
1000
0100
1000
0000
0100
0000
0010
0000
0001
0010
0001
0010
0100
1000
0100
0000
,
1000
0010
2000
0000
0000
0000
3001
0100
0010
1000
0001
0000
1000
0100
1000
0000
,
0001
0010
0200
0000
0000
0000
1300
0000
0001
0100
0010
0100
0001
0100
0010
0000
,
2000
0000
0000
0000
3100
0010
0100
0010
0100
1000
0100
1000
0001
0010
0001
0000
,
0200
0000
0000
0000
0310
1000
0010
1000
0001
0010
0001
0010
0100
0010
0100
0000
,
2000
0000
0000
0000
3010
0100
0010
0100
0001
1000
0001
1000
0100
0010
0100
0000
,
0010
0001
0010
0000
0100
1000
0100
0000
1001
0000
0001
0000
1010
0000
1000
0000
,
0002
0000
0000
0000
0103
0010
0100
0010
0100
0001
0100
0001
1000
0010
1000
0000
,
0200
0000
0000
0000
0310
0001
0010
0001
1000
0010
1000
0010
0100
0010
0100
0000
,
0002
0000
0000
0000
0013
0100
0010
0100
1000
0001
1000
0001
0100
0010
0100
0000
,
0010
1000
0010
0000
0100
0001
0100
0000
0001
0000
0001
0000
0010
0000
0010
0000
,
0100
0100
1000
1000
0010
0010
0100
0100
,
0001
0001
1000
1000
0001
0010
0100
1000
,
0001
0010
0100
1000
0010
0100
0001
0010
,
0001
0000
1000
0000
0010
0000
1000
0000
0001
0100
0001
0100
0010
0100
0010
0000
,
1000
0100
0000
0010
0000
0100
0000
1000
0001
0010
0001
0010
0100
0010
0100
0000
,
1000
0000
0010
0000
0100
0000
0001
0000
1000
0100
1000
0100
0010
0100
0010
0000
,
0001
0100
0000
0010
0000
0100
0000
0001
1000
0010
1000
0010
0100
0010
0100
0000
,
0001
0010
0100
1000
1001
0001
0100
0010
,
0110
0100
0001
1000
1001
1000
0010
0100
,
0110
0010
1000
0001
0101
0010
0100
0010
,
1100
0010
0100
0010
1001
0100
0010
0100
,
0110
0000
0010
0000
0110
0000
0100
0000
0001
0010
0001
0010
0100
0000
0010
0000
,
0001
0100
0001
0100
0010
0000
0100
0000
0010
1000
0010
1000
0001
0000
0010
0000
,
0011
0000
0000
0000
1010
0000
0000
0000
1000
0100
1000
0100
0010
0000
0100
0000
,
1000
0010
1000
0010
0100
0000
0010
0000
0100
0001
0100
0001
1000
0000
0100
0000
,
1100
0000
0000
0000
0101
0000
0000
0000
0001
0010
0100
1000
0100
0010
0001
0000
,
1000
0100
0010
0001
0010
0100
1000
0000
0001
0010
0100
1000
0100
0010
0001
0000
,
1000
0010
1000
0010
0100
0001
0100
0001
,
1000
0000
0100
0010
0001
0000
1000
0001
0100
0000
0000
0000
0110
0000
0000
0000
,
0000
0000
0000
0000
;
#NOTES:
     dance-single:
     :
     Challenge:
     18:
     :
0000
0000
0000
0000
,
0000
0000
0000
0000
,
0000
0000
0000
0000
,
0000
0000
0000
0000
,
0000
0000
0000
0000
,
1001
0000
0000
0000
0001
0100
0010
0100
0002
0000
0000
1003
0100
0010
0001
0010
,
0200
0000
0000
0000
1300
0010
0100
0010
2000
0000
0000
3001
0010
0100
1000
0100
,
0020
0000
0000
0031
1000
0100
1000
0100
2000
0000
0000
3001
0100
0010
0100
0010
,
0100
0000
0000
0000
0000
0000
0001
0000
0000
0010
0000
0000
0001
0000
0000
0000
0000
0000
1000
0000
0000
0100
0000
0000
1000
0000
0000
0000
0000
0000
0001
0000
0100
0000
0001
0000
0100
0000
0000
0000
0000
0000
0010
0000
1000
0000
0010
0000
,
1000
0010
0100
0010
1000
0001
0010
0011
,
1001
0010
0010
0001
0010
0110
1001
1000
,
1100
0001
0010
0001
1000
0100
0010
0011
,
1001
0100
0100
1000
0100
0110
1001
0001
,
2000
0000
0010
0000
3001
0010
0100
1000
0200
0000
0310
0001
1000
0010
0100
0010
,
0200
0000
0001
0000
0310
1000
0100
0010
0002
0000
0103
0010
1000
0001
0010
0100
,
2000
0000
3001
0010
0100
0010
0100
1000
0002
0000
1003
0010
0100
0010
0100
0001
,
2000
0000
3001
0010
2000
0000
3001
0100
1000
0000
0010
0000
0110
0000
0000
0000
,
0001
0010
0001
0010
0100
1000
0100
1000
0001
0100
0001
0100
0010
1000
0010
1000
,
0001
0010
0100
0010
0001
1000
0100
1000
0010
0100
0001
0100
0010
1000
0100
1000
,
0001
0010
1000
0010
0001
0010
0100
1000
0001
0100
1000
0100
0001
1000
0100
0010
,
0001
0100
0001
0100
0010
1000
0010
1000
0001
0010
0001
0010
0100
1000
0001
0010
,
0002
0000
0000
0103
0001
0010
0100
0000
,
2000
0000
0000
3010
1000
0100
0010
0001
,
1000
0100
1000
0010
1000
0100
1000
0000
0001
0010
0001
1000
0100
0010
0100
0000
,
0010
0001
0010
0100
0010
1000
0010
0000
0100
0000
0010
0000
0001
0100
0001
0100
,
0020
0000
1000
0000
0100
0000
1030
0000
0001
0010
0100
1000
0001
0010
0100
0000
,
0020
0000
0001
0000
0100
0000
0031
0000
1000
0100
0010
0001
1000
0100
0010
0000
,
0001
0100
0010
0100
0001
1000
0100
0010
0100
1000
0010
0100
0010
1000
0001
0100
,
0001
0000
0000
0010
0000
0000
0100
0000
0000
1000
0000
0000
0001
0000
0000
0100
0000
0000
0010
0000
0000
1000
0000
0000
0001
0000
0000
0000
0000
0000
0000
0000
1000
0000
0000
0000
0001
0000
0000
0000
0010
0000
0000
0000
0001
0000
0000
0000
,
0100
0010
0100
0001
0010
0100
1000
0010
1000
0100
1000
0001
,
0100
0010
0100
0001
1000
0100
0020
0000
0000
0030
0000
0000
,
0001
0010
1000
0001
0100
1000
0001
0100
1000
0001
0010
1000
,
0001
0100
1000
0100
0001
0010
0110
0000
0011
0000
1001
0000
,
1100
0001
0010
0100
1000
0001
1000
0010
0100
0010
1000
0001
,
0011
1000
0010
0100
0001
1000
0001
0010
0100
0010
0001
1000
,
1001
0001
0010
0100
0010
0001
0011
0010
0100
1000
0010
0100
,
0101
0000
0000
0000
0100
0000
0000
0000
0100
0000
0000
0000
1001
0000
0000
0000
0001
0000
0000
0000
0001
0000
0000
0000
0110
0000
0000
0000
0000
0000
0000
0000
0000
0000
0000
0000
0001
0000
0000
0100
0000
0000
0001
0000
0000
0100
0000
0000
,
0001
0000
0000
1000
0010
1000
0010
0000
0000
0100
0001
0100
0001
0000
0000
1000
0100
1000
0100
0000
0000
0010
0001
0010
,
0001
0000
0000
1000
0010
1000
0001
0000
0000
0010
0100
0010
0001
0000
0000
1000
0100
0010
0001
0000
0000
1000
0010
0100
,
0001
0000
0000
0000
1000
0100
0001
0100
1000
0000
0000
0000
0001
0010
1000
0010
,
0001
0000
0000
0000
1000
0010
1000
0010
0100
0001
0010
0100
0010
0001
1000
0010
,
0100
0010
0100
0000
0001
0010
0001
0010
0100
0010
0100
0010
0001
1000
0100
0010
,
0001
0010
0001
0000
1000
0010
1000
0010
0100
0010
0100
0010
1000
0001
0010
0100
,
1000
0100
2000
0000
0000
0000
3001
0010
0001
1000
0100
1000
0001
0100
0010
1000
,
0001
0100
0002
0000
0000
0000
1003
0100
0010
0001
0010
0001
1000
0010
0100
0010
,
2000
0000
0000
0000
3001
0010
0100
1000
0010
0100
0010
0100
0001
0010
0001
0010
,
0200
0000
0000
0000
1300
0010
0100
0001
0010
0100
0010
0100
1000
0010
1000
0010
,
0200
0000
0000
0000
0301
0010
0100
1000
0001
0010
0100
1000
0001
1000
0010
0100
,
0001
0000
0000
0010
0000
0000
0100
0000
0000
0010
0000
0000
1000
0000
0000
0010
0000
0000
0001
0000
0000
0100
0000
0000
0010
0000
1000
0000
0010
0000
1000
0000
0000
0000
0000
0000
0001
0000
0010
0000
0001
0000
0010
0000
0000
0000
0000
0000
,
0002
0000
0000
0000
1003
0100
0010
0001
0100
0010
0100
0010
1000
0100
1000
0100
,
0020
0000
0000
0000
0031
0100
0010
1000
0100
0010
0100
0010
0001
0100
0001
0100
,
0020
0000
0000
0000
1030
0100
0010
0001
1000
0100
0010
0001
1000
0001
0100
0010
,
1000
0100
0001
0100
0010
1000
0010
0001
1000
0000
1000
0000
0010
0100
0010
0100
,
0001
0010
0001
0010
0100
1000
0100
1000
0010
0100
0010
0100
0001
1000
0001
1000
,
0100
0010
0100
0010
0001
0100
0001
0100
0010
0000
1000
0000
0001
0000
0010
0000
,
0001
0100
0010
1000
1010
0110
0101
1001
,
0011
0000
0110
0000
1100
0000
1001
0000
0001
0010
0100
1000
0100
0010
0001
0000
,
1000
0010
0000
0001
0000
1000
0000
0100
0001
0010
0100
1000
0100
0010
0001
0000
,
1000
0010
1000
0100
1000
0010
0100
0010
1000
0100
0010
0001
0010
0100
1000
0000
,
0001
0100
0000
1000
0000
0001
0000
0010
1000
0100
0010
0001
0010
0100
1000
0000
,
0001
0100
0001
0010
0001
0100
0010
0100
1000
0000
0100
0000
0110
0000
1000
0000
,
1100
0001
1000
0010
0100
0001
0011
1000
,
1010
0000
0001
0000
0100
0000
0010
0000
1000
0100
0001
0000
0001
0100
1000
0000
,
0001
0010
1000
0000
1000
0010
0001
0000
0011
0000
0010
0000
0110
0000
0100
0000
,
1000
0010
1000
0010
0100
0001
0100
0001
1000
0010
0100
0001
0010
0100
1000
0000
,
0001
0010
0100
1000
0010
0100
0001
0000
1000
0100
0001
1000
0010
0001
1000
0000
,
0001
0100
0000
1000
0001
0010
0100
0000
0001
0010
0100
1000
0010
0100
0001
0000
,
1000
0010
0100
0001
0010
0100
1000
0000
0001
0100
1000
0001
0010
1000
0001
0000
,
1000
0100
0000
0001
1000
0010
0100
0000
1000
0100
0010
0001
0010
0100
1000
0001
,
0010
0000
0000
0100
0000
0000
1000
0000
0000
0100
0000
0000
0010
0000
0000
0001
0000
0000
1000
0000
0000
0100
0000
0000
0010
0000
0000
0001
0000
0000
0010
0000
0000
0100
0000
0000
1000
0000
0000
0001
0000
0000
0100
0000
0010
0000
0100
0000
,
0010
0000
1000
0000
0010
0000
1000
0000
0001
0100
0001
0100
0010
1000
0001
0100
,
0010
0000
0000
1000
0010
1000
0010
0000
0000
0100
0001
0100
0001
0000
0000
0000
0000
0000
1001
0000
0000
0000
0000
0000
,
0000
0000
0000
0000
;
#NOTES:
     dance-double:
     :
     Easy:
     8:
     :
00000000
00000000
00000000
00000000
,
00000000
00000000
00000000
00000000
,
00000000
00000000
00000000
00000000
,
00000000
00000000
00000000
00000000
,
00000000
00000000
00000000
00000000
,
00000001
00000000
00001000
00000100
,
00001100
00000000
00010000
00001000
,
02000000
03010000
02000000
13000000
,
01000000
00000000
00010000
00000000
00100000
01000000
00100000
00000000
,
00010000
10000000
01000000
10000000
,
00010000
00100000
00001000
00010000
,
00001000
00010000
00000010
00001000
,
00000001
00000010
00000001
00001000
,
00000100
00010000
00001000
01000000
,
00010000
00100000
00010000
10000000
,
02000000
03010000
00002000
00003010
,
00000001
00000000
00001000
00000000
00000010
00000100
00000010
00000000
,
00001000
00000100
00001000
00000100
,
00010000
00001000
00010000
00001000
,
01000000
00010000
01000000
00010000
,
10000000
00000000
00100000
00000000
10000000
00100000
10000000
00000000
,
00020000
00000000
00000000
00030000
00100000
00010000
00100000
00000000
,
00002000
00000000
00000000
00003000
00010000
00001000
00010000
00000000
,
00000020
00000000
00000000
00000030
00001000
00000001
00001000
00000000
,
00000200
00000000
00000000
00000300
00010000
00001000
00010000
00001000
,
00020000
00000000
00000000
01030000
10000000
00000000
01000000
00000000
,
00200000
00000000
00000000
00301000
00010000
00000000
00001000
00000000
,
00000200
00000000
00000000
00000301
00002000
00000000
00000000
00003100
,
00010000
00001000
00011000
00000000
,
00001000
00010000
00100000
10000000
,
00100000
00010000
00002000
00003000
,
00010000
00001000
00000100
00000001
,
00000100
00001000
00000100
00000000
,
00000001
00000010
00000100
00001000
,
00010000
00100000
01000000
10000000
,
00010000
00100000
00001000
00010000
,
00000100
00001000
00000001
00000000
,
00001000
00000100
00001000
00000000
00000100
00010000
00000100
00000000
,
00010000
00001000
00010000
00000000
00002000
00000000
00023000
00000000
,
02030000
13000000
00010000
00100000
,
00001000
00000000
01000000
00000000
00100000
01000000
00100000
00000000
,
10000000
00010000
10000000
00000000
00100000
00000000
00010000
00000000
,
00001000
00010000
00001000
00000000
00000100
00000000
00000001
00000000
,
00000010
00001000
00000000
00010000
00001000
00000000
00010000
00000000
,
01000000
10000000
00000000
01000000
00100000
00000000
00010000
00000000
,
10000000
01000000
00100000
00010000
,
00100000
00010000
00001000
00000100
,
00000010
00000001
00001000
00000010
,
00000100
00000010
00000110
00001001
,
00000001
00000010
00000100
00001000
,
00000100
00001000
00010000
00100000
,
01000000
10000000
00010000
01000000
,
00100000
10000000
00010000
01000000
,
00001000
00010000
00001000
00010000
,
00000010
00001000
00000001
00000100
,
00000010
00001000
00000100
00010000
,
00001000
00000000
01000000
00000000
00010000
10000000
00010000
00000000
,
01000000
00000000
00001000
00000000
00010000
00001000
00010000
00000000
,
00000010
00000000
00001000
00000000
00000001
00001000
00000001
00000000
,
00000100
00000000
00000010
00000000
00010000
00001000
00010000
00000000
,
00001000
01000000
00010000
10010000
,
11000000
00010000
00100000
00101000
,
00011000
00010000
00001000
00000100
,
00000010
00000100
00000001
00001000
,
00001001
00000000
00000110
00000000
00000001
00000010
00000001
00000000
,
00001000
00000010
00001000
00000000
00000010
00010000
00000010
00000000
,
00010010
00000000
00011000
00000000
00001000
01000000
00001000
00000000
,
01000000
00010000
01000000
00000000
00100000
10000000
00100000
00000000
,
01100000
00000000
10010000
00000000
10000000
01000000
00010000
00000000
,
00001000
00000010
00000001
00000000
00000100
00001000
00010000
00000000
,
00000100
00001000
00000100
00010000
,
00001000
00100000
00010000
10010000
,
00000000
00000000
00000000
00000000
;
#NOTES:
     dance-double:
     :
     Medium:
     13:
     :
00000000
00000000
00000000
00000000
,
00000000
00000000
00000000
00000000
,
00000000
00000000
00000000
00000000
,
00000000
00000000
00000000
00000000
,
00000000
00000000
00000000
00000000
,
10000000
00000000
00010000
00100000
00002000
00000000
00013000
00001000
,
00020000
00000000
00030010
00001000
00000002
00000000
00000103
00000001
,
00000200
00000000
00000000
00000301
00000010
00000000
00000100
00000000
00002000
00000000
00000000
00003010
00010000
00000000
00001000
00000000
,
01000000
00010000
10000000
01000000
00100000
00010000
00100000
00000000
,
00001000
00010000
00000010
00001000
00000010
00001000
00000001
00000000
,
00000010
00000100
00000010
00000100
00001000
00000100
00010000
00000000
,
00001000
01000000
00010000
01000000
00100000
10000000
00100000
00000000
,
10000000
01000000
00010000
00001000
00010000
00001000
00000010
00000000
,
00000001
00000000
00001000
00000100
00020000
00000000
00031000
00010000
,
00002000
00000000
01003000
00010000
20000000
00000000
30100000
10000000
,
00200000
00000000
00000000
10300000
01000000
00000000
00100000
00000000
00020000
00000000
00000000
01030000
00001000
00000000
00010000
00000000
,
00000010
00001000
00000001
00000010
00000100
00001000
00000100
00000000
,
00010000
00001000
00010000
00001000
01000000
00001000
01000000
00010000
,
01000000
00100000
01000000
00100000
10000000
01000000
10000000
00010000
,
00100000
00001000
00100000
00001000
00010000
00001000
00010000
00000010
,
00001000
00000010
00001000
00000001
00000010
00000100
00001000
00000001
,
00002000
00000000
00000000
00003010
00010000
00001000
00010000
00000000
,
00002000
00000000
00000000
00103000
00010000
10000000
00010000
10000000
,
02000000
00000000
00000000
03010000
00001000
00010000
00001000
00000000
,
00020000
00000000
00000000
00031000
00000010
00000001
00000010
00000001
,
00002000
00000000
00000000
00003001
00000010
00000100
00001000
00010000
,
00200000
00000000
00000000
00310000
10000000
01000000
00100000
00010000
,
00002000
00000000
00000000
00003100
00000020
00000000
00000000
00000031
,
00001000
00000010
00000100
00000001
00001001
00000000
00000000
00000000
,
00001000
00000000
00001000
00000100
00000000
00000100
00010000
00000000
00010000
00001000
00000000
00001000
,
01000000
00000000
01000000
00010000
00000000
00010000
20000000
00000000
00000000
30000000
00000000
00000000
,
01000000
00000000
01000000
00010000
00000000
00010000
00001000
00000000
00001000
00000010
00000000
00000010
,
00000001
00000000
00000001
00001000
00000000
00001000
00000010
00000000
00000100
00000000
00000010
00000000
,
00010000
00000000
00010000
00001000
00000000
00001000
00100000
00000000
00100000
00010000
00100000
00010000
,
10000000
00000000
10000000
00100000
00000000
00100000
01000000
00000000
01000000
00010000
01000000
00010000
,
00100000
00000000
00001000
00010000
00000000
00001000
00000100
00000000
00000010
00000100
00000000
00000001
,
00000010
00000000
00000100
00001000
00000000
00000010
00000100
00000000
00000000
00000000
00000000
00000000
,
00000001
00000100
00000010
00001000
00000100
00010000
00001000
00100000
,
00010000
01000000
00100000
10000000
02000000
00000000
03020000
00000000
,
00032000
00000000
00013000
00000010
00002000
00000000
00003001
00000100
,
00000002
00000000
00001003
00000100
00001000
00000010
00010000
00001000
,
01000000
00010000
01000000
00010000
10000000
00100000
10000000
00100000
,
10000000
01000000
10000000
01000000
00100000
00010000
00001000
00000100
,
00000010
00000002
00000000
00001003
00000010
00000100
00000010
00000100
,
00000001
00000020
00000000
00001030
00010000
01000000
10000000
01000000
,
20000000
00000000
30010000
00100000
00010000
00100000
00001000
00010000
,
00000020
00000000
00001030
00000100
00001000
00000100
00000010
00000001
,
00002000
00000000
00003010
00000100
00000010
00010000
00001000
00010000
,
00000100
00010000
00001000
01000000
00010000
00100000
00001000
00010000
,
00000200
00000000
00001300
00000010
00001000
00000001
00000100
00000001
,
00002000
00000000
00003010
00010000
00001000
00010000
00001000
01000000
,
00020000
00000000
00130000
01000000
00100000
00010000
10000000
00010000
,
10000000
01000000
00010000
00001000
00010000
00010000
00001000
00001000
,
00010000
00010000
00000100
00000100
00001000
00001000
00000100
00000100
,
00000010
00000010
00000001
00000001
00001000
00000010
00000100
00000001
,
00001000
00000010
00010000
00001000
01000000
00010000
10000000
00100000
,
10000000
01000000
00100000
00010000
10000000
00100000
00010000
00001000
,
00000100
00000000
00000000
00000010
00000000
00001000
00000000
00000001
00000010
00000000
00001000
00000000
00010000
00000000
01000000
00000000
,
10000000
00010000
01000000
00010000
10000000
01000000
00010000
00001000
,
00000010
00000000
00000000
00000100
00000000
00001000
00000000
00000001
00000100
00000000
00001000
00000000
00010000
00000000
00100000
00000000
,
10000000
01000000
00100000
00010000
01000000
00010000
01000000
00001000
,
00010000
00001000
00010000
00000010
00001000
00000010
00001000
00000100
,
00000010
00000001
00000010
00000100
00001000
00000010
00010000
00001000
,
00100000
00001000
00010000
00000010
00010000
00001000
00010000
00001000
,
01000000
00000000
00010000
00000000
01000000
00000000
00000000
00000000
00001000
00010000
00001000
00000000
00010000
00000000
00000100
00000000
,
00001000
00000100
00001000
00000000
00000100
00000000
00000010
00000000
00000001
00000010
00000001
00000000
00001000
00000000
00000010
00000000
,
00010000
00000000
00000000
00000000
00011000
00000000
00000000
00000000
00010000
00001000
00010000
00000000
00001000
00000000
00100000
00000000
,
00010000
00100000
00010000
00000000
00100000
00000000
01000000
00000000
10000000
01000000
10000000
00000000
00010000
00000000
01000000
00000000
,
00001000
00000000
00000000
00000000
00011000
00000000
00000000
00000000
01000000
00001000
01000000
00000000
00001000
00010000
00001000
00000000
,
00010000
00000100
00010000
00000000
00001000
00010000
00001000
00000000
00100000
00010000
00100000
00000000
00001000
00010000
00001000
00000000
,
00100000
00010000
00100000
00010000
10000000
01000000
10000000
01000000
,
00100000
00010000
00001000
00000100
00000010
00000000
00001001
00000000
,
00000000
00000000
00000000
00000000
;
#NOTES:
     dance-double:
     :
     Hard:
     16:
     :
00000000
00000000
00000000
00000000
,
00000000
00000000
00000000
00000000
,
00000000
00000000
00000000
00000000
,
00000000
00000000
00000000
00000000
,
00000000
00000000
00000000
00000000
,
00001001
00000000
00000000
00000000
00001000
00000100
00001000
00000000
00000020
00000000
00000000
00010030
00001000
00010000
00001000
00000000
,
00011000
00000000
00000000
00000000
00001000
00100000
00001000
00000000
02000000
00000000
00000000
03010000
10000000
00010000
10000000
00000000
,
02000000
00000000
00000000
03100000
00010000
00100000
00010000
00000000
00200000
00000000
00000000
00301000
00010000
00001000
00010000
00000000
,
00000010
00000000
00001000
00000000
00000001
00000000
00000010
00000000
00000100
00000000
00000010
00000100
00000010
00000000
00000100
00001000
,
00000100
00010000
00001000
00010000
00001000
00100000
00010000
01000000
,
00100000
10000000
01000000
00010000
00001000
00010000
00011000
00000000
,
00010000
00001000
00010000
00000010
00001000
00000100
00000010
00000001
,
00000100
00001000
00010000
00100000
10000000
00010000
10010000
00000000
,
20000000
00000000
00000000
00000000
31000000
00100000
00010000
00000000
00200000
00000000
00000000
00301000
00010000
00000100
00001000
00000000
,
00000002
00000000
00000000
00000000
00000013
00000100
00001000
00000000
00000020
00000000
00000000
00010030
00001000
01000000
00010000
00000000
,
20000000
00000000
00000000
31000000
00100000
01000000
10000000
00000000
02000000
00000000
00000000
03010000
00001000
00010000
01000000
00000000
,
00100000
00001000
00010000
00000010
00001000
00000001
00000101
00000000
,
00000100
00000010
00000100
00000000
00000010
00001000
00000010
00000000
00001000
00000100
00001000
00000000
00000100
00010000
00000100
00000000
,
00010000
00001000
00010000
00000000
00001000
00100000
00001000
00000000
00100000
00010000
00100000
00000000
00010000
01000000
00010000
00000000
,
01000000
00100000
10000000
00000000
00010000
01000000
00001000
00000000
00010000
00000100
00001000
00000000
00000001
00000010
00000100
00000000
,
00001000
00000010
00010000
00000000
00001000
00100000
00010000
00000000
10000000
00000000
01000000
00000000
00100000
00000000
00010000
00100000
,
00020000
00000000
00000000
10030000
01000000
00100000
00010000
00000000
,
00002000
00000000
00000000
00003100
00000010
00000001
00001000
00000100
,
00020100
00000000
00000000
00031000
00010000
01000000
10000000
00000000
,
10020000
00000000
00000000
10030000
00100000
00010000
00001000
00000100
,
00000002
00000000
00000000
00000000
00000000
00000000
00001003
00000000
00000001
00000100
00000001
00001000
00000010
00001000
00000100
00000000
,
00020000
00000000
00000000
00000000
00000000
00000000
00031000
00000000
01000000
00010000
01000000
00100000
10000000
00100000
01000000
00000000
,
00020000
00000000
00130000
00001000
00020000
00000000
00030010
00001000
,
00000001
00000000
00000000
00000010
00000000
00000000
00000001
00000000
00000000
00001000
00000000
00000000
00001001
00000000
00000000
00000000
00000001
00000000
00000100
00000000
00000001
00000000
00000100
00000000
,
00000010
00001000
00000010
00001000
00000000
00000100
00010000
00001000
00010000
00001000
00000000
01000000
,
00010000
01000000
00100000
10000000
00000000
01000000
00200000
00000000
00000000
00300000
00000000
00000000
,
01000000
10000000
01000000
10000000
00000000
00010000
01000000
00010000
01000000
00001000
00000000
00010000
,
00000010
00001000
00000001
00001000
00000100
00000010
00000001
00000000
00000100
00000000
00000110
00000000
,
00000001
00001000
00000001
00000010
00000100
00001000
00000100
00010000
00001000
01000000
00010000
01000000
,
00100000
10000000
01000000
00100000
00010000
00100000
00001000
00010000
00000010
00001000
00000100
00000010
,
00000001
00000100
00001000
00000100
00001000
00010000
00001000
00010000
00100000
10000000
00100000
10000000
,
00010000
00100000
10000000
00010000
01000000
10000000
00010000
00000000
00000000
00000000
00000000
00000000
,
01000000
00000000
00001000
00010000
00001000
00000000
00010000
00000100
00010000
00000000
00000100
00001000
00000100
00000000
00001000
00000010
,
00001000
00000000
00000010
00000100
00000010
00000000
00000100
00000001
00000100
00000000
00000001
00000010
00000001
00000000
00001000
00000100
,
00001000
00000000
00000000
00000000
00000001
00000010
00001000
00000000
00020000
00000000
00000000
00000000
00031000
01000000
00010000
01000000
,
00200000
00000000
00000000
00000000
10300000
00000000
00010000
00000000
00100000
01000000
00100000
01000000
00100000
00000000
00010000
00000000
,
00100000
00001000
00100000
00000000
00001000
00000000
00010000
00000000
00000100
00001000
00000100
00000000
00000010
00000001
00000010
00000000
,
00000001
00001000
00000001
00000000
00000100
00000000
00001000
00000000
00010000
00001000
00010000
00000000
00001000
00010000
00001000
00000000
,
00010000
01000000
00200000
00000000
00000000
00000000
00310000
10000000
01000000
00100000
00010000
00000000
01000000
00100000
01000000
00000000
,
00001000
00010000
00002000
00000000
00000000
00000000
00013000
00000000
00000010
00001000
00000010
00000100
00000010
00000100
00000001
00000000
,
00002000
00000000
00000000
00000000
00003100
00001000
00000100
00010000
00001000
00010000
00001000
00100000
00010000
00100000
00010000
00000000
,
02000000
00000000
00000000
00000000
03100000
10000000
00100000
10000000
00010000
01000000
00010000
01000000
00001000
00010000
00001000
00000000
,
00020000
00000000
00000000
00000000
00030100
00001000
00000100
00000010
00000001
00000010
00000001
00001000
00000010
00000100
00000010
00000000
,
00001000
00000100
00001000
00000000
00000100
00010000
00000100
00000000
00010100
00000000
00000100
00000000
00011000
00000000
00010000
00000000
,
00002000
00000000
00000000
00000000
01003000
00010000
01000000
00001000
00010000
00001000
00010000
00000010
00001000
00000010
00001000
00000000
,
00000200
00000000
00000000
00000000
00000310
00000001
00000010
00000001
00001000
00000100
00001000
00000100
00010000
00001000
00010000
00000000
,
00002000
00000000
00000000
00000000
01003000
00010000
01000000
00100000
10000000
00100000
10000000
00010000
00100000
01000000
00100000
00000000
,
00010000
01000000
00010000
00000000
01000000
00001000
01000000
00000000
00001000
00000000
00001000
00000000
00010000
00000000
00010000
00000000
,
00000100
00000100
00001000
00001000
00000001
00000001
00000010
00000010
,
00000100
00000100
00001000
00001000
00000001
00000010
00000100
00001000
,
00010000
00100000
01000000
10000000
00100000
01000000
00010000
00100000
,
00001000
00000000
00010000
00000000
00000100
00000000
00001000
00000000
00000001
00000000
00000100
00000010
00000100
00000010
00000100
00000000
,
00000001
00000010
00000000
00001000
00000000
00010000
00000000
00001000
01000000
00000000
00010000
00100000
00010000
00100000
00010000
00000000
,
10000000
00000000
01000000
00000000
00100000
00000000
00010000
00000000
01000000
00000000
00001000
00010000
00001000
00010000
00001000
00000000
,
00010000
00001000
00000000
00000010
00000000
00000001
00000000
00000010
00001000
00000000
00000010
00000100
00000010
00000100
00000010
00000000
,
00000001
00000100
00001000
00010000
00011000
00001000
01000000
00010000
,
01010000
01000000
00100000
10000000
11000000
01000000
00100000
00010000
,
00110000
00100000
00001000
00010000
00001000
00000100
00000001
00000100
,
00000010
00001000
00010000
01000000
00100000
10000000
01000000
00100000
,
00010000
00000000
00001000
00000000
00000100
00000000
00000010
00000000
00000001
00000000
00000100
00000010
00001000
00000000
00000100
00000000
,
00010000
00000000
00001000
01000000
00010000
00000000
00100000
00000000
01000000
00000000
00100000
00010000
01000000
00000000
00100000
00000000
,
10100000
00000000
00000000
00000000
00110000
00000000
00000000
00000000
10000000
00000000
01000000
00100000
00010000
00000000
01000000
00000000
,
00001000
00000000
00010000
00000100
00001000
00000000
00000010
00000000
00000100
00000000
00000010
00001000
00000100
00000000
00000010
00000000
,
00000011
00000000
00000000
00000000
00001010
00000000
00000000
00000000
00000001
00000010
00001000
00000000
00010000
01000000
10000000
00000000
,
10000000
00100000
00010000
00000000
00001000
00000100
00000001
00000000
00000001
00000010
00001000
00000000
00010000
01000000
10000000
00000000
,
00010000
00100000
00010000
00100000
00001000
00010000
00001000
00010000
,
00000010
00000000
00001000
00000100
00001000
00000000
00000001
00000010
00000001
00000000
00000000
00000000
00000110
00000000
00000000
00000000
,
00000000
00000000
00000000
00000000
;
#NOTES:
     dance-double:
     :
     Challenge:
     18:
     :
00000000
00000000
00000000
00000000
,
00000000
00000000
00000000
00000000
,
00000000
00000000
00000000
00000000
,
00000000
00000000
00000000
00000000
,
00000000
00000000
00000000
00000000
,
10010000
00000000
00000000
00000000
10000000
01000000
00100000
01000000
20000000
00000000
00000000
31000000
00100000
00010000
00100000
00001000
,
00020000
00000000
00000000
00000000
00030100
00001000
00000100
00000010
00000200
00000000
00000000
00001300
00000001
00000010
00000100
00001000
,
00000002
00000000
00000000
00001003
00000100
00010000
00000100
00010000
00002000
00000000
00000000
01003000
00010000
10000000
00010000
10000000
,
00100000
00000000
10000000
01000000
10000000
00000000
00010000
00100000
00010000
00000000
00100000
01000000
00100000
00000000
00001000
00010000
,
00001000
00010000
00000100
00001000
00000100
00000010
00000001
00001000
,
00001010
00000001
00000001
00000100
00001000
00010000
00011000
00001000
,
01001000
01000000
00010000
00100000
00010000
10000000
01000000
00100000
,
00110000
10000000
10000000
01000000
00010000
00001000
00011000
00010000
,
00000020
00000000
00000000
00000000
00001030
00000001
00000010
00000100
00002000
00000000
00000000
00003010
00010000
00001000
00010000
00001000
,
02000000
00000000
00000000
00000000
03010000
10000000
01000000
00100000
00020000
00000000
00030000
01000000
00001000
00010000
00001000
00010000
,
00000200
00000000
00000000
00001300
00000010
00000100
00000010
00000100
00000002
00000000
00000000
00001003
00000100
00001000
00000100
00010000
,
00002000
00000000
00013000
00100000
20000000
00000000
30010000
01000000
10000000
00000000
01000000
00000000
01100000
00000000
00000000
00000000
,
10000000
01000000
10000000
01000000
00100000
00010000
00100000
00001000
00010000
00001000
00010000
00000010
00001000
00000010
00000100
00000001
,
00000100
00000001
00001000
00000100
00000010
00000100
00001000
00000100
00010000
00001000
00010000
00001000
01000000
00010000
10000000
01000000
,
10000000
00010000
00100000
00010000
00100000
00001000
00010000
00000100
00001000
00000001
00000010
00000100
00001000
00000100
00010000
00001000
,
00100000
00010000
10000000
01000000
00010000
00001000
00000010
00000001
00000010
00000001
00000100
00001000
00000100
00001000
00010000
00000000
,
00002000
00000000
00000000
01003000
00010000
00100000
01000000
00000000
,
20000000
00000000
00000000
30100000
10000000
01000000
00100000
00010000
,
00100000
00001000
00010000
00001000
00100000
00001000
00010000
00000000
00000010
00001000
00000010
00001000
00000001
00000010
00000001
00000000
,
00001000
00000100
00010000
00000100
00001000
00000100
00010000
00000000
00001000
00000000
01000000
00000000
00010000
00100000
00010000
00000000
,
20000000
00000000
01000000
00000000
00010000
00000000
31000000
00000000
10000000
01000000
00100000
00010000
00001000
00000100
00000010
00000000
,
00000002
00000000
00001000
00000000
00000100
00000000
00001003
00000000
00000001
00000010
00000100
00001000
00010000
00100000
01000000
00000000
,
10000000
00100000
01000000
00100000
10000000
01000000
00010000
00001000
00010000
00000100
00001000
00000100
00010000
00001000
00000010
00000001
,
00000010
00000000
00000000
00000100
00000000
00000000
00001000
00000000
00000000
00000001
00000000
00000000
00000100
00000000
00000000
00000010
00000000
00000000
00001000
00000000
00000000
00000010
00000000
00000000
00010000
00000000
00000000
00000000
00000000
00000000
00000000
00000000
00001000
00000000
00000000
00000000
00010000
00000000
00000000
00000000
00001000
00000000
00000000
00000000
01000000
00000000
00000000
00000000
,
00010000
00100000
00010000
10000000
01000000
00100000
00010000
01000000
00100000
01000000
00001000
00010000
,
00001000
00010000
00000010
00001000
00000001
00000010
00000200
00000000
00000000
00000300
00000000
00000000
,
00001000
00000100
00000001
00001000
00000010
00000001
00000100
00001000
00010000
00100000
00010000
00001000
,
00010000
01000000
10000000
00010000
00100000
10000000
00010000
00000000
01000000
00000000
00100000
00000000
,
00110000
00010000
00100000
00001000
00010000
00000010
00001000
00000100
00000010
00000001
00001000
00000100
,
00010100
00010000
00001000
00100000
00010000
10000000
00100000
01000000
00010000
01000000
00001000
00010000
,
00010100
00000100
00001000
00000001
00000010
00000100
00000110
00000010
00000001
00001000
00000100
00010000
,
00011000
00000000
00000000
00000000
00001000
00000000
00000000
00000000
00001000
00000000
00000000
00000000
00101000
00000000
00000000
00000000
00100000
00000000
00000000
00000000
00100000
00000000
00000000
00000000
00110000
00000000
00000000
00000000
00000000
00000000
00000000
00000000
00000000
00000000
00000000
00000000
10000000
00000000
00000000
00100000
00000000
00000000
10000000
00000000
00000000
00100000
00000000
00000000
,
10000000
00000000
00000000
00010000
01000000
00010000
01000000
00000000
00000000
00001000
00010000
00001000
00010000
00000000
00000000
00000100
00010000
00000100
00010000
00000000
00000000
00000100
00001000
00000100
,
00001000
00000000
00000000
00000001
00000010
00000001
00000010
00000000
00000000
00000100
00001000
00000100
00001000
00000000
00000000
00000001
00000010
00000100
00001000
00000000
00000000
00010000
00100000
01000000
,
10000000
00000000
00000000
00000000
00010000
01000000
10000000
01000000
00010000
00000000
00000000
00000000
10000000
01000000
00010000
00001000
,
00000010
00000000
00000000
00000000
00000001
00000100
00000001
00000100
00000010
00001000
00000100
00010000
00001000
00010000
00001000
00100000
,
00010000
10000000
00010000
00000000
01000000
00100000
01000000
00100000
01000000
00010000
01000000
00001000
00010000
00000010
00001000
00000010
,
00001000
00000001
00001000
00000000
00000100
00000010
00000100
00000010
00000100
00001000
00000100
00010000
00001000
01000000
00010000
10000000
,
01000000
00100000
02000000
00000000
00000000
00000000
13000000
00010000
01000000
00010000
01000000
00001000
00010000
00001000
00010000
00000010
,
00001000
00000001
00000200
00000000
00000000
00000000
00000301
00000010
00000100
00001000
00000100
00001000
00010000
00100000
01000000
10000000
,
00020000
00000000
00000000
00000000
10030000
01000000
00100000
00010000
10000000
01000000
00010000
00001000
00000010
00000001
00001000
00000001
,
00002000
00000000
00000000
00000000
00003001
00000010
00000100
00001000
00000001
00000100
00001000
00010000
00100000
10000000
00010000
10000000
,
02000000
00000000
00000000
00000000
03100000
00010000
10000000
01000000
00100000
00010000
00001000
00000100
00000010
00000001
00001000
00000100
,
00010000
00001000
00010000
00000100
00001000
00000100
00010000
00001000
01000000
00010000
01000000
00010000
10000000
00100000
10000000
00100000
,
20000000
00000000
00000000
00000000
30100000
10000000
01000000
00010000
00001000
00010000
00001000
00000100
00000001
00000100
00000010
00000100
,
00000002
00000000
00000000
00000000
00000103
00000001
00000010
00001000
00010000
00001000
00010000
01000000
10000000
01000000
00100000
01000000
,
20000000
00000000
00000000
00000000
31000000
00100000
00010000
10000000
01000000
00100000
00010000
00100000
00001000
00010000
00001000
00010000
,
00000100
00001000
00000100
00000001
00000100
00001000
00000001
00001000
00000010
00000000
00000010
00000000
00001000
00000100
00001000
00000100
,
00010000
00001000
00010000
00001000
00100000
00010000
00100000
00010000
10000000
01000000
10000000
01000000
10000000
00100000
10000000
00100000
,
01000000
00010000
01000000
00010000
00100000
00001000
00100000
00001000
00010000
00000000
00000010
00000000
00001000
00000000
00000001
00000000
,
00000010
00000100
00001000
00000100
00010000
00001000
00100000
00010000
,
00110000
00000000
10010000
00000000
11000000
00000000
01100000
00000000
10000000
01000000
00100000
00010000
00100000
01000000
10000000
00000000
,
00100000
00010000
00000000
00001000
00000000
00000100
00000000
00000001
00001000
00000100
00000010
00000001
00000010
00000100
00001000
00000000
,
00000001
00000010
00000100
00001000
00000100
00010000
00001000
00100000
00010000
00100000
01000000
10000000
01000000
00100000
00010000
00000000
,
10000000
01000000
00000000
00010000
00000000
00001000
00000000
00000010
00000001
00000010
00000100
00001000
00000100
00000010
00000001
00000000
,
00001000
00000010
00010000
00001000
01000000
00010000
10000000
00100000
10000000
00000000
00010000
00000000
00100000
00000000
00001000
00000000
,
00011000
01000000
00001000
00010000
00000100
00001000
00000001
00000010
,
00000110
00000000
00001000
00000000
00000001
00000000
00000100
00000000
00000001
00000100
00001000
00000000
00010000
01000000
10000000
00000000
,
10000000
00100000
00010000
00000000
00001000
00000010
00000001
00000000
00001001
00000000
00001000
00000000
00001100
00000000
00000100
00000000
,
00010000
00001000
00010000
00001000
00010000
00001000
00010000
00000000
00000100
00010000
00001000
00100000
00010000
00100000
00010000
00000000
,
01000000
00001000
00010000
00000010
00001000
00000010
00001000
00000000
00000001
00000010
00000100
00001000
00000100
00010000
00001000
00000000
,
00100000
00010000
00000000
01000000
00010000
00100000
00010000
00000000
00100000
00001000
00010000
00000100
00001000
00000100
00001000
00000000
,
00000010
00010000
00001000
01000000
00010000
01000000
00010000
00000000
10000000
01000000
00100000
00010000
00100000
00001000
00010000
00000000
,
00000100
00001000
00000000
00000010
00001000
00000100
00001000
00000000
00000001
00000010
00000100
00001000
00010000
00100000
01000000
10000000
,
01000000
00100000
00010000
00001000
00000100
00000010
00000001
00000010
00000100
00001000
00010000
00100000
01000000
10000000
01000000
00100000
,
00010000
00000000
10000000
00000000
01000000
00000000
10000000
00000000
00010000
00100000
00010000
00100000
00001000
00010000
00001000
00010000
,
00001000
00000000
00000100
00000010
00000100
00000000
00000001
00001000
00000001
00000000
00000000
00000000
00001001
00000000
00000000
00000000
,
00000000
00000000
00000000
00000000
;
