
//----- song ID: deng -----//
#TITLE:電幻圏;
#ARTIST:Lamanya feat.ナースロボ_タイプT;
#TITLETRANSLIT:DENGENKEN;
#ARTISTTRANSLIT:Lamanya feat. nurse robot_type t;
#BANNER:DENGENKEN.png;
#BACKGROUND:DENGENKEN-bg.png;
#CDTITLE:./CDTitles/DDR WORLD.png;
#MUSIC:Dengenken.ogg;
#SAMPLESTART:38.92;
#SAMPLELENGTH:15;
#BPMS:0=148;
#BGSTAGE:15;
#NOTES:
     dance-single:
     :
     Beginner:
     2:
     :
0000
0000
0000
0000
,
0000
0000
0000
0000
,
0000
0000
0000
0000
,
0000
0000
0000
0000
,
0001
0000
0000
0000
,
0001
0000
0000
0000
,
0010
0000
0000
0000
,
0000
0000
0000
0000
,
0010
0000
0000
0000
,
0010
0000
0000
0000
,
1000
0000
0000
0000
,
0000
0000
0000
0000
,
1000
0000
0000
0000
,
1000
0000
0000
0000
,
0010
0000
0000
0000
,
0000
0000
0000
0000
,
0010
0000
0000
0000
,
0010
0000
0000
0000
,
0001
0000
0000
0000
,
0000
0000
0000
0000
,
0002
0000
0000
0000
,
0003
0000
0000
0000
,
0001
0000
0001
0000
,
0010
0000
0000
0000
,
0020
0000
0000
0000
,
0030
0000
0000
0000
,
0010
0000
0010
0000
,
1000
0000
0000
0000
,
2000
0000
0000
0000
,
3000
0000
0000
0000
,
1000
0000
0000
0000
,
0100
0000
0000
0000
,
0010
0000
0000
0000
,
0001
0000
0000
0000
,
0001
0000
0000
0000
,
0100
0000
0000
0000
,
0010
0000
0000
0000
,
1000
0000
0000
0000
,
0020
0000
0000
0000
,
0030
0000
0000
0000
,
0010
0000
0010
0000
,
1000
0000
0000
0000
,
0010
0000
0010
0000
,
0001
0000
0000
0000
,
0001
0000
0001
0000
,
0100
0000
0000
0000
,
1000
0000
0000
0000
,
1001
0000
0000
0000
,
0000
0000
0000
0000
,
1001
0000
0000
0000
,
0000
0000
0000
0000
,
1000
0000
0000
0000
,
0010
0000
0000
0000
,
0001
0000
0000
0000
,
0000
0000
0000
0000
,
0001
0000
0000
0000
,
0010
0000
0000
0000
,
1000
0000
0000
0000
,
0000
0000
0000
0000
,
1000
0000
1000
0000
,
1000
0000
0000
0000
,
0100
0000
0000
0000
,
0010
0000
0000
0000
,
0000
0000
0000
0000
,
0001
0000
0000
0000
,
0100
0000
0000
0000
,
0010
0000
0000
0000
,
2000
0000
3000
0000
,
0000
0000
0000
0000
;
#NOTES:
     dance-single:
     :
     Easy:
     5:
     :
0000
0000
0000
0000
,
0000
0000
0000
0000
,
0000
0000
0000
0000
,
0000
0000
0000
0000
,
0001
0000
0001
0000
,
0010
0100
0010
0100
,
1000
0000
1000
0000
,
0010
0100
0010
0100
,
0001
0000
1000
0000
,
0001
1000
0001
1000
,
0100
0000
0010
0000
,
0100
0010
0100
0000
,
1000
0100
0010
0000
,
0100
0010
0001
0000
,
0001
0100
0010
0000
,
0100
0010
1000
0000
,
0002
0003
1000
1000
,
0010
0100
0010
0000
,
1000
0000
0100
0000
,
0010
0001
1000
0000
,
0001
0100
0001
0000
,
1000
0010
1000
0000
,
0100
1000
0100
0000
,
0010
0001
0010
0000
,
0001
1000
0100
0010
,
0001
0000
1001
0000
,
1000
0001
0100
0010
,
1000
0000
1001
0000
,
0002
0000
0000
0003
,
2000
0000
0000
3000
,
0001
0000
0001
0000
,
0001
0001
0001
0000
,
1000
0000
1000
0000
,
1000
1000
1000
0000
,
0010
0000
0010
0000
,
0010
0010
0010
0000
,
0100
0000
0100
0000
,
0100
0100
0100
0000
,
0100
0000
0100
0000
,
0100
0000
0100
0000
,
0001
1000
0001
1000
,
0001
1000
0001
0000
,
1000
0100
0010
0100
,
1000
0100
0010
0000
,
0001
0100
0010
0100
,
0001
0100
0010
0000
,
1001
0000
0000
0000
,
0110
0000
0000
0000
,
0000
0000
0000
0000
,
1001
0000
0000
0000
,
0000
0000
0000
0000
,
2000
0000
0000
3000
,
0200
0000
0000
0300
,
0020
0000
0000
0030
,
0002
0000
0000
0003
,
1000
1000
1000
0000
,
0001
0001
0001
0000
,
0100
0010
0100
0010
,
0100
0000
0110
0000
,
1000
0001
1000
0000
,
0001
1000
0100
0000
,
0010
0001
1000
0000
,
1000
0001
0100
0000
,
0010
1000
0001
0000
,
2000
0000
0000
3000
,
0002
0000
0000
0003
,
1000
0000
0100
0000
,
0010
0001
0001
0000
,
0000
0000
0000
0000
;
#NOTES:
     dance-single:
     :
     Medium:
     10:
     :
0000
0000
0000
0000
,
0000
0000
0000
0000
,
0000
0000
0000
0000
,
0000
0000
0000
0000
,
0001
0100
0001
0000
1000
0000
0001
0000
,
1000
0100
1000
0000
0001
0000
1000
0000
,
0001
0010
0001
0000
1000
0000
0001
0000
,
1000
1000
0001
0001
,
1000
0010
1000
0000
0001
0000
1000
0000
,
0001
0010
0001
0000
1000
0000
0001
0000
,
1000
0100
1000
0000
0001
0000
1000
0000
,
0001
0001
0001
0000
,
0001
0000
0100
0000
1000
0100
0001
0000
,
1000
0000
0100
0000
0001
0100
1000
0000
,
0001
0000
0010
0000
1000
0010
0001
0000
,
1000
0000
0010
0000
0001
0010
1000
0000
,
0010
0010
0010
0000
1010
0000
0101
0000
,
0001
0000
1000
0000
0100
0010
0100
0000
,
1000
0000
0001
0000
0100
0010
0100
0000
,
0010
0100
0110
1001
,
1000
0100
0010
0000
0100
0010
0001
0000
,
0001
0100
0010
0000
0100
0010
1000
0000
,
0001
0010
0100
0000
0010
0100
1000
0000
,
1100
0110
0011
1001
,
1000
0010
0100
0000
0010
1000
0010
0000
,
0100
0001
0010
0000
0001
0010
0001
0000
,
1000
1000
1000
0000
0001
0100
0010
0000
,
0010
1000
1010
1100
,
2000
0000
0000
3000
,
0002
0000
0000
0003
,
1000
0000
0100
1000
0000
0000
0001
0000
0100
0001
0000
0000
,
1000
0000
0010
0100
0000
0000
0001
0000
0000
1000
0000
0000
,
0001
0000
0010
0001
0000
0000
1000
0000
0010
1000
0000
0000
,
0001
0000
0010
0100
0000
0000
1000
0000
0000
0001
0000
0000
,
1000
0000
0100
0010
0000
0000
0001
0000
0100
0010
0000
0000
,
1000
0000
0100
0010
0000
0000
0001
0000
0000
1000
0000
0000
,
0001
0000
0010
0100
0000
0000
1000
0000
0010
0100
0000
0000
,
0001
1000
0001
0000
0100
0100
0100
0000
,
0010
0010
0010
0000
1000
1000
1000
0000
,
0001
0001
0001
0000
0010
0010
0010
0000
,
0100
1000
0100
1000
0100
0001
0100
0001
,
0100
1000
0100
0001
0100
0000
1001
0000
,
0001
1000
0100
0000
1000
0001
0100
0000
,
0001
1000
0010
0000
1000
0001
0010
0000
,
0001
0100
0010
1000
0100
0010
0001
0000
,
0100
0010
1000
0100
0010
0002
0000
0000
,
1003
0000
0000
0000
,
1001
0000
0000
0000
0001
0010
1000
0000
,
0000
0010
0001
0000
1000
0100
0010
0000
,
1001
0000
0000
0000
1000
0100
0001
0100
,
2000
3200
0320
0032
,
2003
0000
3020
0000
,
0130
0100
0001
0001
,
0020
0000
0230
0000
,
1300
1000
0001
0001
,
2002
0000
0000
3003
,
1000
0010
0100
0001
0100
0010
1000
0000
,
0001
0010
0001
0000
1000
0100
1000
0000
,
0000
0001
0100
0010
1000
0100
0010
0000
,
0001
1000
0110
1001
,
1000
0010
1000
0100
1000
0010
0100
0000
,
0001
0010
0001
0100
0001
0010
0100
0000
,
1000
1000
1000
0000
0001
0100
0010
0000
,
1000
0010
1010
0101
,
0002
0000
0000
0003
,
2000
0000
0000
3000
,
0001
0100
0010
0000
1000
0100
0010
0000
,
0001
0010
1000
0010
0001
0001
0001
0000
,
0000
0000
0000
0000
;
#NOTES:
     dance-single:
     :
     Hard:
     15:
     :
0000
0000
0000
0000
,
0000
0000
0000
0000
,
0000
0000
0000
0000
,
0000
0000
0000
0000
,
0001
1000
0001
1000
0001
1000
0001
0000
,
1000
0001
1000
0001
1000
0001
1000
0000
,
0001
0100
0010
1000
0001
0100
0010
1000
,
0002
1000
1000
1003
,
1000
0100
0010
0001
1000
0100
0010
0000
,
0001
0010
0100
1000
0001
0010
0100
0000
,
1000
0100
0001
0100
1000
0010
0001
0010
,
2000
0001
3001
0000
,
1000
0000
0000
0001
0000
0000
0100
0000
0010
0100
0000
0000
0001
0000
0000
1000
0000
0000
0100
0000
0000
0010
0000
0100
,
1000
0001
0100
0010
1000
0001
0020
0000
,
0031
0000
0000
0010
0000
0000
0100
0000
1000
0001
0000
0000
1000
0000
0000
0010
0000
0000
0100
0000
0000
0001
0000
1000
,
0001
0000
0100
0001
0000
0000
2000
0000
0000
3000
0000
0000
0001
0000
0010
0100
0000
0000
2000
0000
0000
0000
0000
0000
,
0001
0000
0000
0001
0000
0000
3001
0000
0000
0000
0000
0000
0001
0000
0000
0010
0000
0000
1000
0000
0000
0010
0000
0100
,
1000
0000
0000
0001
0000
0000
0100
0000
0010
1000
0000
0000
0001
0000
0100
0000
0100
0000
0010
0000
0000
1000
0000
0000
,
0001
0000
0000
0010
0000
0000
0100
0000
1000
0100
0000
1000
0100
0000
0000
0010
0000
0001
1000
0000
0000
0010
0000
0000
,
0110
1001
0110
1001
,
1000
0000
0100
0010
0000
0000
0001
0000
0010
0100
0000
0000
1000
0000
0010
0100
0000
0000
0001
0000
0000
1001
0000
0000
,
1000
0000
0010
0100
0000
0010
1000
0000
0000
0000
0000
0000
0001
0000
0010
0100
0000
0010
0001
0000
0000
0000
0000
0000
,
0000
0000
0000
1001
0000
0000
1000
0000
0100
0010
0000
0001
1000
0000
0100
0010
0000
0001
1000
0000
0000
0001
0000
0000
,
0101
0000
1010
0000
1100
0001
0011
0000
,
1001
0000
0000
1000
0000
0000
0001
0000
0100
0010
0000
0000
1000
0000
0000
0100
0000
0010
0001
0000
0000
0100
0000
0010
,
1000
0000
0000
0001
0000
0000
0100
0000
0000
0110
0000
0000
0010
0000
0000
1000
0000
0001
1000
0000
0000
0000
0000
0000
,
0001
0000
0000
0001
0000
0000
0001
0000
0000
0100
0000
0010
1000
0000
0001
1000
0000
0001
1000
0000
0000
0100
0000
0010
,
0001
0000
0011
0000
0101
0000
1010
1000
,
0001
0001
0001
0001
,
1000
1000
1000
1000
,
0001
0010
0100
1000
0100
0010
0001
0100
0010
1000
0010
0100
,
0001
0010
0100
0001
0100
0010
0001
0100
0010
0001
0010
1000
,
0100
0010
1000
0001
0100
0010
0001
0010
0100
0001
1000
0010
,
0100
1000
0010
0100
0001
0010
0100
0000
1000
0001
0000
1000
,
0001
0100
0001
0010
0100
0010
0001
0100
0010
1000
0000
0001
,
1000
0010
0100
0001
0100
0010
1000
0100
0010
0001
0000
0100
,
0001
0000
1000
0000
0100
0000
0001
0000
0100
0000
1000
0000
0001
0000
1000
0000
0010
0000
0001
0000
0000
0010
0000
0000
,
1000
0000
0000
0010
0000
0100
0001
0000
0000
0010
0000
0100
1000
0000
0000
1000
0000
0000
1000
0000
0000
0000
0000
0000
,
1000
1000
1000
0000
1000
1000
1000
0000
,
1000
1000
1000
0000
1000
1000
1001
0000
,
0001
0001
0100
0100
0010
0010
1000
1000
,
0001
0000
0000
0001
0000
0000
1000
0000
0000
1000
0000
0000
0001
0000
1000
0000
0001
0000
1001
0000
0000
0000
0000
0000
,
1000
0000
0100
0010
0000
0000
0100
0000
0010
0001
0000
0000
1000
0000
0010
0100
0000
0000
0010
0000
0100
0001
0000
0000
,
1000
0000
0001
0010
0000
0000
0001
0000
1000
0010
0000
0000
1000
0000
0001
0100
0000
0000
0010
0000
0000
0110
0000
0000
,
0100
0000
0001
0010
0000
0000
0100
0000
1000
0010
0000
0000
0100
0000
0001
0010
0000
0000
0100
0000
1000
0010
0000
0000
,
0100
0000
0001
1000
0000
0000
0100
0000
0010
0001
0000
0000
1000
0000
0000
0002
0000
0000
0000
0000
0000
0000
0000
0000
,
1003
0000
0000
0000
,
1001
0000
0000
0000
0001
0100
0110
0000
,
0000
0000
1010
0000
1100
0000
0000
0000
0011
0000
0001
0000
0101
0000
0100
0001
,
1000
0000
0000
0000
0000
0000
0000
0000
0000
0000
0000
0000
0001
0000
0010
0001
0000
0000
1000
0000
0100
1000
0000
0000
,
0001
0000
0100
0010
0000
1000
0001
0000
0100
0010
0000
1000
0001
0000
0000
0010
0000
0000
0100
0000
0000
1000
0000
0000
,
0002
0100
1000
0103
,
0101
0110
1010
1001
,
2000
0100
0001
3100
,
1100
0110
0011
0110
,
1001
0000
0000
0000
0000
0000
1000
0000
0001
0100
0000
0000
0001
0000
0010
0100
0000
1000
0100
0000
1000
0001
0000
0000
,
1000
0000
0010
1000
0000
0000
0001
0000
0100
0001
0000
0000
1000
0000
0100
0010
0000
0001
1000
0000
0010
0100
0000
0000
,
0001
0000
1000
0100
0000
0000
1000
0000
0000
0000
0000
0000
1000
0000
0001
0100
0000
0000
0001
0000
0000
0000
0000
0000
,
0000
0000
0000
1001
0000
0000
1000
0000
0010
0100
0000
0001
0010
0000
0100
1000
0000
0010
0100
0000
0010
1000
0000
0000
,
1100
0000
0101
0000
0011
1000
1001
0000
,
1000
0000
0001
0010
0000
0000
0100
0000
1000
0001
0000
0000
0100
0000
0001
0010
0000
0000
0100
0000
1000
0010
0000
0000
,
1000
0000
0001
0010
0000
0100
0010
0000
0001
1000
0000
0000
0010
0000
0100
0000
0010
0000
0200
0000
0000
0000
0000
0000
,
0301
0000
0000
0001
0000
0000
0001
0000
0010
0100
0000
0000
1000
0000
0010
1000
0000
0001
1000
0000
0010
1000
0000
0000
,
1010
1100
0011
0101
,
0002
1000
0000
1003
,
2000
0000
0000
0000
0000
0000
3001
0000
0000
0000
0000
0000
1000
0000
0100
0000
0010
0000
0001
0000
0000
1000
0000
0000
,
1001
0000
0000
0000
0000
0001
0010
0000
0000
0001
0000
0000
1000
0000
0000
0010
0000
0000
0100
0000
0000
0000
0000
1001
,
0000
0000
1000
0001
0000
0000
0010
0000
0000
0100
0000
1000
0001
0000
0000
0001
0000
0000
0001
0000
0000
0000
0000
0000
,
0000
0000
0000
0000
;
#NOTES:
     dance-double:
     :
     Easy:
     5:
     :
00000000
00000000
00000000
00000000
,
00000000
00000000
00000000
00000000
,
00000000
00000000
00000000
00000000
,
00000000
00000000
00000000
00000000
,
00001000
00000000
00001000
00000000
,
00010000
00000000
00010000
00000000
,
00001000
00010000
00001000
00000000
,
00010000
00001000
00010000
00000000
,
00001000
00000000
00100000
00000000
,
00010000
00000000
00100000
00000000
,
01000000
00100000
01000000
00000000
,
10000000
00010000
10000000
00000000
,
00010000
00100000
00010000
00000000
,
00100000
00001000
00100000
00000000
,
00001000
00010000
00001000
00000000
,
00010000
00000100
00010000
00000000
,
00000200
00000300
00000100
00000000
,
00000010
00000100
00000010
00000000
,
00000001
00000000
00001000
00000000
,
00000001
00001000
00000001
00000000
,
00001000
00000100
00001000
00000000
,
00000100
00010000
00000100
00000000
,
00010000
00000000
00001000
00000000
,
00010000
00001000
00010000
00000000
,
00001000
00100000
00001000
00000000
,
00100000
00010000
00100000
00000000
,
00010000
00000000
01000000
00000000
,
00100000
01000000
00100000
00000000
,
20000000
00000000
00000000
30000000
,
00020000
00000000
00000000
00030000
,
10000000
00000000
10000000
00000000
,
01000000
01000000
01000000
00000000
,
00100000
00000000
00100000
00000000
,
00001000
00001000
00001000
00000000
,
00010000
00000000
00010000
00000000
,
00000100
00000100
00000100
00000000
,
00000010
00000000
00000010
00000000
,
00000001
00000001
00000001
00000000
,
00002000
00000000
00000000
00003000
,
00000002
00000000
00000000
00000003
,
00001000
00000001
00001000
00000001
,
00001000
00000001
00001000
00000000
,
00000001
00001000
00000100
00001000
,
00000001
00001000
00000100
00000000
,
00010000
00000100
00010000
00001000
,
00010000
00000100
00010000
00000000
,
00011000
00000000
00000000
00000000
,
00011000
00000000
00000000
00000000
,
00001000
00000000
00010000
00000000
,
00100000
00000000
00000000
00000000
,
10000000
00000000
00010000
00000000
,
20000000
00000000
00000000
30000000
,
00200000
00000000
00000000
00300000
,
02000000
00000000
00000000
03000000
,
00002000
00000000
00000000
00003000
,
00010000
00010000
00010000
00000000
,
00000010
00000010
00000010
00000000
,
00001000
00001000
00001000
00000000
,
00000001
00000001
00000001
00000000
,
00001000
00000001
00001000
00000000
,
00000001
00000010
00000100
00000000
,
00001000
00000100
00010000
00000000
,
00001000
00010000
00001000
00000000
,
00010000
00001000
01000000
00000000
,
00200000
00000000
00000000
00300000
,
20000000
00000000
00000000
30000000
,
01000000
00100000
00010000
00100000
,
00001000
00010000
00010000
00000000
,
00000000
00000000
00000000
00000000
;
#NOTES:
     dance-double:
     :
     Medium:
     10:
     :
00000000
00000000
00000000
00000000
,
00000000
00000000
00000000
00000000
,
00000000
00000000
00000000
00000000
,
00000000
00000000
00000000
00000000
,
00001000
00010000
00001000
00000000
00010000
00000000
00001000
00000000
,
00010000
00001000
00010000
00000000
00001000
00000000
00010000
00000000
,
00001000
00000000
00100000
00000000
00010000
01000000
00100000
00000000
,
10000000
10000000
00010000
00010000
,
01000000
00100000
01000000
00000000
00100000
00000000
01000000
00000000
,
00100000
01000000
00100000
00000000
01000000
00000000
00100000
00000000
,
10000000
01000000
00010000
00001000
,
00000010
00000010
00000010
00000000
,
00000001
00000000
00000100
00000000
00001000
00000100
00000001
00000000
,
00000010
00000100
00010000
00001000
,
00010000
00000000
00100000
00000000
00010000
00001000
00010000
00000000
,
00001000
00000000
00000010
00000000
00001000
00010000
00001000
00000000
,
00010000
00010000
00010000
00000000
00011000
00000000
00011000
00000000
,
00001000
00000000
00010000
00000000
00100000
10000000
00010000
00000000
,
10000000
01000000
00100000
00001000
,
00011000
00000000
00011000
00000000
00001000
00010000
00001000
00000000
,
00010000
00000010
00010000
00000000
00000010
00001000
00000010
00000000
,
00000100
00000001
00000100
00000000
00000001
00000000
00001000
00000000
,
00000001
00000010
00000100
00000000
00000010
00000100
00001000
00000000
,
00001100
00000000
00010100
00000000
00010000
00001000
00010000
00000000
,
00001000
00100000
00001000
00000000
00100000
00010000
00100000
00000000
,
01000000
10000000
01000000
00000000
10000000
00000000
00010000
00000000
,
10000000
10000000
10000000
00000000
00100000
01000000
00010000
00000000
,
01010000
00000000
01001000
00000000
00001000
00010000
00001000
00000000
,
00020000
00000000
00000000
00030000
,
00002000
00000000
00000000
00003000
,
00010000
00000000
00001000
00010000
00000000
00000000
00001000
00000000
00000000
00000010
00000000
00000000
,
00000001
00000000
00001000
00000001
00000000
00000000
00000100
00000000
00000000
00000010
00000000
00000000
,
00001000
00000000
00000010
00010000
00000000
00000000
00001000
00000000
00010000
00001000
00000000
00000000
,
00010000
00000000
00001000
01000000
00000000
00000000
00010000
00000000
00000000
00000000
00000000
00000000
,
10000000
00000000
00100000
10000000
00000000
00000000
00010000
00000000
00000000
00100000
00000000
00000000
,
01000000
00000000
00100000
00010000
00000000
00000000
00100000
00000000
00000000
00001000
00000000
00000000
,
00010000
00000000
00001000
00010000
00000000
00000000
00000100
00000000
00001000
00000100
00000000
00000000
,
00000010
00000001
00001000
00000000
00000001
00000001
00000001
00000000
,
00001000
00001000
00001000
00000000
00000100
00000100
00000100
00000000
,
00010000
00010000
00010000
00000000
00001000
00001000
00001000
00000000
,
00010000
00001000
00010000
00001000
00010000
00100000
00010000
00000000
,
00001000
00010000
00001000
00010000
00001000
00000010
00001000
00000000
,
00010000
00001000
01000000
00010000
00100000
01000000
10000000
00000000
,
00010000
01000000
00001000
00010000
00000100
00001000
00000001
00000000
,
00000010
00000100
00001000
00000000
00000010
00000100
00001000
00000000
,
00010000
00100000
01000000
00010000
00100000
02000000
00000000
00000000
,
13000000
00000000
00000000
00000000
,
10010000
00000000
00000000
00000000
10000000
01000000
00100000
00000000
,
00000000
01000000
00010000
00000000
00001000
00010000
00001000
00000000
,
00011000
00000000
00000000
00000000
00010000
00001000
00000010
00000000
,
00000002
00000023
00000230
00002300
,
00003200
00000000
00020300
00000000
,
00031000
00001000
01000000
01000000
,
00020000
00000000
02030000
00000000
,
03100000
00100000
10000000
10000000
,
20020000
00000000
00000000
30030000
,
10000000
00100000
10000000
00100000
01000000
00100000
01000000
00000000
,
00010000
01000000
00001000
00000000
00010000
00000010
00001000
00000000
,
00000000
00000001
00001000
00000001
00000010
00000100
00000010
00000000
,
00000001
00000000
00000100
00000000
00001000
00010000
00001000
00000000
,
00010000
00001000
01000000
00010000
00100000
00001000
00010000
00000000
,
00001000
00100000
00010000
00000000
00100000
00010000
01000000
00000000
,
00010000
00010000
00010000
00000000
10000000
01000000
00100000
00000000
,
00010000
00110000
00100000
00101000
,
00002000
00000000
00000000
00003000
,
00020000
00000000
00000000
00030000
,
00001000
00000000
00011000
00000000
00010000
00001000
00000010
00000000
,
00000001
00000100
00000010
00001000
00000001
00000001
00000001
00000000
,
00000000
00000000
00000000
00000000
;
#NOTES:
     dance-double:
     :
     Hard:
     15:
     :
00000000
00000000
00000000
00000000
,
00000000
00000000
00000000
00000000
,
00000000
00000000
00000000
00000000
,
00000000
00000000
00000000
00000000
,
00001000
00010000
00001000
00010000
00001000
00010000
00001000
00000000
,
00010000
00001000
00010000
00001000
00010000
00001000
00010000
00000000
,
00001000
01000000
00001000
00000000
00100000
00010000
00100000
00000000
,
00020000
10000000
10000000
10030000
,
10000000
01000000
00100000
00010000
10000000
01000000
00100000
00000000
,
00010000
00100000
00001000
00010000
00000100
00001000
00000001
00000000
,
00001000
00000010
00000100
00000001
00001000
00000010
00000100
00000000
,
00000002
00001000
00001003
00000000
,
00000001
00000000
00000000
00000100
00000000
00000000
00000010
00000000
00001000
00000010
00000000
00000000
00001000
00000000
00000000
00000010
00000000
00000000
00010000
00000000
00000000
00001000
00000000
00010000
,
00001000
00010000
00001000
00100000
00010000
00100000
02000000
00000000
,
13000000
00000000
00000000
00010000
00000000
00000000
01000000
00000000
00100000
01000000
00000000
00000000
00010000
00000000
00000000
01000000
00000000
00000000
00001000
00000000
00000000
00010000
00000000
00001000
,
00010000
00000000
00000100
00010000
00000000
00000000
00000200
00000000
00000000
00000300
00000000
00000000
00001000
00000000
00000010
00000100
00000000
00000000
00000002
00000000
00000000
00000000
00000000
00000000
,
00001000
00000000
00000000
00001000
00000000
00000000
00001003
00000000
00000000
00000000
00000000
00000000
00000001
00000000
00000000
00000100
00000000
00000000
00001000
00000000
00000000
00000100
00000000
00000010
,
00000100
00000000
00000000
00000001
00000000
00000000
00001000
00000000
00000100
00010000
00000000
00000000
00001000
00000000
00010000
00000000
00001000
00000000
00010000
00000000
00000000
00001000
00000000
00000000
,
00100000
00000000
00000000
00010000
00000000
00000000
01000000
00000000
00100000
10000000
00000000
00100000
10000000
00000000
00000000
00010000
00000000
00100000
01000000
00000000
00000000
10000000
00000000
00000000
,
10010000
00000000
01100000
00000000
10010000
00000000
10000000
01000000
,
00010000
00000000
00000000
00001000
00000000
00000000
00000010
00000000
00000001
00000010
00000000
00000000
00000001
00000000
00000100
00000010
00000000
00000000
00001000
00000000
00000000
00000001
00000000
00000000
,
00000010
00000000
00000100
00000010
00000000
00000001
00000010
00000000
00000000
00000000
00000000
00000000
00000001
00000000
00001000
00000100
00000000
00001000
00000100
00000000
00000000
00000000
00000000
00000000
,
00000000
00000000
00000000
00010100
00000000
00000000
00010000
00000000
00001000
01000000
00000000
00010000
01000000
00000000
00100000
01000000
00000000
00010000
10000000
00000000
00000000
01000000
00000000
00000000
,
01100000
00000000
00101000
00000000
00011000
00001000
00010000
00000000
,
00011000
00000000
00000000
00010000
00000000
00000000
00001000
00000000
00000000
00000010
00000000
00000000
00000001
00000000
00000000
00000100
00000000
00000010
00001000
00000000
00000000
00000100
00000000
00000010
,
00000001
00000000
00000000
00000100
00000000
00000000
00001000
00000000
00000000
00010000
00000000
00000000
00100000
00000000
00000000
10000000
00000000
00010000
10000000
00000000
00000000
00000000
00000000
00000000
,
00010000
00000000
00000000
00010000
00000000
00000000
00010000
00000000
00000000
10000000
00000000
00000000
01000000
00000000
00100000
00010000
00000000
00100000
00001000
00000000
00000000
00010000
00000000
00000010
,
00010000
00000000
00010010
00000000
00001010
00000000
00001001
00000001
,
00001000
00001000
00001000
00001000
,
00000001
00000001
00000001
00000001
,
00001000
00000100
00000010
00000001
00000100
00000010
00001000
00000010
00010000
00001000
01000000
00010000
,
10000000
00100000
01000000
00010000
00100000
01000000
10000000
00010000
01000000
00100000
00000000
00100000
,
10000000
01000000
00100000
00010000
01000000
00100000
10000000
01000000
00100000
00001000
00010000
00000100
,
00001000
00000010
00000100
00000001
00000010
00000100
00001000
00000000
00000100
00000010
00000000
00000100
,
00000010
00000001
00000100
00000010
00000001
00000010
00000100
00001000
00000100
00001000
00010000
00001000
,
00010000
00100000
00010000
00100000
00000000
00100000
10000000
00010000
01000000
00100000
00000000
00100000
,
10000000
01000000
00100000
01000000
00100000
00010000
00100000
00001000
00010000
00001000
00000000
00000000
,
00010000
00000000
00000000
00000100
00000000
00001000
00000100
00000000
00000000
00000010
00000000
00000001
00000010
00000000
00000000
00000010
00000000
00000000
00000010
00000000
00000000
00000000
00000000
00000000
,
00000010
00000010
00000010
00000000
00000010
00000010
00000010
00000000
,
00000010
00000010
00000010
00000000
00000010
00000010
00001001
00000000
,
00000001
00000001
00000100
00000100
00001000
00001000
00010000
00010000
,
00100000
00000000
00000000
00100000
00000000
00000000
10000000
00000000
00000000
10000000
00000000
00000000
00010000
00000000
10000000
00000000
00010000
00000000
10000000
00000000
00000000
00000000
00000000
00000000
,
10000000
00000000
00010000
01000000
00000000
00000000
00010000
00000000
00000000
00100000
00000000
00000000
00001000
00000000
00010000
00001000
00000000
00000000
00010000
00000000
00000000
00000010
00000000
00000000
,
00001000
00000000
00000010
00000100
00000000
00000000
00000001
00000000
00000000
00000010
00000000
00000000
00000100
00000000
00001000
00000001
00000000
00000000
00000100
00000000
00000000
00000100
00000000
00000000
,
00000001
00000000
00001000
00000100
00000000
00000000
00001000
00000000
00000000
00000010
00000000
00000000
00010000
00000000
00001000
00010000
00000000
00000000
00001000
00000000
00000000
00100000
00000000
00000000
,
00010000
00000000
00100000
01000000
00000000
00000000
10000000
00000000
00000000
00100000
00000000
00000000
01000000
00000000
00000000
00020000
00000000
00000000
00000000
00000000
00000000
00000000
00000000
00000000
,
10030000
00000000
00000000
00000000
,
10010000
00000000
00000000
00000000
10000000
01000000
01100000
00000000
,
00000000
00000000
00100000
00000000
00101000
00000000
00000000
00000000
00011000
00000000
00010000
00000000
00001000
00000000
00000010
00000001
,
00000010
00000000
00000000
00000000
00000000
00000000
00000000
00000000
00000000
00000000
00000000
00000000
00000001
00000000
00000010
00000100
00000000
00000000
00001000
00000000
00000010
00000100
00000000
00000000
,
00000001
00000000
00001000
00000100
00000000
00001000
00000100
00000000
00010000
00001000
00000000
00010000
00001000
00000000
00000000
00100000
00000000
00000000
00010000
00000000
00000000
01000000
00000000
00000000
,
00200000
01000000
10000000
01300000
,
01010000
01001000
00011000
00010010
,
00000020
00000100
00001000
00000130
,
00000101
00001001
00001100
00000110
,
00000010
00000000
00000000
00000001
00000000
00000000
00000100
00000000
00000010
00001000
00000000
00000000
00000010
00000000
00010000
00001000
00000000
00010000
00001000
00000000
00010000
00001000
00000000
00000000
,
00010000
00000000
00000000
00100000
00000000
00000000
10000000
00000000
00100000
01000000
00000000
00000000
00010000
00000000
10000000
01000000
00000000
10000000
01000000
00000000
00100000
00010000
00000000
00000000
,
10000000
01000000
00010000
00000000
00001000
00000010
00000001
00000000
,
00000000
00000000
00000000
00001001
00000000
00000000
00001000
00000000
00000010
00000100
00000000
00001000
00000100
00000000
00000001
00000100
00000000
00000000
00000010
00000000
00001000
00000100
00000000
00000000
,
00010100
00000000
00011000
00000000
00101000
00100000
00110000
00000000
,
00010000
00000000
01000000
00010000
00000000
00000000
10000000
00000000
00100000
10000000
00000000
00000000
00010000
00000000
10000000
01000000
00000000
00000000
00100000
00000000
00001000
00010000
00000000
00000000
,
00001000
00000000
00010000
00000010
00000000
00001000
00000010
00000000
00000100
00000010
00000000
00000000
00000100
00000000
00000001
00000000
00001000
00000000
00000020
00000000
00000000
00000000
00000000
00000000
,
00001030
00000000
00000000
00001000
00000000
00000000
00001000
00000000
00000001
00001000
00000000
00000000
00000100
00000000
00010000
00001000
00000000
00010000
00000100
00000000
00010000
00001000
00000000
00000000
,
00011000
01001000
01010000
10010000
,
20000000
00010000
00000000
30010000
,
00020000
00000000
00000000
00000000
00000000
00000000
00230000
00000000
00000000
00000000
00000000
00000000
00301000
00000000
00010000
00000000
00000010
00000000
00001000
00000000
00000000
00000001
00000000
00000000
,
00001001
00000000
00000000
00000000
00000000
00001000
00000100
00000000
00000000
00000010
00000000
00000000
00000001
00000000
00000000
00000100
00000000
00000000
00001000
00000000
00000000
00010000
00000000
00100000
,
00000000
00000000
10000000
00010000
00000000
00000000
10000000
00000000
00000000
01000000
00000000
00010000
00001000
00000000
00000000
00001000
00000000
00000000
00001000
00000000
00000000
00000000
00000000
00000000
,
00000000
00000000
00000000
00000000
;
