
//----- song ID: cobl -----//
#TITLE:Couleur=Blanche;
#ARTIST:\#FFFFFF;
#BANNER:Couleur=Blanche.png;
#BACKGROUND:Couleur=Blanche-bg.png;
#CDTITLE:./CDTitles/jubeat clan.png;
#MUSIC:Couleur=Blanche.ogg;
#SAMPLESTART:92.798;
#SAMPLELENGTH:15;
#DISPLAYBPM:90:260;
#BPMS:0=185,138=172,140=155,142=145.5,144=130,146=117,148=103,150=90,156=110,158=121,160=130,162=140,164=150,166=160,168=170,170=180,172=190,174=200,176=210,178=220,180=230,182=240,184=250,186=260,188=270,190=280,192=150,194=91.75,196=185,358=255;
#BGSTAGE:30;
#NOTES:
     dance-single:
     :
     Beginner:
     4:
     :
0000
0000
0000
0000
,
0000
0000
0000
0000
,
0000
0000
0000
0000
,
0000
0000
0000
0000
,
0000
0000
0000
0000
,
0000
0000
0000
0000
,
0000
0000
0000
0000
,
1000
0000
0000
0000
,
0010
0000
0000
0000
,
0001
0000
0000
0000
,
0100
0000
0000
0000
,
1000
0000
0000
0000
,
0001
0000
0000
0000
,
0020
0000
0000
0000
,
0000
0000
0030
0000
,
0001
0000
0001
0000
,
0002
0000
0003
0000
,
1000
0000
1000
0000
,
2000
0000
3000
0000
,
0010
0000
0010
0000
,
0020
0000
0030
0000
,
0100
0000
0200
0000
,
0300
0000
0000
0000
,
0001
0001
0000
0000
,
1000
1000
0000
0000
,
0001
0001
0000
0000
,
1000
1000
0000
0000
,
0010
0010
0000
0000
,
1000
1000
0000
0000
,
0100
0100
0000
0000
,
0010
0010
0000
0000
,
0002
0003
0000
2000
,
3000
0000
0002
0003
,
0000
2000
3000
0000
,
2000
0000
0000
0000
,
0010
0000
0000
0000
,
3002
0000
0000
0000
,
0100
0000
0003
0000
,
2000
3000
0000
0002
,
0003
0000
1000
0000
,
0001
0001
0001
0000
,
1000
0000
0001
0000
,
1000
0000
0001
0000
,
1000
0000
1000
0000
,
0002
0000
0000
0000
,
0010
0000
0000
0000
,
2003
0000
0000
0000
,
3200
0000
0000
0000
,
0000
0000
0000
0000
,
0300
0000
0000
0000
,
1000
0000
1000
0000
,
0001
0000
0001
0000
,
0010
0000
0100
0000
,
0020
0000
0030
0000
,
0001
0000
0001
0000
,
1000
0000
1000
0000
,
0020
0030
0000
0200
,
0300
0000
0001
0000
,
1000
0000
0100
0000
,
0010
0000
0001
0000
,
0010
0000
0100
0000
,
0020
0000
0030
0000
,
0001
0000
0100
0000
,
0010
0000
1000
0000
,
0020
0030
0000
0200
,
0300
0000
0001
0000
,
2000
0000
0000
0000
,
0000
0000
3000
0000
,
0001
0000
0001
0000
,
1000
1000
1000
0000
,
0010
0000
0100
0000
,
0010
0000
0010
0000
,
1000
0000
1000
0000
,
0001
0001
0001
0000
,
0010
0000
0100
0000
,
0010
0000
0010
0000
,
0001
0000
0001
0000
,
1000
1000
1000
0000
,
0100
0000
0010
0000
,
0100
0000
0100
0000
,
1000
0000
1000
0000
,
0001
0001
0001
0000
,
0100
0000
0100
0000
,
0020
0000
0000
0030
,
1000
0000
0000
0000
,
0010
0000
0000
0000
,
0001
0000
0000
0000
,
0200
0000
0000
0000
,
0000
0000
0000
0000
,
0300
0000
2000
0000
,
0000
0000
0000
0000
,
0000
0000
0000
0000
,
0000
0000
0000
0000
,
3000
0000
0000
0000
,
0000
0000
0000
0000
;
#NOTES:
     dance-single:
     :
     Easy:
     7:
     :
0000
0000
0000
0000
,
0000
0000
0000
0000
,
0000
0000
0000
0000
,
0000
0000
0000
0000
,
0000
0000
0000
0000
,
0000
0000
0000
0000
,
0000
0000
0000
0000
,
2000
0000
0010
0000
,
0001
0000
3100
0000
,
2000
0000
0010
0000
,
0001
0000
3100
0000
,
1000
0100
1000
1000
,
0001
0100
0001
0001
,
1000
0001
1000
0000
0001
1000
0001
0000
,
2000
0000
0000
3000
,
0002
0003
0002
0003
,
0002
0003
0010
0001
,
2000
3000
2000
3000
,
2000
3000
0010
1000
,
0020
0030
0020
0030
,
0020
0030
0100
0001
,
0200
0300
0200
0300
,
0000
0010
1000
0001
,
0100
0002
0003
0001
,
0100
0002
0003
1000
,
0100
2000
3000
1000
,
0100
2000
3000
1000
,
0001
0200
0300
0100
,
0001
0200
0300
0001
,
1000
0020
0030
0010
,
1000
0020
0030
0010
,
1000
0000
0100
0000
0000
1000
0100
0000
,
0010
0000
0001
1000
0001
0000
0100
0000
,
0000
0001
0100
0000
0010
0000
1000
0000
,
2000
0000
0010
0000
,
0001
0000
3100
0000
,
2000
0000
0010
0000
,
0001
0000
3100
0000
,
2000
0000
3000
0020
,
2030
0000
3002
0000
,
0203
0302
2003
3000
,
0010
0000
0100
0000
0001
0010
0001
0000
,
1000
0100
0010
0001
,
0011
0000
1000
0010
,
1010
0000
1001
0000
,
1000
0000
1000
0000
,
0001
0001
0001
0000
,
0010
0000
0001
0000
,
2000
0000
0000
0002
,
0000
0000
3003
0000
,
0001
0010
0100
0000
,
1000
0001
0100
0000
,
0020
0030
2000
3000
,
0100
0010
0001
0000
,
1000
0010
0100
0000
,
0001
1000
0010
0000
,
0100
0002
0003
1000
,
0020
0030
0100
0100
,
0001
0010
0100
1000
,
0002
0003
0200
0300
,
0010
0100
0001
1000
,
0020
0030
0100
0001
,
1000
1000
0001
0001
,
0010
0010
0100
0100
,
1000
0100
0010
0001
,
1000
0010
0100
0001
,
0020
0000
0000
0030
,
0000
0001
0000
0000
1001
0000
1000
0000
,
0001
0010
0100
1000
,
0001
1000
0010
0010
,
1000
0100
0010
0001
,
0100
0010
0010
0000
,
1000
0010
0100
0001
,
1000
0001
0010
0010
,
0100
0200
0300
0010
,
0020
0030
0002
0003
,
1000
0010
0100
0001
,
1000
0001
0010
0010
,
0001
0100
0010
1000
,
0100
0010
0010
0000
,
0001
0010
0100
1000
,
0001
1000
0010
0010
,
0100
0200
0300
0010
,
0020
0030
1000
0001
,
2000
0000
0010
0000
,
3002
0000
0100
0000
,
1003
0000
0001
0000
,
1000
0100
0010
0001
,
0100
0010
1000
0001
,
1000
0000
2002
0000
,
0000
0000
0000
0000
,
0000
0000
0000
0000
,
0000
0000
0000
0000
,
3003
0000
0000
0000
,
0000
0000
0000
0000
;
#NOTES:
     dance-single:
     :
     Medium:
     12:
     :
0000
0000
0000
0000
,
0000
0000
0000
0000
,
0000
0000
0000
0000
,
0000
0000
0000
0000
,
0000
0000
0000
0000
,
MMMM
0000
0000
0000
,
MMMM
0000
0000
0000
,
2000
0000
0000
0000
0000
0000
0000
0000
0000
0000
0000
0000
0000
0000
0000
0000
0000
0000
0000
0000
0000
0000
0000
0000
0020
0030
0000
0000
0000
0000
0000
0000
0000
0000
0000
0000
0000
0000
0000
0000
0000
0000
0000
0000
0000
0000
0000
0000
0002
0003
0000
0000
0000
0000
0000
0000
0000
0000
0000
0000
0000
0000
0000
0000
0000
0000
0000
0000
0000
0000
0000
0000
3200
0300
0000
0000
0000
0000
0000
0000
0000
0000
0000
0000
0000
0000
0000
0000
0000
0000
0000
0000
0000
0000
0000
0000
,
2000
0000
0000
0000
0000
0000
0000
0000
0000
0000
0000
0000
0000
0000
0000
0000
0000
0000
0000
0000
0000
0000
0000
0000
0020
0030
0000
0000
0000
0000
0000
0000
0000
0000
0000
0000
0000
0000
0000
0000
0000
0000
0000
0000
0000
0000
0000
0000
3002
0000
0000
0000
0000
0000
0000
0000
0000
0000
0000
0000
0000
0000
0000
0000
0000
0000
0000
0000
0000
0000
0000
0000
0203
0300
0000
0000
0000
0000
0000
0000
0000
0000
0000
0000
0000
0000
0000
0000
0000
0000
0000
0000
0000
0000
0000
0000
,
0002
0000
0000
0000
0000
0000
0000
0000
0000
0000
0000
0000
0000
0000
0000
0000
0000
0000
0000
0000
0000
0000
0000
0000
0200
0300
0000
0000
0000
0000
0000
0000
0000
0000
0000
0000
0000
0000
0000
0000
0000
0000
0000
0000
0000
0000
0000
0000
2000
3000
0000
0000
0000
0000
0000
0000
0000
0000
0000
0000
0000
0000
0000
0000
0000
0000
0000
0000
0000
0000
0000
0000
0023
0030
0000
0000
0000
0000
0000
0000
0000
0000
0000
0000
0000
0000
0000
0000
0000
0000
0000
0000
0000
0000
0000
0000
,
0002
0000
0000
0000
0000
0000
0000
0000
0000
0000
0000
0000
0000
0000
0000
0000
0000
0000
0000
0000
0000
0000
0000
0000
0200
0300
0000
0000
0000
0000
0000
0000
0000
0000
0000
0000
0000
0000
0000
0000
0000
0000
0000
0000
0000
0000
0000
0000
2003
0000
0000
0000
0000
0000
0000
0000
0000
0000
0000
0000
0000
0000
0000
0000
0000
0000
0000
0000
0000
0000
0000
0000
3020
0030
0000
0000
0000
0000
0000
0000
0000
0000
0000
0000
0000
0000
0000
0000
0000
0000
0000
0000
0000
0000
0000
0000
,
1000
0000
0001
0000
0000
0100
0000
0000
0001
0000
0000
0100
0000
0000
0001
0000
,
1000
0000
0010
0000
1000
0000
0010
0000
0100
0000
0000
0001
0000
0000
0100
0000
,
0001
1000
0100
0001
0100
1000
0001
0100
,
0020
0000
0000
0000
0000
0000
0000
0000
0030
0000
0000
0000
MMMM
MMMM
MMMM
0000
,
0020
0000
0030
MMMM
0002
0000
0003
MMMM
,
0200
0000
0000
0000
0300
0000
MMMM
0000
0110
0000
0000
0000
MMMM
MMMM
MMMM
0000
,
0020
0000
0030
MMMM
2000
0000
3000
MMMM
,
0200
0000
0000
0000
0300
0000
MMMM
0000
0110
0000
0000
0000
MMMM
MMMM
MMMM
0000
,
0020
0000
0030
MMMM
2000
0000
3000
MMMM
,
0002
0000
0000
0000
0003
0000
MMMM
0000
1001
0000
0000
0000
MMMM
MMMM
MMMM
0000
,
2000
0000
3000
MMMM
0200
0000
0300
MMMM
,
0000
1000
0002
0003
1000
0001
0020
0030
,
0001
0010
0100
1000
0000
MMMM
0010
0000
,
2100
0000
3002
0003
0000
MMMM
0001
0000
,
1000
0010
0100
0001
0000
MMMM
0010
0000
,
0102
0000
2003
3000
0000
MMMM
1000
0000
,
0010
1000
0001
0100
0000
MMMM
1000
0000
,
0021
0000
0230
0300
0000
MMMM
0001
0000
,
1000
0100
0010
0001
0000
MMMM
0001
0000
,
2100
0000
0000
0000
0002
0000
0000
0000
3003
0000
0000
0000
MMMM
MMMM
MMMM
0000
,
0001
0010
0100
1000
0000
MMMM
2000
0000
,
3002
0000
1003
MMMM
1000
0010
0100
0001
,
0000
MMMM
0002
0000
2003
0000
3001
0000
,
0001
0010
0100
1000
0001
1000
0200
0300
,
2000
3000
0000
0000
0000
0000
0000
0000
0000
0000
0000
0000
0001
0000
0000
0000
0000
0000
0000
0000
0000
0000
0000
0000
0020
0030
0000
0000
0000
0000
0000
0000
0000
0000
0000
0000
0000
0000
0000
0000
0000
0000
0000
0000
0000
0000
0000
0000
0002
0003
0000
0000
0000
0000
0000
0000
0000
0000
0000
0000
0010
0000
0000
0000
0000
0000
0000
0000
0000
0000
0000
0000
0200
0300
0000
0000
0000
0000
0000
0000
0000
0000
0000
0000
0000
0000
0000
0000
0000
0000
0000
0000
0000
0000
0000
0000
,
2000
3000
0000
0000
0000
0000
0000
0000
0000
0000
0000
0000
0000
0000
0000
0000
0000
0000
0000
0000
0000
0000
0000
0000
0020
0030
0000
0000
0000
0000
0000
0000
0000
0000
0000
0000
0100
0000
0000
0000
0000
0000
0000
0000
0000
0000
0000
0000
0002
0003
0000
0000
0000
0000
0000
0000
0000
0000
0000
0000
0000
0000
0000
0000
0000
0000
0000
0000
0000
0000
0000
0000
0200
0300
0000
0000
0000
0000
0000
0000
0000
0000
0000
0000
0010
0000
0000
0000
0000
0000
0000
0000
0000
0000
0000
0000
,
2000
3000
0000
0000
0000
0000
0000
0000
0000
0000
0000
0000
0001
0000
0000
0000
0000
0000
0000
0000
0000
0000
0000
0000
0020
0030
0000
0000
0000
0000
0000
0000
0000
0000
0000
0000
0000
0000
0000
0000
0000
0000
0000
0000
0000
0000
0000
0000
0002
0003
0000
0000
0000
0000
0000
0000
0000
0000
0000
0000
1000
0000
0000
0000
0000
0000
0000
0000
0000
0000
0000
0000
0200
0300
0000
0000
0000
0000
0000
0000
0000
0000
0000
0000
0000
0000
0000
0000
0000
0000
0000
0000
0000
0000
0000
0000
,
2000
0000
0000
0000
0000
0000
3020
0030
,
0102
1000
0203
0010
,
2300
0000
3200
0000
0320
0030
MMMM
0000
,
0010
0100
0010
1000
0001
0010
0100
0000
,
1000
0100
1000
0000
0001
0000
MMMM
0000
,
0010
0000
1000
0010
0100
0000
0110
0000
,
0001
0010
0100
0000
0110
0000
MMMM
0000
,
0010
0000
1001
0000
0100
0001
1000
0000
,
0001
0010
0001
0000
1000
0010
1000
0000
,
0001
1000
0001
1000
0010
1000
0010
0000
,
2000
0000
0000
0000
0000
0000
0000
0000
0000
0000
0000
0000
0000
0000
0000
0000
0000
0000
0000
0000
0000
0000
0000
0000
0020
0030
0000
0000
0000
0000
0000
0000
0000
0000
0000
0000
0000
0000
0000
0000
0000
0000
0000
0000
0000
0000
0000
0000
0002
0003
0000
0000
0000
0000
0000
0000
0000
0000
0000
0000
0000
0000
0000
0000
0000
0000
0000
0000
0000
0000
0000
0000
3200
0000
0000
0000
0000
0000
0000
0000
0000
0000
0000
0000
0000
0000
0000
0000
0000
0000
0000
0000
0000
0000
0000
0000
,
0000
0000
0300
MMMM
,
0001
0000
0000
0010
0000
0000
0100
0000
0010
0000
0000
0000
0110
0000
0000
0000
,
0001
0000
1000
0000
0000
0010
0000
0000
0100
0000
0000
0000
0101
0000
0000
0000
,
1000
0000
0000
0100
0000
0000
0010
0000
0100
0000
0000
0010
0000
0000
0001
0000
,
1000
0000
0010
0000
1000
0000
0000
0001
0000
0000
0100
0000
0010
0000
0000
0000
,
1000
0000
0000
0010
0000
0000
0100
0000
0010
0000
0000
0000
0110
0000
0000
0000
,
1000
0000
0001
0000
0000
0010
0000
0000
0100
0000
1000
0000
1001
0000
0000
0000
,
1000
0010
0100
0002
0000
0003
1000
0100
,
0010
0002
0000
0003
1000
0010
0100
0001
,
0101
0000
0000
0100
0000
0000
0010
0000
1000
0000
0010
0000
0100
0000
0001
0000
,
1000
0000
0001
0000
0000
0010
0000
0000
0100
0000
1000
0000
0001
0000
0100
0000
,
0001
0000
0000
0010
0000
0000
0100
0000
0010
0000
0000
0100
0000
0000
1000
0000
,
0001
0000
0100
0000
0001
0000
0000
1000
0000
0000
0010
0000
0100
0000
0001
0000
,
1000
0000
0000
0100
0000
0000
0010
0000
0001
0000
1000
0000
0010
0000
0100
0000
,
0001
0000
1000
0000
0000
0100
0000
0000
0010
0000
0100
0000
1000
0000
0001
0000
,
1000
0100
0010
0001
1000
0010
0100
0001
,
1000
0100
0010
0100
0001
1000
0010
0100
,
2000
0000
0000
0000
,
3000
0000
0001
0000
0000
1000
0000
0000
1001
0000
0000
0000
MMMM
0000
0000
0000
,
0011
0000
0000
0010
0000
0000
0100
0000
1000
0000
0001
0000
0100
0000
0010
0000
,
1000
0000
0001
0000
0000
MMMM
0000
0000
0100
0000
1000
0000
0100
0000
0010
0000
,
0110
0000
0000
1000
0000
0000
0010
0000
0100
0000
0000
0001
0000
0000
0010
0000
,
0100
0000
1000
0000
0001
0000
0000
MMMM
0000
0000
0010
0000
0100
0000
0001
0000
,
0101
0000
0000
1000
0000
0000
0100
0000
0010
0000
0001
0000
0100
0000
0010
0000
,
1000
0000
0001
0000
0000
MMMM
0000
0000
0010
0000
1000
0000
0010
0000
0100
0000
,
0220
0330
0001
2000
0100
0000
3001
1000
,
0100
0020
0001
0000
0130
0010
0001
1000
,
1010
0000
0000
0010
0000
0000
0100
0000
0001
0000
1000
0000
0100
0000
0010
0000
,
0001
0000
1000
0000
0000
MMMM
0000
0000
0100
0000
0001
0000
0100
0000
0010
0000
,
0110
0000
0000
0001
0000
0000
0010
0000
0100
0000
0000
1000
0000
0000
0010
0000
,
0100
0000
0001
0000
1000
0000
0000
MMMM
0000
0000
0010
0000
0100
0000
1000
0000
,
1100
0000
0000
0001
0000
0000
0100
0000
0010
0000
1000
0000
0100
0000
0010
0000
,
0001
0000
1000
0000
0000
MMMM
0000
0000
0010
0000
0001
0000
0010
0000
0100
0000
,
0220
0330
1000
0002
0100
0000
1003
0001
,
0100
0010
0001
0010
1000
0100
0010
0001
,
2000
3000
0000
0000
0000
0000
0000
0000
0000
0000
0000
0000
0000
0000
0000
0000
0000
0000
0000
0000
0000
0000
0000
0000
0020
0030
0000
0000
0000
0000
0000
0000
0000
0000
0000
0000
0000
0000
0000
0000
0000
0000
0000
0000
0000
0000
0000
0000
0002
0003
0000
0000
0000
0000
0000
0000
0000
0000
0000
0000
0000
0000
0000
0000
0000
0000
0000
0000
0000
0000
0000
0000
MMMM
0000
0000
0000
0000
0000
0000
0000
0000
0000
0000
0000
0000
0000
0000
0000
0000
0000
0000
0000
0000
0000
0000
0000
,
0200
0300
0000
0000
0000
0000
0000
0000
0000
0000
0000
0000
0000
0000
0000
0000
0000
0000
0000
0000
0000
0000
0000
0000
MMMM
0000
0000
0000
0000
0000
0000
0000
0000
0000
0000
0000
0000
0000
0000
0000
0000
0000
0000
0000
0000
0000
0000
0000
2000
3000
0000
0000
0000
0000
0000
0000
0000
0000
0000
0000
0000
0000
0000
0000
0000
0000
0000
0000
0000
0000
0000
0000
MMMM
0000
0000
0000
0000
0000
0000
0000
0000
0000
0000
0000
0000
0000
0000
0000
0000
0000
0000
0000
0000
0000
0000
0000
,
0020
0030
0000
0000
0000
0000
0000
0000
0000
0000
0000
0000
0000
0000
0000
0000
0000
0000
0000
0000
0000
0000
0000
0000
MMMM
0000
0000
0000
0000
0000
0000
0000
0000
0000
0000
0000
0000
0000
0000
0000
0000
0000
0000
0000
0000
0000
0000
0000
2002
0003
0000
0000
0000
0000
0000
0000
0000
0000
0000
0000
0000
0000
0000
0000
0000
0000
0000
0000
0000
0000
0000
0000
0000
0000
0000
0000
0000
0000
0000
0000
0000
0000
0000
0000
3000
0000
0000
0000
0000
0000
0000
0000
0000
0000
0000
0000
,
0001
0010
0100
0010
1000
0001
0100
0010
,
0001
0100
0010
0100
1000
0001
0010
0100
,
0010
MMMM
2002
0000
,
0000
0000
0000
0000
,
0000
0000
0000
0000
,
0000
0000
0000
0000
,
3003
0000
0000
0000
,
0000
0000
0000
0000
;
#NOTES:
     dance-single:
     :
     Hard:
     16:
     :
0000
0000
0000
0000
,
0000
0000
0000
0000
,
0000
0000
0000
0000
,
0000
0000
0000
0000
,
0000
0000
0000
0000
,
MMMM
MMMM
MMMM
MMMM
,
MMMM
MMMM
MMMM
MMMM
,
2000
3000
0000
0000
0000
0000
0000
0000
0000
0000
0000
0000
0100
0000
0000
0000
0000
0000
0000
0000
0000
0000
0000
0000
0020
0030
0000
0000
0000
0000
0000
0000
0000
0000
0000
0000
0001
0000
0000
0000
0000
0000
0000
0000
0000
0000
0000
0000
0002
0003
0000
0000
0000
0000
0000
0000
0000
0000
0000
0000
0000
0000
0000
0000
0000
0000
0000
0000
0000
0000
0000
0000
0200
0300
0000
0000
0000
0000
0000
0000
0000
0000
0000
0000
0000
0000
0000
0000
0000
0000
0000
0000
0000
0000
0000
0000
,
2000
3000
0000
0000
0000
0000
0000
0000
0000
0000
0000
0000
0100
0000
0000
0000
0000
0000
0000
0000
0000
0000
0000
0000
0020
0030
0000
0000
0000
0000
0000
0000
0000
0000
0000
0000
1000
0000
0000
0000
0000
0000
0000
0000
0000
0000
0000
0000
0002
0003
0000
0000
0000
0000
0000
0000
0000
0000
0000
0000
0010
0000
0000
0000
0000
0000
0000
0000
0000
0000
0000
0000
0200
0300
0000
0000
0000
0000
0000
0000
0000
0000
0000
0000
1000
0000
0000
0000
0000
0000
0000
0000
0000
0000
0000
0000
,
2000
3000
0000
0000
0000
0000
0000
0000
0000
0000
0000
0000
0100
0000
0000
0000
0000
0000
0000
0000
0000
0000
0000
0000
0020
0030
0000
0000
0000
0000
0000
0000
0000
0000
0000
0000
0001
0000
0000
0000
0000
0000
0000
0000
0000
0000
0000
0000
0002
0003
0000
0000
0000
0000
0000
0000
0000
0000
0000
0000
0000
0000
0000
0000
0000
0000
0000
0000
0000
0000
0000
0000
0200
0300
0000
0000
0000
0000
0000
0000
0000
0000
0000
0000
0000
0000
0000
0000
0000
0000
0000
0000
0000
0000
0000
0000
,
2000
3000
0000
0000
0000
0000
0000
0000
0000
0000
0000
0000
0001
0000
0000
0000
0000
0000
0000
0000
0000
0000
0000
0000
0020
0030
0000
0000
0000
0000
0000
0000
0000
0000
0000
0000
0100
0000
0000
0000
0000
0000
0000
0000
0000
0000
0000
0000
0002
0003
0000
0000
0000
0000
0000
0000
0000
0000
0000
0000
0010
0000
0000
0000
0000
0000
0000
0000
0000
0000
0000
0000
0200
0300
0000
0000
0000
0000
0000
0000
0000
0000
0000
0000
0000
0000
0000
0000
0000
0000
0000
0000
0000
0000
0000
0000
,
0110
0000
0100
0000
0010
0100
0000
0010
0001
0000
0010
0001
0000
0010
0001
0000
,
1000
0000
0001
1000
0001
1000
0001
0000
1000
0010
0000
1000
0010
0000
1000
0010
,
0100
0010
0100
0010
0100
0001
0100
0001
1000
0001
1000
0001
1000
0100
1000
0100
,
0020
0000
0000
0000
0000
0000
0000
0000
0000
0000
0030
0100
1000
0000
MMMM
0000
,
0022
0000
0033
MMMM
2020
0000
3030
MMMM
,
0202
0000
0000
0000
0303
0000
MMMM
0000
1000
0000
0000
0100
0010
0000
MMMM
0000
,
2200
0000
3300
MMMM
0022
0000
0033
MMMM
,
0220
0000
0000
0000
0330
0000
MMMM
0000
0001
0000
0000
0100
0010
0000
MMMM
0000
,
2200
0000
3300
MMMM
0202
0000
0303
MMMM
,
2002
0000
0000
0000
3003
0000
MMMM
0000
1000
0000
0000
0100
0010
0000
MMMM
0000
,
2002
0000
3003
MMMM
0220
0000
0330
MMMM
,
0000
0000
1000
0001
0100
0001
0100
0001
1000
0100
1000
0100
0020
0000
0030
0000
,
0011
0010
0200
1300
MMMM
0010
0001
MMMM
,
0021
0000
0230
0300
MMMM
0001
1000
MMMM
,
2010
3010
0200
0301
MMMM
0010
1000
MMMM
,
1020
0000
0230
0300
MMMM
1000
0001
MMMM
,
1010
1000
0002
0103
MMMM
1000
0010
MMMM
,
2010
0000
3002
0003
MMMM
0100
1000
MMMM
,
1100
0100
0020
0031
MMMM
0100
1000
MMMM
,
1020
0000
0000
0000
0230
0000
0300
0000
MMMM
0000
0000
1000
0001
0000
MMMM
0000
,
0011
0010
0200
1300
MMMM
1001
0201
0000
,
0320
0030
1010
1000
1010
0010
0200
0301
,
MMMM
1001
1200
0300
0120
0030
0012
0003
,
0011
0000
0010
0000
0200
0000
1300
0000
0001
1000
0001
1000
0001
0000
MMMM
0000
,
2000
3000
0000
0000
0000
0000
0100
0000
0000
0000
0000
0000
1000
0000
0000
0000
0000
0000
0100
0000
0000
0000
0000
0000
0020
0030
0000
0000
0000
0000
0100
0000
0000
0000
0000
0000
0010
0000
0000
0000
0000
0000
0000
0000
0000
0000
0000
0000
0002
0003
0000
0000
0000
0000
0010
0000
0000
0000
0000
0000
0001
0000
0000
0000
0000
0000
0010
0000
0000
0000
0000
0000
0200
0300
0000
0000
0000
0000
0000
0000
0000
0000
0000
0000
MMMM
0000
0000
0000
0000
0000
0000
0000
0000
0000
0000
0000
,
2001
3000
0000
0000
0000
0000
0000
0000
0000
0000
0000
0000
1000
0000
0000
0000
0000
0000
0000
0000
0000
0000
0000
0000
0020
0030
0000
0000
0000
0000
0000
0000
0000
0000
0000
0000
0100
0000
0000
0000
0000
0000
0000
0000
0000
0000
0000
0000
0002
0003
0000
0000
0000
0000
1000
0000
0000
0000
0000
0000
0001
0000
0000
0000
0000
0000
1000
0000
0000
0000
0000
0000
0200
0300
0000
0000
0000
0000
0000
0000
0000
0000
0000
0000
0010
0000
0000
0000
0000
0000
0000
0000
0000
0000
0000
0000
,
2000
3000
0000
0000
0000
0000
0000
0000
0000
0000
0000
0000
0010
0000
0000
0000
0000
0000
0001
0000
0000
0000
0000
0000
0020
0030
0000
0000
0000
0000
0001
0000
0000
0000
0000
0000
0010
0000
0000
0000
0000
0000
0000
0000
0000
0000
0000
0000
0002
0003
0000
0000
0000
0000
1000
0000
0000
0000
0000
0000
0001
0000
0000
0000
0000
0000
1000
0000
0000
0000
0000
0000
0200
0300
0000
0000
0000
0000
0000
0000
0000
0000
0000
0000
0020
0000
0000
0000
0000
0000
0000
0000
0000
0000
0000
0000
,
2000
0000
0000
0000
0000
0000
0000
0000
0000
0000
0000
0000
0000
0000
0000
0000
0030
0000
0000
0000
0000
0000
0000
0000
0000
3020
0032
0203
0000
0000
0300
0000
,
0102
0000
1000
0000
0023
0100
0001
0000
,
2030
0000
3002
0000
0203
0010
1300
MMMM
,
1000
0000
0010
0000
0100
0001
0000
0001
0100
0000
0001
0000
0010
0000
0100
0000
,
1000
0100
1000
0000
0010
0000
0100
0000
0001
0010
0001
0000
1000
0000
MMMM
0000
,
1100
0000
0100
0010
0011
0000
1001
0000
,
1010
1000
0010
0100
0001
0100
0010
MMMM
,
0010
1000
1100
0000
0010
0001
0101
0000
,
0010
0100
0001
1000
0001
0100
0010
1000
,
0001
0010
0100
1000
0100
0010
0100
0010
,
2000
3000
0000
0000
0000
0000
0000
0000
0000
0000
0000
0000
0000
0000
0000
0000
0000
0000
0000
0000
0000
0000
0000
0000
0020
0030
0000
0000
0000
0000
0000
0000
0000
0000
0000
0000
0000
0000
0000
0000
0000
0000
0000
0000
0000
0000
0000
0000
0002
0000
0000
0000
0000
0000
0000
0000
0000
0000
0000
0000
0000
0000
0000
0000
0000
0000
0000
0000
0000
0000
0000
0000
0200
0000
0000
0000
0000
0000
0000
0000
0000
0000
0000
0000
0000
0000
0000
0000
0000
0000
0000
0000
0000
0000
0000
0000
,
0000
0000
0000
0000
0303
MMMM
MMMM
MMMM
,
0011
0000
0000
0010
0000
0000
0100
0000
1000
0000
0001
0000
0100
0000
0010
0000
,
0100
0000
1000
0000
0000
0001
0000
0000
0010
0000
1000
0000
0001
0000
0100
0000
,
0010
0000
0000
0100
0000
0000
0001
0000
0010
0000
0000
0100
0000
0000
1000
0000
,
0001
0000
0100
0000
0010
0000
0000
0001
0000
0000
1000
0000
0100
0000
0010
0000
,
1000
0000
0000
0010
0000
0000
0100
0000
0001
0000
1000
0000
0100
0000
0010
0000
,
0100
0000
0001
0000
0000
1000
0000
0000
0010
0000
0001
0000
0100
0000
1000
0000
,
0001
0010
1000
0200
0000
0000
0301
1000
,
0010
0002
0000
0000
0103
0010
1000
0001
,
0011
0000
0010
0001
0000
0100
0001
0000
1000
0000
0001
1000
0100
0000
1000
0000
,
1001
0000
1010
0000
0000
0101
0000
0000
0110
0000
0010
1000
0001
0000
0100
0000
,
0110
0000
0010
1000
0000
0100
0010
0000
0110
0000
0000
0001
0000
0000
0100
0000
,
0110
0000
0010
0000
1000
0010
0000
0100
0001
0000
1000
0001
1000
0000
0001
0000
,
0011
0000
0000
0010
0001
0000
0100
0000
1000
0000
0100
0000
0001
0000
0010
0000
,
0100
0000
1000
0000
0100
0010
0000
0000
1000
0000
0010
0000
0001
0000
0100
0000
,
1000
0000
0100
0000
0010
0000
1000
0000
0001
1000
0001
1000
0100
1000
0100
1000
,
0100
0010
0100
0010
0001
0010
0001
0010
0001
1000
0001
1000
0010
0100
0010
0100
,
0001
0000
0000
0010
0000
0000
0100
0000
1000
0000
0001
0000
0100
0000
0010
0000
,
0100
0000
0110
0000
MMMM
1010
0000
MMMM
1001
0000
1000
0100
0010
0000
MMMM
0000
,
0011
0000
0000
0010
0001
0000
0100
0000
1000
0000
0001
0000
0010
0000
1000
0000
,
0100
0000
0110
0000
MMMM
0011
0000
MMMM
1001
0000
1000
0000
0010
1000
0001
1000
,
0100
0000
0000
0010
0100
0000
0001
0000
0100
0000
0000
0010
0001
0000
1000
0000
,
0010
0000
1010
0000
0110
0000
MMMM
0101
0000
MMMM
1001
0000
0001
0000
1000
0001
,
1000
0000
0000
0010
1000
0000
0100
0000
0001
0000
1000
0000
0010
0000
0001
0000
,
0100
0000
0110
0000
MMMM
1010
0000
MMMM
1001
0000
0011
0000
0001
0010
0001
0010
,
0200
1300
0001
0020
0100
0031
1000
0002
,
0103
0000
0020
0000
0001
0000
0130
0000
0101
0000
0001
0000
1000
0001
1000
0001
,
1000
0000
0000
0010
1000
0000
0100
0000
0001
0000
1000
0000
0010
0000
0001
0000
,
0100
0000
0110
0000
MMMM
1010
0000
MMMM
1001
0000
0001
0000
0010
0001
1000
0001
,
0100
0000
0000
0010
0100
0000
1000
0000
0100
0000
0000
0010
1000
0000
0001
0000
,
0010
0000
0011
0000
0110
0000
MMMM
1100
0000
MMMM
1001
0000
1000
0000
0001
1000
,
0001
0000
1000
0010
1000
0000
0100
0000
1100
0000
0001
0000
1000
0000
0100
0000
,
0110
0000
0001
0000
0010
0001
1000
0000
1010
0000
0010
0000
0100
0010
0100
0010
,
0200
1300
0001
0020
0130
0010
1000
0001
,
1000
0100
1000
0100
0010
0001
0010
0001
1000
0001
0100
0001
1000
0010
0100
0010
,
2000
3000
0000
0000
0000
0000
0000
0000
0000
0000
0000
0000
MMMM
0000
0000
0000
0000
0000
0000
0000
0000
0000
0000
0000
0020
0030
0000
0000
0000
0000
0000
0000
0000
0000
0000
0000
0000
0000
0000
0000
0000
0000
0000
0000
0000
0000
0000
0000
0002
0003
0000
0000
0000
0000
0000
0000
0000
0000
0000
0000
0000
0000
0000
0000
0000
0000
0000
0000
0000
0000
0000
0000
0200
0300
0000
0000
0000
0000
0000
0000
0000
0000
0000
0000
0000
0000
0000
0000
0000
0000
0000
0000
0000
0000
0000
0000
,
2000
3000
0000
0000
0000
0000
0000
0000
0000
0000
0000
0000
MMMM
0000
0000
0000
0000
0000
0000
0000
0000
0000
0000
0000
MMMM
0000
0000
0000
0000
0000
0000
0000
0000
0000
0000
0000
MMMM
0000
0000
0000
0000
0000
0000
0000
0000
0000
0000
0000
0020
0030
0000
0000
0000
0000
0000
0000
0000
0000
0000
0000
MMMM
0000
0000
0000
0000
0000
0000
0000
0000
0000
0000
0000
MMMM
0000
0000
0000
0000
0000
0000
0000
0000
0000
0000
0000
0000
0000
0000
0000
0000
0000
0000
0000
0000
0000
0000
0000
,
0002
0000
0003
0000
0000
0000
0000
0000
0000
0000
0000
0000
0000
0000
0000
0000
0000
0000
0000
0000
0000
0000
0000
0000
MMMM
0000
0000
0000
0000
0000
0000
0000
0000
0000
0000
0000
0000
0000
0000
0000
0000
0000
0000
0000
0000
0000
0000
0000
0000
0000
0000
0000
0000
0000
0000
0000
0000
0000
0000
0000
0000
0000
0000
0000
0000
0000
0000
0000
0000
0000
0000
0000
0000
0000
0000
0000
0000
0000
0000
0000
0000
0000
0000
0000
0000
0000
0000
0000
0000
0000
0000
0000
0000
0000
0000
0000
2200
0000
0000
0300
0000
0000
0000
0000
0000
0000
0000
0000
0000
0000
0000
0000
0000
0000
0000
0000
0000
0000
0000
0000
0000
0000
0000
0000
0000
0000
0000
0000
0000
0000
0000
0000
0000
0000
0000
0000
0000
0000
0000
0000
0000
0000
0000
0000
0000
0000
0000
0000
0000
0000
0000
0000
0000
0000
0000
0000
0000
0000
0000
0000
0000
0000
0000
0000
0000
0000
0000
0000
3000
0000
0000
0000
0000
0000
0000
0000
0000
0000
0000
0000
0000
0000
0000
0000
0000
0000
0000
0000
0000
0000
0000
0000
,
0001
0100
0001
0100
0010
0100
0010
0100
0010
1000
0010
1000
0001
1000
0001
1000
,
0001
0010
0001
0010
0100
0010
0100
0010
0001
0010
0100
1000
0001
0100
0010
1000
,
0001
MMMM
0220
0000
,
0000
0000
0000
0000
,
0000
0000
0000
0000
,
0000
0000
0000
0000
,
0330
0000
0000
0000
,
0000
0000
0000
0000
;
#NOTES:
     dance-double:
     :
     Easy:
     7:
     :
00000000
00000000
00000000
00000000
,
00000000
00000000
00000000
00000000
,
00000000
00000000
00000000
00000000
,
00000000
00000000
00000000
00000000
,
00000000
00000000
00000000
00000000
,
00000000
00000000
00000000
00000000
,
00000000
00000000
00000000
00000000
,
20000000
00000000
00100000
00000000
,
00010000
00000000
01000000
00000000
,
30020000
00000000
00100000
00000000
,
00032000
00000000
00000100
00000000
,
00003001
00000100
00000010
00000010
,
00001000
00000100
00010000
00010000
,
00001000
00010000
00100000
10000000
,
00020000
00000000
00000000
00030000
,
20000000
30000000
20000000
30000000
,
20000000
30000000
01000000
00010000
,
00002000
00003000
00002000
00003000
,
00002000
00003000
00100000
00001000
,
00020000
00030000
00020000
00030000
,
00020000
00030000
00001000
00000100
,
00000002
00000003
00000002
00000003
,
00000000
00000010
00000001
00000100
,
00001000
00020000
00030000
00001000
,
00100000
00020000
00030000
10000000
,
00100000
20000000
30000000
00100000
,
10000000
00020000
00030000
00100000
,
00100000
00002000
00003000
00010000
,
00000010
00002000
00003000
00000001
,
00000100
00000020
00000030
00000100
,
00001000
00020000
00000000
00030000
,
00001000
00010000
00000000
00100000
,
10000000
01000000
00010000
00001000
,
00000000
00000010
00000001
00001000
,
00000002
00000000
00000100
00000000
,
00002003
00000000
00000010
00000000
,
00023000
00000000
01000000
00000000
,
20030000
00000000
00100000
00000000
,
00020000
00000000
30030000
20000000
,
30200000
00000000
00320000
00000000
,
00032000
00003020
00000032
00000003
,
00001000
00000000
00000010
00000000
00000100
00000001
00000100
00000000
,
00000001
00000010
00001000
00010000
,
00010100
00000000
00000100
00010000
,
00011000
00000000
01001000
00000000
,
00001000
00000000
01000000
00000000
,
00010000
00010000
00010000
00000000
,
00100000
00000000
01000000
00000000
,
20000000
00000000
00000000
00020000
,
00000000
00000000
30030000
00000000
,
10000000
00100000
01000000
00000000
,
00100000
00010000
00001000
00000000
,
00020000
00030000
00000020
00000030
,
00001000
00000010
00000100
00000000
,
00000001
00000010
00000100
00000000
,
00000010
00001000
00010000
00000000
,
00100000
20000000
30000000
01000000
,
00020000
00030000
00001000
00000010
,
00000001
00000010
00000100
00001000
,
00000002
00000003
00000200
00000300
,
00000010
00000100
00001000
00010000
,
00200000
00300000
01000000
00010000
,
10000000
10000000
01000000
01000000
,
00100000
00100000
00010000
00010000
,
00001000
00000100
00000010
00000001
,
00000100
00000010
00001000
00000100
,
00020000
00000000
00000000
00030000
,
00000000
00001000
00000000
00000000
00101000
00000000
00100000
00000000
,
00010000
00100000
01000000
10000000
,
00010000
01000000
00001000
00001000
,
00010000
00001000
00000010
00000001
,
00000100
00000001
00000001
00000000
,
00001000
00000010
00000100
00000001
,
00001000
00000100
00010000
00010000
,
00001000
00002000
00003000
00100000
,
00200000
00300000
00020000
00030000
,
10000000
00100000
01000000
00010000
,
00100000
00001000
00010000
00010000
,
00001000
00010000
00000010
00001000
,
00000001
00000010
00000010
00000000
,
00000001
00000010
00000100
00001000
,
00000010
00010000
00001000
01000000
,
00010000
00020000
00030000
00100000
,
00200000
00300000
01000000
10000000
,
00020000
00000000
00100000
00000000
,
00032000
00000000
00000100
00000000
,
00003001
00000000
00001000
00000000
,
00000001
00000100
00001000
00010000
,
00100000
10000000
01000000
00010000
,
00001000
00000000
00022000
00000000
,
00000000
00000000
00000000
00000000
,
00000000
00000000
00000000
00000000
,
00000000
00000000
00000000
00000000
,
00033000
00000000
00000000
00000000
,
00000000
00000000
00000000
00000000
;
#NOTES:
     dance-double:
     :
     Medium:
     13:
     :
00000000
00000000
00000000
00000000
,
00000000
00000000
00000000
00000000
,
00000000
00000000
00000000
00000000
,
00000000
00000000
00000000
00000000
,
00000000
00000000
00000000
00000000
,
MMMMMMMM
00000000
00000000
00000000
,
MMMMMMMM
00000000
00000000
00000000
,
20000000
00000000
00000000
00000000
00000000
00000000
00000000
00000000
00000000
00000000
00000000
00000000
00000000
00000000
00000000
00000000
00000000
00000000
00000000
00000000
00000000
00000000
00000000
00000000
00200000
00300000
00000000
00000000
00000000
00000000
00000000
00000000
00000000
00000000
00000000
00000000
00000000
00000000
00000000
00000000
00000000
00000000
00000000
00000000
00000000
00000000
00000000
00000000
00020000
00030000
00000000
00000000
00000000
00000000
00000000
00000000
00000000
00000000
00000000
00000000
00000000
00000000
00000000
00000000
00000000
00000000
00000000
00000000
00000000
00000000
00000000
00000000
02000000
03000000
00000000
00000000
00000000
00000000
00000000
00000000
00000000
00000000
00000000
00000000
00000000
00000000
00000000
00000000
00000000
00000000
00000000
00000000
00000000
00000000
00000000
00000000
,
30020000
00000000
00000000
00000000
00000000
00000000
00000000
00000000
00000000
00000000
00000000
00000000
00000000
00000000
00000000
00000000
00000000
00000000
00000000
00000000
00000000
00000000
00000000
00000000
02000000
03000000
00000000
00000000
00000000
00000000
00000000
00000000
00000000
00000000
00000000
00000000
00000000
00000000
00000000
00000000
00000000
00000000
00000000
00000000
00000000
00000000
00000000
00000000
20000000
30000000
00000000
00000000
00000000
00000000
00000000
00000000
00000000
00000000
00000000
00000000
00000000
00000000
00000000
00000000
00000000
00000000
00000000
00000000
00000000
00000000
00000000
00000000
00200000
00300000
00000000
00000000
00000000
00000000
00000000
00000000
00000000
00000000
00000000
00000000
00000000
00000000
00000000
00000000
00000000
00000000
00000000
00000000
00000000
00000000
00000000
00000000
,
00032000
00000000
00000000
00000000
00000000
00000000
00000000
00000000
00000000
00000000
00000000
00000000
00000000
00000000
00000000
00000000
00000000
00000000
00000000
00000000
00000000
00000000
00000000
00000000
00000200
00000300
00000000
00000000
00000000
00000000
00000000
00000000
00000000
00000000
00000000
00000000
00000000
00000000
00000000
00000000
00000000
00000000
00000000
00000000
00000000
00000000
00000000
00000000
00000002
00000003
00000000
00000000
00000000
00000000
00000000
00000000
00000000
00000000
00000000
00000000
00000000
00000000
00000000
00000000
00000000
00000000
00000000
00000000
00000000
00000000
00000000
00000000
00000020
00000030
00000000
00000000
00000000
00000000
00000000
00000000
00000000
00000000
00000000
00000000
00000000
00000000
00000000
00000000
00000000
00000000
00000000
00000000
00000000
00000000
00000000
00000000
,
00003002
00000000
00000000
00000000
00000000
00000000
00000000
00000000
00000000
00000000
00000000
00000000
00000000
00000000
00000000
00000000
00000000
00000000
00000000
00000000
00000000
00000000
00000000
00000000
00000200
00000300
00000000
00000000
00000000
00000000
00000000
00000000
00000000
00000000
00000000
00000000
00000000
00000000
00000000
00000000
00000000
00000000
00000000
00000000
00000000
00000000
00000000
00000000
00002000
00003000
00000000
00000000
00000000
00000000
00000000
00000000
00000000
00000000
00000000
00000000
00000000
00000000
00000000
00000000
00000000
00000000
00000000
00000000
00000000
00000000
00000000
00000000
00000023
00000030
00000000
00000000
00000000
00000000
00000000
00000000
00000000
00000000
00000000
00000000
00000000
00000000
00000000
00000000
00000000
00000000
00000000
00000000
00000000
00000000
00000000
00000000
,
00000001
00000000
00001000
00000000
00000000
00000100
00000000
00000000
00010000
00000000
00000000
00000100
00000000
00000000
00010000
00000000
,
00001000
00000000
01000000
00000000
00001000
00000000
01000000
00000000
00010000
00000000
00000000
10000000
00000000
00000000
00010000
00000000
,
10000000
01000000
00010000
00001000
00010000
00001000
00000010
00000001
,
00000200
00000000
00000000
00000000
00000000
00000000
00000000
00000000
00000300
00000000
00000000
00000000
MMMMMMMM
MMMMMMMM
MMMMMMMM
00000000
,
00002000
00000000
00003000
MMMMMMMM
00020000
00000000
00030000
MMMMMMMM
,
00002000
00000000
00000000
00000000
00003000
00000000
MMMMMMMM
00000000
00001001
00000000
00000000
00000000
MMMMMMMM
MMMMMMMM
MMMMMMMM
00000000
,
00000002
00000000
00000003
MMMMMMMM
00000200
00000000
00000300
MMMMMMMM
,
00002000
00000000
00000000
00000000
00003000
00000000
MMMMMMMM
00000000
00011000
00000000
00000000
00000000
MMMMMMMM
MMMMMMMM
MMMMMMMM
00000000
,
00020000
00000000
00030000
MMMMMMMM
02000000
00000000
03000000
MMMMMMMM
,
20000000
00000000
00000000
00000000
30000000
00000000
MMMMMMMM
00000000
10010000
00000000
00000000
00000000
MMMMMMMM
MMMMMMMM
MMMMMMMM
00000000
,
00020000
00000000
00030000
MMMMMMMM
00002000
00000000
00003000
MMMMMMMM
,
00000000
00011000
00002000
00003000
00010000
00001000
00000020
00000030
,
00000001
00000100
00001000
00010000
00000000
MMMMMMMM
00010000
00000000
,
00021000
00000000
00230000
00300000
00000000
MMMMMMMM
00100000
00000000
,
10000000
01000000
00010000
00001000
00000000
MMMMMMMM
00001000
00000000
,
00012000
00000000
00003020
00000030
00000000
MMMMMMMM
00000010
00000000
,
00000001
00001000
00000100
00010000
00000000
MMMMMMMM
00010000
00000000
,
00021000
00000000
02030000
03000000
00000000
MMMMMMMM
01000000
00000000
,
10000000
00100000
00010000
00001000
00000000
MMMMMMMM
00001000
00000000
,
00020100
00000000
00000000
00000000
00002000
00000000
00000000
00000000
00033000
00000000
00000000
00000000
MMMMMMMM
MMMMMMMM
MMMMMMMM
00000000
,
00010000
00001000
00000010
00000001
00000000
MMMMMMMM
00000002
00000000
,
00000203
00000000
00001300
MMMMMMMM
00001000
00010000
00100000
10000000
,
00000000
MMMMMMMM
20000000
00000000
32000000
00000000
03010000
00000000
,
00010000
00001000
00100000
00010000
10000000
00100000
02000000
03000000
,
20000000
30000000
00000000
00000000
00000000
00000000
00000000
00000000
00000000
00000000
00000000
00000000
01000000
00000000
00000000
00000000
00000000
00000000
00000000
00000000
00000000
00000000
00000000
00000000
00200000
00300000
00000000
00000000
00000000
00000000
00000000
00000000
00000000
00000000
00000000
00000000
00000000
00000000
00000000
00000000
00000000
00000000
00000000
00000000
00000000
00000000
00000000
00000000
00020000
00030000
00000000
00000000
00000000
00000000
00000000
00000000
00000000
00000000
00000000
00000000
00001000
00000000
00000000
00000000
00000000
00000000
00000000
00000000
00000000
00000000
00000000
00000000
02000000
03000000
00000000
00000000
00000000
00000000
00000000
00000000
00000000
00000000
00000000
00000000
00000000
00000000
00000000
00000000
00000000
00000000
00000000
00000000
00000000
00000000
00000000
00000000
,
00002000
00003000
00000000
00000000
00000000
00000000
00000000
00000000
00000000
00000000
00000000
00000000
00010000
00000000
00000000
00000000
00000000
00000000
00000000
00000000
00000000
00000000
00000000
00000000
00000020
00000030
00000000
00000000
00000000
00000000
00000000
00000000
00000000
00000000
00000000
00000000
00000000
00000000
00000000
00000000
00000000
00000000
00000000
00000000
00000000
00000000
00000000
00000000
00000002
00000003
00000000
00000000
00000000
00000000
00000000
00000000
00000000
00000000
00000000
00000000
00000010
00000000
00000000
00000000
00000000
00000000
00000000
00000000
00000000
00000000
00000000
00000000
00000200
00000300
00000000
00000000
00000000
00000000
00000000
00000000
00000000
00000000
00000000
00000000
00000000
00000000
00000000
00000000
00000000
00000000
00000000
00000000
00000000
00000000
00000000
00000000
,
00002000
00003000
00000000
00000000
00000000
00000000
00000000
00000000
00000000
00000000
00000000
00000000
00000001
00000000
00000000
00000000
00000000
00000000
00000000
00000000
00000000
00000000
00000000
00000000
00000020
00000030
00000000
00000000
00000000
00000000
00000000
00000000
00000000
00000000
00000000
00000000
00000100
00000000
00000000
00000000
00000000
00000000
00000000
00000000
00000000
00000000
00000000
00000000
00000002
00000003
00000000
00000000
00000000
00000000
00000000
00000000
00000000
00000000
00000000
00000000
00001000
00000000
00000000
00000000
00000000
00000000
00000000
00000000
00000000
00000000
00000000
00000000
00000200
00000300
00000000
00000000
00000000
00000000
00000000
00000000
00000000
00000000
00000000
00000000
00000000
00000000
00000000
00000000
00000000
00000000
00000000
00000000
00000000
00000000
00000000
00000000
,
00020000
00000000
00000000
00000000
00000000
00000000
00032000
00003000
,
02001000
00010000
03200000
01000000
,
20300000
00000000
32000000
00000000
03020000
00031000
MMMMMMMM
00000000
,
00001000
00010000
00000100
00001000
00000100
00000010
00000001
00000000
,
00001000
00000010
00001000
00000000
00000100
00000000
MMMMMMMM
00000000
,
00001100
00000000
00000001
00000100
00001000
00000000
00011000
00000000
,
00001000
01000000
00010000
01000000
00100000
00000000
MMMMMMMM
00000000
,
00010000
00000000
01000000
00000000
10000000
01000000
00010000
00000000
,
00100000
00001000
00010000
00000100
00010000
00001000
01000000
00000000
,
00001000
00010000
00001000
00010000
00000010
00001000
00000010
00000000
,
00002000
00000000
00000000
00000000
00000000
00000000
00000000
00000000
00000000
00000000
00000000
00000000
00000000
00000000
00000000
00000000
00000000
00000000
00000000
00000000
00000000
00000000
00000000
00000000
00000020
00000030
00000000
00000000
00000000
00000000
00000000
00000000
00000000
00000000
00000000
00000000
00000000
00000000
00000000
00000000
00000000
00000000
00000000
00000000
00000000
00000000
00000000
00000000
00000002
00000003
00000000
00000000
00000000
00000000
00000000
00000000
00000000
00000000
00000000
00000000
00000000
00000000
00000000
00000000
00000000
00000000
00000000
00000000
00000000
00000000
00000000
00000000
00003200
00000000
00000000
00000000
00000000
00000000
00000000
00000000
00000000
00000000
00000000
00000000
00000000
00000000
00000000
00000000
00000000
00000000
00000000
00000000
00000000
00000000
00000000
00000000
,
00000000
00000000
00000300
MMMMMMMM
,
00000001
00000000
00000000
00000010
00000000
00000000
00000100
00000000
00001000
00000000
00000000
00000000
00010100
00000000
00000000
00000000
,
00010000
00000000
00001000
00000000
00000000
00100000
00000000
00000000
00010000
00000000
00000000
00000000
10010000
00000000
00000000
00000000
,
10000000
00000000
00000000
01000000
00000000
00000000
00100000
00000000
01000000
00000000
00000000
00010000
00000000
00000000
00001000
00000000
,
00010000
00000000
00000010
00000000
00001000
00000000
00000000
00000001
00000000
00000000
00000100
00000000
00001000
00000000
00000000
00000000
,
00010000
00000000
00000000
00000010
00000000
00000000
00001000
00000000
00000100
00000000
00000000
00000000
00010100
00000000
00000000
00000000
,
00010000
00000000
00001000
00000000
00000000
00100000
00000000
00000000
00010000
00000000
10000000
00000000
00010000
00000000
00000000
00000000
,
10000000
01000000
00100000
00020000
00000000
00030000
00001000
00000100
,
00000010
00000002
00000000
00000003
00000100
00001000
00010000
00000000
,
00011000
00000000
00000000
00001000
00000000
00000000
01000000
00000000
00010000
00000000
10000000
00000000
00100000
00000000
00010000
00000000
,
00001000
00000000
00100000
00000000
00000000
00010000
00000000
00000000
00001000
00000000
00000100
00000000
00000010
00000000
00000001
00000000
,
00001000
00000000
00000000
00000100
00000000
00000000
00000010
00000000
00001000
00000000
00000000
00010000
00000000
00000000
00100000
00000000
,
01000000
00000000
00010000
00000000
00100000
00000000
00000000
00001000
00000000
00000000
00010000
00000000
00100000
00000000
10000000
00000000
,
10000000
00000000
00000000
00100000
00000000
00000000
01000000
00000000
00010000
00000000
10000000
00000000
01000000
00000000
00010000
00000000
,
00001000
00000000
01000000
00000000
00000000
00010000
00000000
00000000
00001000
00000000
00000010
00000000
00000100
00000000
00000001
00000000
,
00001000
00000100
00000010
00000001
00000100
00001000
00010000
00100000
,
10000000
01000000
00100000
00010000
01000000
00100000
00010000
00001000
,
00020000
00000000
00000000
00000000
,
00030000
00000000
00001000
00000000
00000000
00000010
00000000
00000000
00000110
00000000
00000000
00000000
MMMMMMMM
00000000
00000000
00000000
,
00000011
00000000
00000000
00000010
00000000
00000000
00000100
00000000
00001000
00000000
00000001
00000000
00000100
00000000
00001000
00000000
,
00010000
00000000
00000010
00000000
00000000
MMMMMMMM
00000000
00000000
00000010
00000000
00010000
00000000
00001000
00000000
01000000
00000000
,
00010000
00000000
00000000
00100000
00000000
00000000
01000000
00000000
10000000
00000000
00000000
00100000
00000000
00000000
00010000
00000000
,
00001000
00000000
00100000
00000000
00001000
00000000
00000000
MMMMMMMM
00000000
00000000
00001000
00000000
00010000
00000000
00000100
00000000
,
00001100
00000000
00000000
00001000
00000000
00000000
00000100
00000000
00000010
00000000
00000001
00000000
00000100
00000000
00001000
00000000
,
00010000
00000000
00100000
00000000
00000000
MMMMMMMM
00000000
00000000
00100000
00000000
10000000
00000000
00010000
00000000
00100000
00000000
,
01000000
00010000
00001000
00000020
00000100
00000000
00000031
00000100
,
00001000
00020000
00000010
00000000
00031000
00010000
00100000
10000000
,
10100000
00000000
00000000
00100000
00000000
00000000
01000000
00000000
00010000
00000000
10000000
00000000
01000000
00000000
00010000
00000000
,
00001000
00000000
00100000
00000000
00000000
MMMMMMMM
00000000
00000000
00100000
00000000
00001000
00000000
00010000
00000000
00000100
00000000
,
00001000
00000000
00000000
00000010
00000000
00000000
00000100
00000000
00000001
00000000
00000000
00000010
00000000
00000000
00001000
00000000
,
00010000
00000000
00000100
00000000
00010000
00000000
00000000
MMMMMMMM
00000000
00000000
00010000
00000000
00001000
00000000
01000000
00000000
,
01010000
00000000
00000000
00010000
00000000
00000000
01000000
00000000
00100000
00000000
10000000
00000000
01000000
00000000
00010000
00000000
,
00001000
00000000
00000010
00000000
00000000
MMMMMMMM
00000000
00000000
00000010
00000000
00000001
00000000
00001000
00000000
00000010
00000000
,
00000100
00001000
00010000
00100000
01000000
00010000
10000000
01000000
,
00010000
00001000
00000010
00000001
00000100
00001000
00010000
00100000
,
20000000
30000000
00000000
00000000
00000000
00000000
00000000
00000000
00000000
00000000
00000000
00000000
00000000
00000000
00000000
00000000
00000000
00000000
00000000
00000000
00000000
00000000
00000000
00000000
00200000
00300000
00000000
00000000
00000000
00000000
00000000
00000000
00000000
00000000
00000000
00000000
00000000
00000000
00000000
00000000
00000000
00000000
00000000
00000000
00000000
00000000
00000000
00000000
00020000
00030000
00000000
00000000
00000000
00000000
00000000
00000000
00000000
00000000
00000000
00000000
00000000
00000000
00000000
00000000
00000000
00000000
00000000
00000000
00000000
00000000
00000000
00000000
MMMMMMMM
00000000
00000000
00000000
00000000
00000000
00000000
00000000
00000000
00000000
00000000
00000000
00000000
00000000
00000000
00000000
00000000
00000000
00000000
00000000
00000000
00000000
00000000
00000000
,
02000000
03000000
00000000
00000000
00000000
00000000
00000000
00000000
00000000
00000000
00000000
00000000
00000000
00000000
00000000
00000000
00000000
00000000
00000000
00000000
00000000
00000000
00000000
00000000
MMMMMMMM
00000000
00000000
00000000
00000000
00000000
00000000
00000000
00000000
00000000
00000000
00000000
00000000
00000000
00000000
00000000
00000000
00000000
00000000
00000000
00000000
00000000
00000000
00000000
20000000
30000000
00000000
00000000
00000000
00000000
00000000
00000000
00000000
00000000
00000000
00000000
00000000
00000000
00000000
00000000
00000000
00000000
00000000
00000000
00000000
00000000
00000000
00000000
MMMMMMMM
00000000
00000000
00000000
00000000
00000000
00000000
00000000
00000000
00000000
00000000
00000000
00000000
00000000
00000000
00000000
00000000
00000000
00000000
00000000
00000000
00000000
00000000
00000000
,
00200000
00300000
00000000
00000000
00000000
00000000
00000000
00000000
00000000
00000000
00000000
00000000
00000000
00000000
00000000
00000000
00000000
00000000
00000000
00000000
00000000
00000000
00000000
00000000
MMMMMMMM
00000000
00000000
00000000
00000000
00000000
00000000
00000000
00000000
00000000
00000000
00000000
00000000
00000000
00000000
00000000
00000000
00000000
00000000
00000000
00000000
00000000
00000000
00000000
00022000
00030000
00000000
00000000
00000000
00000000
00000000
00000000
00000000
00000000
00000000
00000000
00000000
00000000
00000000
00000000
00000000
00000000
00000000
00000000
00000000
00000000
00000000
00000000
00000000
00000000
00000000
00000000
00000000
00000000
00000000
00000000
00000000
00000000
00000000
00000000
00003000
00000000
00000000
00000000
00000000
00000000
00000000
00000000
00000000
00000000
00000000
00000000
,
00010000
00001000
00000010
00000001
00000100
00001000
00010000
00100000
,
10000000
01000000
00010000
00001000
00000010
00000001
00000100
00001000
,
00010000
MMMMMMMM
00022000
00000000
,
00000000
00000000
00000000
00000000
,
00000000
00000000
00000000
00000000
,
00000000
00000000
00000000
00000000
,
00033000
00000000
00000000
00000000
,
00000000
00000000
00000000
00000000
;
#NOTES:
     dance-double:
     :
     Hard:
     16:
     :
00000000
00000000
00000000
00000000
,
00000000
00000000
00000000
00000000
,
00000000
00000000
00000000
00000000
,
00000000
00000000
00000000
00000000
,
00000000
00000000
00000000
00000000
,
MMMMMMMM
MMMMMMMM
MMMMMMMM
MMMMMMMM
,
MMMMMMMM
MMMMMMMM
MMMMMMMM
MMMMMMMM
,
20000000
30000000
00000000
00000000
00000000
00000000
00000000
00000000
00000000
00000000
00000000
00000000
00010000
00000000
00000000
00000000
00000000
00000000
00000000
00000000
00000000
00000000
00000000
00000000
00200000
00300000
00000000
00000000
00000000
00000000
00000000
00000000
00000000
00000000
00000000
00000000
00001000
00000000
00000000
00000000
00000000
00000000
00000000
00000000
00000000
00000000
00000000
00000000
00020000
00030000
00000000
00000000
00000000
00000000
00000000
00000000
00000000
00000000
00000000
00000000
00000000
00000000
00000000
00000000
00000000
00000000
00000000
00000000
00000000
00000000
00000000
00000000
02000000
03000000
00000000
00000000
00000000
00000000
00000000
00000000
00000000
00000000
00000000
00000000
00000000
00000000
00000000
00000000
00000000
00000000
00000000
00000000
00000000
00000000
00000000
00000000
,
20000000
30000000
00000000
00000000
00000000
00000000
00000000
00000000
00000000
00000000
00000000
00000000
10000000
00000000
00000000
00000000
00000000
00000000
00000000
00000000
00000000
00000000
00000000
00000000
00200000
00300000
00000000
00000000
00000000
00000000
00000000
00000000
00000000
00000000
00000000
00000000
01000000
00000000
00000000
00000000
00000000
00000000
00000000
00000000
00000000
00000000
00000000
00000000
00020000
00030000
00000000
00000000
00000000
00000000
00000000
00000000
00000000
00000000
00000000
00000000
00100000
00000000
00000000
00000000
00000000
00000000
00000000
00000000
00000000
00000000
00000000
00000000
02000000
03000000
00000000
00000000
00000000
00000000
00000000
00000000
00000000
00000000
00000000
00000000
00010000
00000000
00000000
00000000
00000000
00000000
00000000
00000000
00000000
00000000
00000000
00000000
,
00002000
00003000
00000000
00000000
00000000
00000000
00000000
00000000
00000000
00000000
00000000
00000000
00010000
00000000
00000000
00000000
00000000
00000000
00000000
00000000
00000000
00000000
00000000
00000000
00000020
00000030
00000000
00000000
00000000
00000000
00000000
00000000
00000000
00000000
00000000
00000000
00001000
00000000
00000000
00000000
00000000
00000000
00000000
00000000
00000000
00000000
00000000
00000000
00000002
00000003
00000000
00000000
00000000
00000000
00000000
00000000
00000000
00000000
00000000
00000000
00000000
00000000
00000000
00000000
00000000
00000000
00000000
00000000
00000000
00000000
00000000
00000000
00000200
00000300
00000000
00000000
00000000
00000000
00000000
00000000
00000000
00000000
00000000
00000000
00000000
00000000
00000000
00000000
00000000
00000000
00000000
00000000
00000000
00000000
00000000
00000000
,
00002000
00003000
00000000
00000000
00000000
00000000
00000000
00000000
00000000
00000000
00000000
00000000
00010000
00000000
00000000
00000000
00000000
00000000
00000000
00000000
00000000
00000000
00000000
00000000
00000020
00000030
00000000
00000000
00000000
00000000
00000000
00000000
00000000
00000000
00000000
00000000
00001000
00000000
00000000
00000000
00000000
00000000
00000000
00000000
00000000
00000000
00000000
00000000
00000002
00000003
00000000
00000000
00000000
00000000
00000000
00000000
00000000
00000000
00000000
00000000
00000010
00000000
00000000
00000000
00000000
00000000
00000000
00000000
00000000
00000000
00000000
00000000
00000200
00000300
00000000
00000000
00000000
00000000
00000000
00000000
00000000
00000000
00000000
00000000
00000000
00000000
00000000
00000000
00000000
00000000
00000000
00000000
00000000
00000000
00000000
00000000
,
00010000
00000000
00001000
00000000
00010000
00001000
00000000
00100000
00010000
00000000
00100000
00010000
00000000
00100000
00010000
00000000
,
10000000
00000000
00010000
10000000
00010000
10000000
00010000
00000000
01000000
00001000
00000000
01000000
00001000
00000000
01000000
00001000
,
00010000
00001000
00010000
00001000
00010000
00000010
00010000
00000010
00001000
00000010
00001000
00000010
00001000
00000001
00001000
00000001
,
00000020
00000000
00000000
00000000
00000000
00000000
00000000
00000000
00000000
00000000
00000030
00000100
00001000
00000000
MMMMMMMM
00000000
,
00020200
00000000
00030300
MMMMMMMM
02002000
00000000
03003000
MMMMMMMM
,
02020000
00000000
00000000
00000000
03030000
00000000
MMMMMMMM
00000000
10000000
00000000
00000000
00100000
01000000
00000000
MMMMMMMM
00000000
,
02002000
00000000
03003000
MMMMMMMM
00020020
00000000
00030030
MMMMMMMM
,
00002200
00000000
00000000
00000000
00003300
00000000
MMMMMMMM
00000000
00000001
00000000
00000000
00000100
00000010
00000000
MMMMMMMM
00000000
,
00020020
00000000
00030030
MMMMMMMM
00202000
00000000
00303000
MMMMMMMM
,
02020000
00000000
00000000
00000000
03030000
00000000
MMMMMMMM
00000000
10000000
00000000
00000000
01000000
00100000
00000000
MMMMMMMM
00000000
,
02200000
00000000
03300000
MMMMMMMM
00022000
00000000
00033000
MMMMMMMM
,
00000000
00000000
00010000
00001000
00010000
00000010
00010000
00000010
00001000
00000010
00001000
00000010
00000200
00000000
00000300
00000000
,
00000101
00000100
00002000
00013000
MMMMMMMM
00010000
00000020
MMMM0030
,
00021000
00000000
00230000
00300000
MMMMMMMM
00010000
20000000
3000MMMM
,
11000000
01000000
00020000
00031000
MMMMMMMM
00001000
00200000
0030MMMM
,
00012000
00000000
00003020
00000030
MMMMMMMM
00001000
00000002
MMMM0003
,
00000011
00000010
00002000
00013000
MMMMMMMM
00010000
00000200
MMMM0300
,
00021000
00000000
02030000
03000000
MMMMMMMM
00010000
20000000
3000MMMM
,
10100000
00100000
00020000
00031000
MMMMMMMM
00001000
02000000
0300MMMM
,
00012000
00000000
00000000
00000000
00003200
00000000
00000300
00000000
MMMMMMMM
00000000
00000000
00001000
00000002
00000000
MMMM0003
00000000
,
00000101
00000100
00002000
00013000
MMMMMMMM
00011000
00021000
00000000
,
00230000
00000000
10300000
10000000
11000000
01000000
00020000
00031000
,
MMMMMMMM
00011000
00012000
00003000
00001020
00000030
00000012
00000003
,
00000101
00000000
00000100
00000000
00002000
00000000
00013000
00000000
00001000
00100000
00001000
00100000
00020000
00000000
0003MMMM
00000000
,
20000000
30000000
00000000
00000000
00000000
00000000
00010000
00000000
00000000
00000000
00000000
00000000
10000000
00000000
00000000
00000000
00000000
00000000
00010000
00000000
00000000
00000000
00000000
00000000
00200000
00300000
00000000
00000000
00000000
00000000
00001000
00000000
00000000
00000000
00000000
00000000
00010000
00000000
00000000
00000000
00000000
00000000
00000000
00000000
00000000
00000000
00000000
00000000
00020000
00030000
00000000
00000000
00000000
00000000
00001000
00000000
00000000
00000000
00000000
00000000
00010000
00000000
00000000
00000000
00000000
00000000
00001000
00000000
00000000
00000000
00000000
00000000
02000000
03000000
00000000
00000000
00000000
00000000
00000000
00000000
00000000
00000000
00000000
00000000
MMMMMMMM
00000000
00000000
00000000
00000000
00000000
00000000
00000000
00000000
00000000
00000000
00000000
,
00012000
00003000
00000000
00000000
00000000
00000000
00000000
00000000
00000000
00000000
00000000
00000000
00010000
00000000
00000000
00000000
00000000
00000000
00000000
00000000
00000000
00000000
00000000
00000000
00000020
00000030
00000000
00000000
00000000
00000000
00000000
00000000
00000000
00000000
00000000
00000000
00000100
00000000
00000000
00000000
00000000
00000000
00000000
00000000
00000000
00000000
00000000
00000000
00000002
00000003
00000000
00000000
00000000
00000000
00000010
00000000
00000000
00000000
00000000
00000000
00000001
00000000
00000000
00000000
00000000
00000000
00000010
00000000
00000000
00000000
00000000
00000000
00000200
00000300
00000000
00000000
00000000
00000000
00000000
00000000
00000000
00000000
00000000
00000000
00010000
00000000
00000000
00000000
00000000
00000000
00000000
00000000
00000000
00000000
00000000
00000000
,
00022000
00030000
00000000
00000000
00000000
00000000
00000000
00000000
00000000
00000000
00000000
00000000
01003000
00000000
00000000
00000000
00000000
00000000
00010000
00000000
00000000
00000000
00000000
00000000
02000000
03000000
00000000
00000000
00000000
00000000
00010000
00000000
00000000
00000000
00000000
00000000
01000000
00000000
00000000
00000000
00000000
00000000
00000000
00000000
00000000
00000000
00000000
00000000
20000000
30000000
00000000
00000000
00000000
00000000
01000000
00000000
00000000
00000000
00000000
00000000
10000000
00000000
00000000
00000000
00000000
00000000
01000000
00000000
00000000
00000000
00000000
00000000
00200000
00300000
00000000
00000000
00000000
00000000
00000000
00000000
00000000
00000000
00000000
00000000
00020000
00000000
00000000
00000000
00000000
00000000
00000000
00000000
00000000
00000000
00000000
00000000
,
00002000
00000000
00000000
00000000
00000000
00000000
00000000
00000000
00000000
00000000
00000000
00000000
00000000
00000000
00000000
00000000
00030000
00000000
00000000
00000000
00000000
00000000
00000000
00000000
00000000
00003020
00000032
00000203
00000000
00000000
00000300
00000000
,
00000102
00000000
00001000
00000000
00000023
00000001
00000100
00000000
,
00002030
00000000
00023000
00000000
00230000
01000000
10300000
MMMMMMMM
,
10200000
00000000
01300000
00000000
00010000
00100000
00000000
00100000
00010000
00000000
10000000
00000000
01000000
00000000
00010000
00000000
,
00001000
00010000
00001000
00000000
00000100
00000000
00000001
00000000
00000010
00000100
00000010
00000000
00000001
00000000
MMMMMMMM
00000000
,
00001001
00000000
00001000
00000010
00010000
00000000
00101000
00000000
,
10010000
00010000
10000000
01000000
00010000
00001000
00000010
MMMMMMMM
,
00001000
00000000
00000110
00000000
00000001
00000100
00001000
00000000
,
00010000
00001000
01000000
00010000
10000000
00100000
00010000
00001000
,
00010000
00000100
00010000
00001000
00100000
00001000
00020000
00030000
,
00002000
00003000
00000000
00000000
00000000
00000000
00000000
00000000
00000000
00000000
00000000
00000000
00000000
00000000
00000000
00000000
00000000
00000000
00000000
00000000
00000000
00000000
00000000
00000000
00000020
00000030
00000000
00000000
00000000
00000000
00000000
00000000
00000000
00000000
00000000
00000000
00000000
00000000
00000000
00000000
00000000
00000000
00000000
00000000
00000000
00000000
00000000
00000000
00000002
00000000
00000000
00000000
00000000
00000000
00000000
00000000
00000000
00000000
00000000
00000000
00000000
00000000
00000000
00000000
00000000
00000000
00000000
00000000
00000000
00000000
00000000
00000000
00000200
00000000
00000000
00000000
00000000
00000000
00000000
00000000
00000000
00000000
00000000
00000000
00000000
00000000
00000000
00000000
00000000
00000000
00000000
00000000
00000000
00000000
00000000
00000000
,
00000000
00000000
00000000
00000000
00000303
MMMMMMMM
MMMMMMMM
MMMMMMMM
,
00000101
00000000
00000000
00000100
00000000
00000000
00001000
00000000
00010000
00000000
00000010
00000000
00001000
00000000
00010000
00000000
,
01000000
00000000
00100000
00000000
00000000
10000000
00000000
00000000
01000000
00000000
00010000
00000000
00001000
00000000
01000000
00000000
,
00010000
00000000
00000000
00001000
00000000
00000000
00000010
00000000
00010000
00000000
00000000
00001000
00000000
00000000
00000010
00000000
,
00000100
00000000
00001000
00000000
00000001
00000000
00000000
00000100
00000000
00000000
00001000
00000000
00010000
00000000
00100000
00000000
,
10000000
00000000
00000000
01000000
00000000
00000000
00010000
00000000
00001000
00000000
00100000
00000000
00010000
00000000
00001000
00000000
,
00000100
00000000
00000010
00000000
00000000
00000001
00000000
00000000
00000100
00000000
00001000
00000000
00010000
00000000
00100000
00000000
,
10000000
01000000
00100000
00020000
00000000
00000000
00031000
00000100
,
00000010
00000002
00000000
00000000
00000103
00001000
00010000
00100000
,
10100000
00000000
10000000
00100000
00000000
10000000
00010000
00000000
00100000
00000000
00001000
00010000
00001000
00000000
00000100
00000000
,
00000110
00000000
00000011
00000000
00000000
00001010
00000000
00000000
00011000
00000000
00001000
01000000
00010000
00000000
10000000
00000000
,
11000000
00000000
01000000
00010000
00000000
00001000
00010000
00000000
00101000
00000000
00000000
00001000
00000000
00000000
00010000
00000000
,
00010100
00000000
00000100
00000000
00010000
00001000
00000000
00000100
00001000
00000000
00000100
00000010
00000100
00000000
00000001
00000000
,
00001001
00000000
00000000
00001000
00000100
00000000
00000010
00000000
00001000
00000000
00010000
00000000
00100000
00000000
10000000
00000000
,
00010000
00000000
00100000
00000000
00001000
00010000
00000000
00000000
00001000
00000000
00000100
00000000
00000001
00000000
00000010
00000000
,
00001000
00000000
00010000
00000000
00100000
00000000
10000000
00000000
00010000
00100000
00010000
00100000
00001000
00010000
00001000
00010000
,
00000010
00001000
00000010
00001000
00000001
00000100
00000001
00000100
00000010
00000100
00000010
00000100
00001000
00000100
00001000
00000100
,
00001000
00000000
00000000
00010000
00000000
00000000
00100000
00000000
01000000
00000000
10000000
00000000
01000000
00000000
00010000
00000000
,
00100000
00000000
00101000
00000000
MMMMMMMM
00011000
00000000
MMMMMMMM
00010010
00000000
00010000
00000100
00001000
00000000
MMMMMMMM
00000000
,
MMMM0011
00000000
00000000
00000010
00000001
00000000
00000100
00000000
MMMM1000
00000000
00010000
00000000
0100MMMM
00000000
10000000
00000000
,
00010000
00000000
00110000
00000000
MMMMMMMM
00101000
00000000
MMMMMMMM
00011000
00000000
00010000
00000000
00000010
00001000
00000001
00001000
,
MMMM0100
00000000
00000000
00010000
00001000
00000000
00100000
00000000
0100MMMM
00000000
00000000
00010000
00001000
00000000
00000010
00000000
,
MMMM0100
00000000
00001100
00000000
00010100
00000000
MMMMMMMM
01001000
00000000
MMMMMMMM
01010000
00000000
00010000
00000000
10000000
00010000
,
1000MMMM
00000000
00000000
00100000
10000000
00000000
01000000
00000000
0001MMMM
00000000
00001000
00000000
MMMM0100
00000000
00000001
00000000
,
00001000
00000000
00001010
00000000
MMMMMMMM
00010010
00000000
MMMMMMMM
00011000
00000000
00101000
00000000
00100000
00010000
00100000
00010000
,
20000000
31000000
0001MMMM
00002000
00010000
MMMM3100
00000001
00000020
,
MMMM1030
00000000
00020000
00000000
00000010
00000000
00031000
00000000
0001MMMM
00000000
00100000
00000000
10000000
00100000
10000000
00100000
,
1000MMMM
00000000
00000000
00010000
10000000
00000000
00100000
00000000
0001MMMM
00000000
00001000
00000000
MMMM0010
00000000
00000001
00000000
,
00001000
00000000
00001100
00000000
MMMMMMMM
00010100
00000000
MMMMMMMM
00011000
00000000
00001000
00000000
01000000
00010000
10000000
00010000
,
0010MMMM
00000000
00000000
00001000
00010000
00000000
00000100
00000000
MMMM0010
00000000
00000000
00001000
00010000
00000000
01000000
00000000
,
0010MMMM
00000000
00110000
00000000
00101000
00000000
MMMMMMMM
00010010
00000000
MMMMMMMM
00001010
00000000
00001000
00000000
00000001
00001000
,
MMMM0001
00000000
00001000
00000100
00010000
00000000
00001000
00000000
0100MMMM
00000000
00010000
00000000
1000MMMM
00000000
00100000
00000000
,
0110MMMM
00000000
01000000
00000000
00010000
01000000
00001000
00000000
0001MMMM
00000000
00000010
00000000
MMMM1000
00000010
00001000
00000010
,
00002000
00003001
MMMM0010
00000200
00010000
MMMM1300
00000001
00001000
,
00000100
00010000
00000100
00010000
00001000
00010000
00001000
00010000
00001000
00100000
00001000
00100000
00010000
00100000
01000000
00100000
,
20000000
30000000
00000000
00000000
00000000
00000000
00000000
00000000
00000000
00000000
00000000
00000000
MMMMMMMM
00000000
00000000
00000000
00000000
00000000
00000000
00000000
00000000
00000000
00000000
00000000
00200000
00300000
00000000
00000000
00000000
00000000
00000000
00000000
00000000
00000000
00000000
00000000
00000000
00000000
00000000
00000000
00000000
00000000
00000000
00000000
00000000
00000000
00000000
00000000
00020000
00030000
00000000
00000000
00000000
00000000
00000000
00000000
00000000
00000000
00000000
00000000
00000000
00000000
00000000
00000000
00000000
00000000
00000000
00000000
00000000
00000000
00000000
00000000
02000000
03000000
00000000
00000000
00000000
00000000
00000000
00000000
00000000
00000000
00000000
00000000
00000000
00000000
00000000
00000000
00000000
00000000
00000000
00000000
00000000
00000000
00000000
00000000
,
00002000
00003000
00000000
00000000
00000000
00000000
00000000
00000000
00000000
00000000
00000000
00000000
MMMMMMMM
00000000
00000000
00000000
00000000
00000000
00000000
00000000
00000000
00000000
00000000
00000000
MMMMMMMM
00000000
00000000
00000000
00000000
00000000
00000000
00000000
00000000
00000000
00000000
00000000
MMMMMMMM
00000000
00000000
00000000
00000000
00000000
00000000
00000000
00000000
00000000
00000000
00000000
00000020
00000030
00000000
00000000
00000000
00000000
00000000
00000000
00000000
00000000
00000000
00000000
MMMMMMMM
00000000
00000000
00000000
00000000
00000000
00000000
00000000
00000000
00000000
00000000
00000000
MMMMMMMM
00000000
00000000
00000000
00000000
00000000
00000000
00000000
00000000
00000000
00000000
00000000
00000000
00000000
00000000
00000000
00000000
00000000
00000000
00000000
00000000
00000000
00000000
00000000
,
00000002
00000000
00000003
00000000
00000000
00000000
00000000
00000000
00000000
00000000
00000000
00000000
00000000
00000000
00000000
00000000
00000000
00000000
00000000
00000000
00000000
00000000
00000000
00000000
MMMMMMMM
00000000
00000000
00000000
00000000
00000000
00000000
00000000
00000000
00000000
00000000
00000000
00000000
00000000
00000000
00000000
00000000
00000000
00000000
00000000
00000000
00000000
00000000
00000000
00000000
00000000
00000000
00000000
00000000
00000000
00000000
00000000
00000000
00000000
00000000
00000000
00000000
00000000
00000000
00000000
00000000
00000000
00000000
00000000
00000000
00000000
00000000
00000000
00000000
00000000
00000000
00000000
00000000
00000000
00000000
00000000
00000000
00000000
00000000
00000000
00000000
00000000
00000000
00000000
00000000
00000000
00000000
00000000
00000000
00000000
00000000
00000000
00000202
00000000
00000000
00000300
00000000
00000000
00000000
00000000
00000000
00000000
00000000
00000000
00000000
00000000
00000000
00000000
00000000
00000000
00000000
00000000
00000000
00000000
00000000
00000000
00000000
00000000
00000000
00000000
00000000
00000000
00000000
00000000
00000000
00000000
00000000
00000000
00000000
00000000
00000000
00000000
00000000
00000000
00000000
00000000
00000000
00000000
00000000
00000000
00000000
00000000
00000000
00000000
00000000
00000000
00000000
00000000
00000000
00000000
00000000
00000000
00000000
00000000
00000000
00000000
00000000
00000000
00000000
00000000
00000000
00000000
00000000
00000000
00000003
00000000
00000000
00000000
00000000
00000000
00000000
00000000
00000000
00000000
00000000
00000000
00000000
00000000
00000000
00000000
00000000
00000000
00000000
00000000
00000000
00000000
00000000
00000000
,
00000010
00000001
00000010
00000001
00001000
00000010
00001000
00000010
00010000
00001000
00010000
00001000
00100000
00010000
00100000
00010000
,
10000000
00010000
10000000
00010000
01000000
00001000
01000000
00001000
00010000
00000010
00010000
00000010
00001000
00000001
00001000
00000001
,
00000100
MMMMMMMM
00022000
00000000
,
00000000
00000000
00000000
00000000
,
00000000
00000000
00000000
00000000
,
00000000
00000000
00000000
00000000
,
00033000
00000000
00000000
00000000
,
00000000
00000000
00000000
00000000
;
