
//----- song ID: cots -----//
#TITLE:Collapse of the Sanctuary;
#ARTIST:打打だいず vs. siromaru;
#ARTISTTRANSLIT:D-D-Dice vs. siromaru;
#BANNER:Collapse of the Sanctuary.png;
#BACKGROUND:Collapse of the Sanctuary-bg.png;
#CDTITLE:./CDTitles/DDR WORLD.png;
#MUSIC:Collapse of the Sanctuary.ogg;
#SAMPLESTART:56.726;
#SAMPLELENGTH:15;
#BPMS:0=165;
#STAGE:30;
#NOTES:
     dance-single:
     :
     Beginner:
     4:
     :
0000
0000
0000
0000
,
0000
0000
0000
0000
,
0000
0000
0000
0000
,
1000
0000
0000
0000
,
0000
0000
0000
0000
,
0001
0000
0000
0000
,
0010
0000
0010
0000
,
0100
0000
0000
0000
,
0000
0000
0000
0000
,
0100
0000
0000
0000
,
0100
0000
0100
0000
,
0010
0000
0000
0000
,
0001
0000
0000
0000
,
1000
0000
0000
0000
,
0100
0000
0000
0000
,
0010
0000
0010
0000
,
0010
0000
0010
0000
,
0100
0000
0100
0000
,
0100
0000
0000
0000
,
1000
0000
0000
0000
,
0001
0000
0000
0000
,
1000
0000
0000
0000
,
0001
0000
0000
0000
,
0010
0000
0000
0000
,
0000
0000
0000
0000
,
0010
0000
0000
0000
,
0000
0000
0000
0000
,
0100
0000
0000
0000
,
0100
0000
0000
0000
,
0010
0000
0000
0000
,
0010
0000
0000
0000
,
0001
0000
0000
0000
,
0001
0000
0000
0000
,
1000
0000
0000
0000
,
0000
0000
0000
0000
,
1000
0000
0000
0000
,
1000
0000
0000
0000
,
0000
0000
0000
0000
,
0010
0000
0000
0000
,
1000
0000
0100
0000
,
0100
0000
0010
0000
,
0010
0000
0001
0000
,
1000
0000
1000
0000
,
0001
0000
0100
0000
,
0100
0000
0010
0000
,
0010
0000
1000
0000
,
0001
0000
0001
0000
,
0010
0000
0000
0000
,
0010
0000
0000
0000
,
0100
0000
0000
0000
,
0100
0000
0000
0000
,
1000
0000
1000
0000
,
0001
0000
0001
0000
,
1000
0000
0001
0000
,
0010
0000
0010
0000
,
0010
0000
0000
0000
,
0010
0000
0000
0000
,
0000
0000
0000
0000
,
0001
0000
0000
0000
,
0000
0000
0000
0000
,
1000
0000
0000
0000
,
0000
0000
0000
0000
,
0010
0000
0010
0000
,
0100
0000
0100
0000
,
0001
0000
1000
0000
,
0001
0000
1000
0000
,
0010
0000
0100
0000
,
0100
0000
0001
0000
,
0001
0000
1000
0000
,
1000
0000
0100
0000
,
0010
0000
0100
0000
,
0010
0000
0100
0000
,
1000
0000
0001
0000
,
1000
0000
0001
0000
,
0010
0000
0000
0000
,
0010
0000
0000
0000
,
0100
0000
0000
0000
,
0100
0000
0000
0000
,
0010
0000
0010
0000
,
0010
0000
0010
0000
,
0001
0000
1000
0000
,
1001
0000
0000
0000
,
0000
0000
0000
0000
;
#NOTES:
     dance-single:
     :
     Easy:
     7:
     :
0000
0000
0000
0000
,
0000
0000
0000
0000
,
0000
0000
0000
0000
,
1010
0010
0100
0000
,
0010
0100
0001
0000
,
0011
0010
0100
0000
,
1000
1000
0001
0001
,
0101
0100
0010
0000
,
0100
0010
1000
0000
,
1100
0100
0010
0000
,
0010
0000
0100
0010
,
0001
0000
1000
0000
,
0002
0003
2000
3000
,
0010
0000
0100
0000
,
0010
0010
0100
0100
,
0001
0000
1000
0000
,
0002
0003
2000
3000
,
0100
0000
0100
0000
,
0000
0010
0000
0000
0010
0000
0000
0000
,
0002
0000
0000
0003
,
0020
0000
0000
0030
,
0200
0000
0000
0300
,
2000
0000
0000
3000
,
0001
0000
1000
0000
,
0001
0000
1000
0000
,
0010
0010
0010
0010
,
0200
0000
0300
0000
,
0101
0000
0101
0000
,
1010
0000
1010
0000
,
1100
0000
1100
0000
,
0011
0000
0011
0000
,
0110
0000
0110
0000
,
1001
0000
1001
0000
,
1000
1000
1000
1000
,
0001
0001
0001
0001
,
0100
0100
0010
0010
,
0110
0000
0110
0000
,
0000
0000
0000
0000
,
1000
0001
1001
0000
,
1000
0100
0100
0010
,
0011
0000
1100
0000
,
1000
0010
0010
0100
,
0001
1000
1000
0001
,
0001
0100
0100
0010
,
1010
0000
0101
0000
,
0001
0010
0010
0100
,
0000
1100
0000
0000
1001
0000
0000
0000
,
0001
0010
0001
0010
,
0100
1000
0100
1000
,
0010
0100
0010
0100
,
0001
0010
0100
1000
,
1001
0000
0011
0000
,
1001
0000
1010
0000
,
0101
0000
0110
0000
,
1000
0001
0100
0010
,
0000
0200
0300
0010
,
1000
1000
1000
1000
,
0002
0000
0000
0003
,
0020
0000
0000
0030
,
0200
0000
0000
0300
,
2000
0000
0000
3000
,
0002
0000
0000
0003
,
0000
1001
1000
0001
,
0100
0010
0100
0010
,
1000
1000
0001
0001
,
0000
0101
0000
0000
1001
0000
0000
0000
,
0000
1001
0001
1000
,
0001
0100
0010
1000
,
0001
0001
1000
1000
,
0100
0010
0001
1000
,
0010
0010
0100
0100
,
0001
0010
0100
1000
,
0100
0100
0010
0010
,
0000
0011
0000
0000
1001
0000
0000
0000
,
0002
0000
0000
0003
,
0200
0000
0000
0300
,
0020
0000
0000
0030
,
2000
0000
0000
3000
,
0020
0030
0200
0300
,
0002
0003
2000
3000
,
0001
0001
1000
1000
,
2002
0000
0000
3003
,
0000
0000
0000
0000
;
#NOTES:
     dance-single:
     :
     Medium:
     12:
     :
0000
0000
0000
0000
,
0000
0000
0000
0000
,
0000
0000
0000
0000
,
1001
0000
1000
0010
1000
0001
1000
0100
,
0010
0001
1000
0001
0100
0001
1000
0000
,
1001
0000
0001
0100
0001
1000
0010
0000
,
0100
0000
0001
0000
0010
0000
0000
0000
0001
0000
0000
1000
0000
0000
0001
0000
,
1001
0000
1000
0010
1000
0001
1000
0001
,
0100
0010
0100
0010
0100
0001
1000
0000
,
1001
0000
0001
0100
0010
0000
1000
0100
,
0010
0000
0010
0000
0010
0000
0100
0000
0000
0110
0000
0000
,
0010
0001
1000
0100
0001
0100
0010
0001
,
0200
0000
0310
0001
0020
0000
1030
0001
,
0100
0001
1000
0010
0001
0010
0100
0001
,
0010
0000
0010
0000
0010
0000
0000
0000
0001
0000
0000
1000
0000
0000
1000
0000
,
0001
1000
0001
0100
1000
0100
0001
0100
,
0020
0000
1030
0001
0200
0000
0301
1000
,
0001
0100
0010
1000
0001
0010
0100
1000
,
0000
0000
0001
0000
0000
0000
0001
0000
1000
0000
0000
1000
0000
0000
0010
0000
,
0100
0100
0100
0001
0001
0000
,
1000
1000
1000
0100
0100
0000
,
0010
0010
0010
0100
0100
0000
,
1000
1000
0001
0010
0010
0000
,
0001
0011
0010
0110
,
1100
0101
0110
1001
,
1000
0001
1000
0001
0010
0001
0010
0001
,
0200
0000
0320
0000
,
0130
0000
0001
0100
0000
0010
,
0001
0010
0100
0010
0100
1000
,
0100
0000
0010
1000
0000
0100
,
1000
0100
0010
0100
0010
0001
,
0010
0000
0001
1000
0000
0001
,
0010
0000
0001
0000
1000
0000
0200
0000
0000
0300
0000
0000
,
0010
0000
0000
0010
0000
0000
0010
0000
0001
0000
0000
0001
0000
0000
0001
0000
,
1000
0000
0000
1000
0000
0000
1000
0000
0100
0000
0000
0100
0000
0000
0100
0000
,
0010
0000
0000
0010
0000
0000
0010
0000
0001
0000
0000
0001
0000
0000
0001
0000
,
1000
0000
0000
0001
0000
0000
1000
0000
0100
0000
0010
0000
0100
0000
0010
0000
,
0000
0000
0000
0000
,
0110
0000
0000
0110
0000
0000
1001
0000
1001
0000
0000
0000
0000
0000
0000
0000
,
1000
0100
0001
0100
0010
1000
0010
0001
,
0200
0000
0310
1000
0200
0000
1300
0001
,
0010
0001
0100
0001
0010
0100
1000
0100
,
0010
1000
0010
0001
1000
0001
1000
0000
,
0010
0100
0001
0100
1000
0100
0001
0010
,
0200
0000
0310
1000
0020
0000
0130
0001
,
0100
0010
0001
1000
0001
0010
0100
1000
,
0000
0000
0001
0000
0000
0000
0001
0000
0100
0000
0000
0100
0000
0000
0010
0000
,
1000
0100
1000
0100
0010
0001
0010
0000
,
0001
0100
0001
0100
0010
1000
0010
0000
,
1000
0001
1000
0010
0100
0010
0100
0000
,
0001
0010
0100
1000
0100
0010
0001
0000
,
0001
0000
0001
0100
0000
0100
0010
0000
0010
1000
0000
0000
,
0100
0000
0100
0010
0000
0010
0001
0000
0001
1000
0000
0000
,
0010
0000
0010
1000
0000
1000
0100
0000
0100
0001
0000
0000
,
0101
0000
0000
0000
0110
0000
0000
0000
1001
0000
0000
0001
0000
0000
1000
0000
,
0000
2100
0000
3001
,
0001
1000
0001
1000
0001
1000
0001
0000
,
2002
0000
0000
3003
,
0002
0003
2000
3000
,
0020
0030
0200
0300
,
0020
0030
2000
3000
,
0002
0203
0320
1030
,
0000
1010
1001
0101
,
0001
0100
0010
0000
0100
0010
1000
0000
,
0001
0001
1000
1000
0010
0010
0100
0100
,
0000
0000
0010
0000
0000
0000
0010
0000
1000
0000
0000
0001
0000
0000
1001
0000
,
0000
0000
0011
0010
0001
1000
0100
0010
,
0200
0000
0310
0001
0200
0000
0310
0001
,
0010
1000
0001
0100
0010
0100
0001
1000
,
0010
1000
0100
0001
0100
0010
0001
0000
,
1000
0100
0001
0100
0010
1000
0010
0001
,
0200
0000
0301
1000
0020
0000
1030
0001
,
1000
0010
0100
0001
1000
0100
0010
0001
,
0000
0000
0100
0000
0000
0000
0100
0000
0001
0000
0000
1000
0000
0000
0001
0000
,
1000
1000
1000
0100
0100
0000
,
0010
0010
0010
0001
0001
0000
,
0010
0010
0010
0100
0100
0000
,
1000
1000
0001
0100
0100
0000
,
0101
0110
1010
1100
,
0110
0011
1001
0110
,
0010
0100
0010
0100
0010
0100
0010
0200
,
0020
0000
0000
0330
,
0000
0000
0000
0000
;
#NOTES:
     dance-single:
     :
     Hard:
     16:
     :
0000
0000
0000
0000
,
0000
0000
0000
0000
,
0000
0000
0000
0000
,
1000
0000
0001
0100
0001
0000
0100
0010
0100
0000
0010
0100
0001
0000
1000
0000
,
0001
0000
1000
0100
1000
0000
0100
0010
0100
0000
0010
0100
1000
0000
0001
0000
,
0010
0000
0100
0001
0100
0000
0010
0001
0010
0000
0100
1000
0001
0000
1000
0000
,
0010
0000
0010
0000
0100
0010
1000
0000
1000
0100
0000
0200
0000
0000
1300
0000
,
0001
0000
1000
0010
1000
0000
0010
0100
0010
0000
0100
0010
1000
0000
0001
0000
,
1000
0000
0001
0010
0001
0000
0010
0100
0010
0000
0100
0010
0001
0000
1000
0000
,
0100
0000
0010
1000
0010
0000
0001
0010
0001
0000
1000
0001
0010
0000
0100
0000
,
0010
0000
0010
0000
0010
0000
0110
0000
0000
1001
0000
0000
,
1100
1000
0100
0010
1000
0010
0001
0100
,
0201
0000
0310
1000
2010
0000
3100
0010
,
0110
0100
0001
0100
0010
1000
0010
0100
,
1000
0000
1000
0000
1000
0100
0010
0000
0100
0010
0000
0020
0000
0000
0031
0000
,
0011
0001
0100
1000
0100
0010
1000
0100
,
2100
0000
3010
0001
0021
0000
0130
0010
,
1000
0100
0010
0001
1001
1000
0100
0001
,
0000
0000
0100
0000
0000
0000
0100
0000
0010
0100
0000
0100
0000
0000
1000
0000
,
1100
1001
1010
0110
1001
0000
,
0011
1001
0101
0110
1001
0000
,
1010
1001
1100
0110
1001
0000
,
0101
0101
1001
0011
0011
0000
,
0011
0000
1001
0000
0101
0000
0001
0100
,
0010
1000
0100
1000
0010
0000
1010
0000
,
1000
0100
1000
0100
1000
0100
1000
0100
0010
0100
0010
0100
0010
0100
0010
0100
,
0010
0001
0010
0001
0010
0001
0010
0100
0010
0100
0010
0100
,
0110
0000
0010
0100
1000
0000
1100
0000
1000
0100
0001
0000
,
0100
1000
0010
0100
0001
0010
0011
0000
1001
0000
1100
0000
,
0110
0000
0100
0010
0001
0000
0011
0000
0001
0010
1000
0000
,
0010
0001
0100
0010
1000
0100
1100
0000
1001
0000
0011
0000
,
0110
0000
0010
0100
0010
0000
1001
0000
1000
0001
1000
0000
,
0001
0000
0000
0000
0010
0000
0000
0000
0100
0000
0000
0000
1000
0000
0000
0000
0001
0000
0000
0000
0010
0000
0000
0000
0100
0000
0000
1000
0000
0000
0001
0000
0000
0010
0000
0000
0100
0000
0000
1000
0000
0000
0001
0000
0000
0100
0000
0000
,
0010
1000
0000
2000
0000
0000
3100
0000
0100
0010
0000
0020
0000
0000
0031
0000
,
0001
0100
0000
0200
0000
0000
0310
0000
0010
1000
0000
2000
0000
0000
3100
0000
,
0100
0010
0000
0020
0000
0000
0031
0000
0001
1000
0000
2000
0000
0000
3001
0000
,
0002
0000
0000
0023
0000
0000
0130
0000
1000
0100
0010
0000
0001
1000
0001
1000
,
0000
0000
0000
0000
,
0110
0000
0000
0110
0000
0000
1001
0000
1001
0000
0000
0000
0000
0000
0000
0000
,
1000
0000
0100
0000
0001
0000
0100
0000
0010
0000
1000
0010
0001
0000
0010
0001
,
0100
0000
0001
0100
1000
0000
0100
0010
0100
0000
0001
1000
0010
0000
1000
0000
,
0010
0000
1000
0000
0100
0000
1000
0000
0010
0000
0001
0010
1000
0000
0010
0000
,
1000
0100
0010
0001
1000
0100
0010
0000
0001
0100
0000
0100
0010
0000
1000
0000
,
0010
0000
0100
0000
0001
0000
0100
0000
1000
0000
0100
0001
0010
0000
0001
0010
,
0100
0000
0010
1000
0010
0000
0100
1000
0001
0000
1000
0001
0010
0000
0001
0000
,
1001
0100
0010
0100
1001
0001
1000
0001
,
0000
0000
1000
0000
0000
0000
1000
0000
0001
0100
0001
0010
0000
0000
0100
0000
,
1000
0000
0010
1000
0100
0000
0100
0001
0000
0001
0000
0001
0100
0000
0000
0000
,
0100
0000
0010
0001
0100
0000
0100
1000
0000
1000
0000
1000
0100
0000
0000
0000
,
0001
0000
0100
0010
0001
0000
0010
1000
0000
1000
0000
1000
0010
0000
0000
0000
,
1000
0000
0100
0010
1000
0000
0010
0001
0000
0001
0000
0001
0010
0000
0000
0000
,
0100
1000
1000
0010
0000
1000
0001
0010
0001
0010
0000
0000
,
0100
0010
0010
0001
0000
0001
1000
0100
1000
0100
0000
0000
,
0010
0001
0001
0001
0000
1000
0100
0010
0010
0010
0000
0000
,
0002
0000
0000
0000
2003
0000
0000
0000
3001
0010
0100
0010
0100
1000
0100
0000
,
0000
0000
0000
2100
0000
0000
0000
0000
0000
3010
0100
0010
,
0100
0000
0110
0000
0100
0000
0110
0000
0010
0000
0110
0000
1000
0001
1000
0001
,
2000
0000
0000
3000
,
0020
0000
1000
0000
,
0230
0000
0001
0000
,
0320
0000
1000
0000
,
0130
0010
0100
0010
,
0000
0110
1010
0101
,
0001
0100
0010
1000
,
0100
0000
0100
0000
0100
0000
0100
0000
0100
0010
0100
0010
0100
0010
0100
0010
,
0000
0000
0001
0000
0000
0000
0001
0000
1000
0100
1000
0001
0000
0000
1001
0000
,
0000
0000
0000
0000
1100
0000
0100
0000
0010
0000
0001
1000
0100
0000
0100
1000
,
0001
0000
0010
0001
0100
0000
0010
1000
0100
0000
0100
0010
0001
0000
0100
0010
,
1000
0000
0100
0000
0010
0000
0001
0000
0010
0000
0100
0001
0100
0000
1000
0000
,
0001
0100
0010
0100
0001
0100
0010
0000
1000
0100
0000
0100
0010
0000
0011
0000
,
0001
0000
0100
0000
1000
0000
0100
0000
0010
0000
0001
0010
1000
0000
0010
0000
,
0200
0000
0000
0301
0010
0000
0001
0000
0020
0000
0000
0130
1000
0000
0001
0000
,
1000
0100
0010
0001
1000
0100
0010
0001
,
0000
0000
0010
0000
0000
0000
0010
0000
0100
1000
0000
1000
0000
0000
0001
0000
,
0011
1001
1100
0110
1001
0000
,
1010
1001
0101
0110
1001
0000
,
1010
0110
0011
0110
0110
0000
,
1001
1001
0110
1001
1001
0000
,
0001
0000
0000
0010
0100
0000
0000
0100
0010
0000
0000
0010
0001
0000
0000
0001
,
1000
0000
0000
1000
0100
0000
0000
0100
0010
0000
0000
0010
0001
0000
0000
1000
,
0100
1000
0100
1000
0001
0100
0001
0100
0010
1000
0010
1000
0001
0010
0001
0010
,
0002
0000
0000
0003
,
0000
0000
0000
0000
;
#NOTES:
     dance-double:
     :
     Easy:
     7:
     :
00000000
00000000
00000000
00000000
,
00000000
00000000
00000000
00000000
,
00000000
00000000
00000000
00000000
,
00011000
00010000
00001000
00000000
,
00010000
00001000
00100000
00000000
,
00110000
00100000
01000000
00000000
,
10000000
10000000
00010000
00010000
,
01010000
01000000
00001000
00000000
,
00001000
00010000
00000100
00000000
,
00000110
00000010
00000001
00000000
,
00000001
00000000
00001000
00000001
,
00000100
00000000
00001000
00000000
,
00010000
00000000
00100000
00000000
,
10000000
00000000
00010000
00000000
,
00100000
00100000
01000000
01000000
,
00010000
00000000
00001000
00000000
,
00000010
00000000
00000100
00000000
,
00010000
00000000
00001000
00000000
,
00000000
00010000
00000000
00000000
00010000
00000000
00000000
00000000
,
00000200
00000000
00000000
00000300
,
00000020
00000000
00000000
00000030
,
00000002
00000000
00000000
00000003
,
00002000
00000000
00000000
00003000
,
00000100
00000000
00000010
00000000
,
00000100
00000000
00000010
00000000
,
00001000
00010000
00001000
00010000
,
00002000
00000000
00003000
00000000
,
00100000
00000000
00100000
00000000
,
00010000
00000000
01000000
00000000
,
00100000
00000000
00100000
00000000
,
10000000
00000000
01000000
00000000
,
00100000
00000000
00100000
00000000
,
00001000
00000000
00010000
00000000
,
00000010
00000010
00001000
00001000
,
00000001
00000001
00000100
00000100
,
00000010
00000010
00010000
00010000
,
00011000
00000000
00011000
00000000
,
00000000
00000000
00000000
00000000
,
00010000
00001000
00011000
00000000
,
00001000
00010000
00010000
00100000
,
00200000
00300000
20000000
30000000
,
01000000
00010000
00010000
00001000
,
00010000
00001000
00010000
00001000
,
00000010
00000001
00000001
00000100
,
00000020
00000030
00000200
00000300
,
00001000
00010000
00001000
00010000
,
00000000
00100000
00000000
00000000
01000000
00000000
00000000
00000000
,
00100000
10000000
00100000
10000000
,
00010000
01000000
00010000
01000000
,
00001000
00010000
00001000
00010000
,
00000010
00001000
00000001
00000100
,
00000101
00000000
00001010
00000000
,
00010010
00000000
00011000
00000000
,
01001000
00000000
01010000
00000000
,
00010000
00100000
01000000
10000000
,
00000000
00200000
00300000
01000000
,
00010000
00010000
00010000
00010000
,
20000000
00000000
00000000
30000000
,
02000000
00000000
00000000
03000000
,
00020000
00000000
00000000
00030000
,
00002000
00000000
00000000
00003000
,
00000020
00000000
00000000
00000030
,
00000000
00001001
00000001
00001000
,
00000010
00000100
00000010
00000100
,
00001000
00010000
00001000
00010000
,
00000000
01001000
00000000
00000000
01010000
00000000
00000000
00000000
,
00000000
10010000
10000000
01000000
,
00100000
00001000
00010000
00100000
,
01000000
01000000
00001000
00001000
,
00010000
00000100
00000010
00000001
,
00000010
00000010
00000100
00000100
,
00001100
00000000
00010100
00000000
,
00010000
00010000
00001000
00001000
,
00000000
00011000
00000000
00000000
00010100
00000000
00000000
00000000
,
00000200
00000000
00000000
00000300
,
00020000
00000000
00000000
00030000
,
00002000
00000000
00000000
00003000
,
02000000
00000000
00000000
03000000
,
00200000
00300000
02000000
03000000
,
00020000
00030000
20000000
30000000
,
00100000
00100000
01000000
01000000
,
02200000
00000000
00000000
03300000
,
00000000
00000000
00000000
00000000
;
#NOTES:
     dance-double:
     :
     Medium:
     12:
     :
00000000
00000000
00000000
00000000
,
00000000
00000000
00000000
00000000
,
00000000
00000000
00000000
00000000
,
00011000
00000000
00010000
00001000
00100000
00001000
01000000
00000000
,
00010000
00100000
00001000
00010000
00001000
01000000
00001000
00000000
,
00011000
00000000
00001000
00010000
00000100
00010000
00000010
00000000
,
00001000
00000000
00000100
00000000
00000010
00000000
00000000
00000000
00001000
00000000
00000000
00010000
00000000
00000000
00001000
00000000
,
00011000
00000000
00010000
00001000
00100000
01000000
10000000
00000000
,
01000000
00100000
01000000
00100000
00001000
00100000
00001000
00000000
,
00011000
00000000
00010000
00001000
00000010
00000000
00000100
00000000
,
00000010
00000000
00000001
00000000
00000010
00000000
00000100
00000000
00000000
00000110
00000000
00000000
,
00000010
00000001
00000010
00000100
00000010
00000001
00000100
00000000
,
00002000
00000000
00003100
00000010
00020000
00000000
00031000
00100000
,
01000000
00100000
00010000
00100000
01000000
10000000
00100000
00000000
,
10000000
00000000
00010000
00000000
10000000
00000000
00000000
00000000
00100000
00000000
00000000
01000000
00000000
00000000
01000000
00000000
,
00100000
10000000
00100000
01000000
00100000
10000000
01000000
00000000
,
00020000
00000000
01030000
00100000
00002000
00000000
00013000
00000100
,
00000010
00000001
00000010
00000100
00000010
00000001
00000100
00001000
,
00000000
00000000
00010000
00000000
00000000
00000000
00001000
00000000
00010000
00000000
00000000
00001000
00000000
00000000
00010000
00000000
,
00100000
00100000
10000000
01000000
01000000
00000000
,
00100000
00100000
00010000
01000000
01000000
00000000
,
00001000
00001000
00010000
00000100
00000100
00000000
,
00000010
00000010
00000001
00000100
00000100
00000000
,
00000010
00010010
00010000
00011000
,
00001000
00101000
00100000
01100000
,
00100000
00010000
00100000
00010000
00100000
00010000
00100000
00010000
,
02000000
00000000
03200000
00000000
,
01300000
00000000
10000000
01000000
00000000
00010000
,
00100000
00001000
00010000
00001000
00000100
00000010
,
00000100
00000000
00001000
00000100
00000000
00000001
,
00000010
00001000
00010000
00001000
00000010
00000100
,
00010000
00000000
00001000
00010000
00000000
00001000
,
01000000
00000000
00100000
00000000
01000000
00000000
00020000
00000000
00000000
00030000
00000000
00000000
,
10000000
00000000
00000000
10000000
00000000
00000000
10000000
00000000
00100000
00000000
00000000
00100000
00000000
00000000
00100000
00000000
,
00010000
00000000
00000000
00010000
00000000
00000000
00010000
00000000
00001000
00000000
00000000
00001000
00000000
00000000
00001000
00000000
,
00010000
00000000
00000000
00010000
00000000
00000000
00010000
00000000
00000100
00000000
00000000
00000100
00000000
00000000
00000100
00000000
,
00000010
00000000
00000000
00000010
00000000
00000000
00000010
00000000
00000001
00000000
00000010
00000000
00000001
00000000
00000010
00000000
,
00000000
00000000
00000000
00000000
,
00000110
00000000
00000000
00000110
00000000
00000000
00001001
00000000
00001001
00000000
00000000
00000000
00000000
00000000
00000000
00000000
,
00000001
00000100
00001000
00000100
00000010
00000001
00000010
00001000
,
00000020
00000000
00000130
00001000
00020000
00000000
00031000
00100000
,
01000000
00100000
00010000
01000000
10000000
01000000
00010000
00100000
,
00001000
00010000
00000100
00001000
00000001
00001000
00000001
00000000
,
00000001
00000010
00001000
00000010
00000001
00000100
00000010
00001000
,
00000200
00000000
00010300
00001000
00020000
00000000
01030000
00100000
,
10000000
00100000
00010000
00100000
01000000
00010000
00001000
00000010
,
00000000
00000000
00000100
00000000
00000000
00000000
00000100
00000000
00000010
00000000
00000000
00000010
00000000
00000000
00000100
00000000
,
00000110
00000000
00000011
00000000
00000001
00000100
00000001
00000000
,
00000101
00000000
00001001
00000000
00001000
00000100
00001000
00000000
,
00001100
00000000
00010100
00000000
00010000
00001000
00010000
00000000
,
00011000
00000000
01001000
00000000
00001000
00100000
00001000
00000000
,
00100000
00000000
01000000
00100000
00000000
00100000
00010000
00000000
00010000
10000000
00000000
00000000
,
01000000
00000000
01000000
00010000
00000000
00010000
00001000
00000000
00001000
00000100
00000000
00000000
,
00000010
00000000
00000001
00000010
00000000
00000010
00001000
00000000
00001000
00000100
00000000
00000000
,
00010000
00000000
00000000
00000000
00001000
00000000
00000000
00000000
00010000
00000000
00000000
00001000
00000000
00000000
00010000
00000000
,
00000000
00012000
00000000
01003000
,
00100000
01000000
00100000
01000000
00100000
01000000
00100000
00000000
,
20020000
00000000
00000000
30030000
,
20000000
30000000
00200000
00300000
,
02000000
03000000
00020000
00030000
,
00200000
00300000
00002000
00003000
,
00020000
00032000
00003020
00000130
,
00000000
00000110
00001001
00001010
,
00000010
00000100
00001000
00000000
00000100
00001000
00010000
00000000
,
00001000
00010000
00001000
00010000
00001000
00001000
00010000
00010000
,
00000000
00000000
01000000
00000000
00000000
00000000
00100000
00000000
01000000
00000000
00000000
10000000
00000000
00000000
01000000
00000000
,
00000000
00000000
11000000
01000000
10000000
01000000
00100000
00000000
,
00020000
00000000
01030000
00001000
00200000
00000000
00301000
00010000
,
00000100
00000010
00000100
00000001
00000100
00001000
00000010
00000000
,
00000010
00001000
00000100
00000010
00000001
00001000
00000001
00000000
,
00000001
00000100
00001000
00000100
00000010
00001000
00000001
00000100
,
00002000
00000000
00013000
00000100
00002000
00000000
00003100
00010000
,
00001000
00100000
01000000
10000000
00010000
00100000
01000000
10000000
,
00000000
00000000
01000000
00000000
00000000
00000000
00100000
00000000
01000000
00000000
00000000
10000000
00000000
00000000
01000000
00000000
,
00100000
00100000
00010000
01000000
01000000
00000000
,
00001000
00001000
00010000
00000100
00000100
00000000
,
00000010
00000010
00000001
00000100
00000100
00000000
,
00000010
00000010
00001000
00000001
00000001
00000000
,
00001000
00000010
00010000
00001000
,
00101000
01010000
10100000
01100000
,
00100000
01000000
00100000
01000000
00100000
01000000
00100000
02000000
,
00200000
00000000
00000000
03300000
,
00000000
00000000
00000000
00000000
;
#NOTES:
     dance-double:
     :
     Hard:
     16:
     :
00000000
00000000
00000000
00000000
,
00000000
00000000
00000000
00000000
,
00000000
00000000
00000000
00000000
,
00010000
00000000
00001000
00010000
00001000
00000000
00010000
00001000
00100000
00000000
00010000
00100000
00010000
00000000
00100000
00000000
,
01000000
00000000
10000000
01000000
10000000
00000000
01000000
00100000
01000000
00000000
00100000
01000000
00010000
00000000
00001000
00000000
,
00010000
00000000
00001000
00010000
00001000
00000000
00010000
00000100
00001000
00000000
00000010
00001000
00000010
00000000
00000100
00000000
,
00000001
00000000
00000001
00000000
00000010
00000100
00000010
00000000
00001000
00000010
00000000
00000020
00000000
00000000
00000031
00000000
,
00001000
00000000
00000010
00000100
00000010
00000000
00000100
00001000
00000100
00000000
00001000
00010000
00001000
00000000
00010000
00000000
,
00001000
00000000
00010000
00001000
00010000
00000000
00001000
00100000
00010000
00000000
00100000
01000000
00010000
00000000
01000000
00000000
,
10000000
00000000
00100000
10000000
00100000
00000000
01000000
00100000
01000000
00000000
00100000
00010000
00100000
00000000
10000000
00000000
,
01000000
00000000
01000000
00000000
01000000
00000000
01100000
00000000
00000000
10010000
00000000
00000000
,
11000000
01000000
00100000
00010000
00100000
00001000
01000000
00010000
,
00200000
00000000
01300000
00010000
00002000
00000000
00003100
00000010
,
00000011
00000001
00000010
00001000
00000100
00000010
00001000
00010000
,
00100000
00000000
00100000
00000000
01000000
00100000
00010000
00000000
00100000
10000000
00000000
20000000
00000000
00000000
31000000
00000000
,
11000000
10000000
01000000
00100000
01000000
00010000
10000000
00100000
,
00020000
00000000
01030000
00100000
00020000
00000000
00031000
00010000
,
00011000
00001000
00000100
00000010
00010000
00001000
00000100
00000001
,
00000000
00000000
00000010
00000000
00000000
00000000
00000010
00000000
00001000
00000010
00000000
00000010
00000000
00000000
00000001
00000000
,
00000011
00001001
00000101
00000110
00001010
00000000
,
00001100
00001001
00000011
00000110
00010100
00000000
,
00011000
00101000
00110000
10010000
01010000
00000000
,
01100000
01100000
10100000
10010000
10010000
00000000
,
10000000
01000000
00100000
01000000
,
10000000
01000000
00100000
01000000
10000000
00010000
01000000
00000000
,
00100000
10000000
00100000
10000000
00100000
10000000
00100000
10000000
00100000
01000000
00100000
01000000
00100000
01000000
00100000
01000000
,
00100000
10000000
00100000
10000000
00100000
10000000
00010000
01000000
00010000
01000000
00010000
01000000
,
00010000
00000000
10000000
01000000
10000000
00000000
00100000
00000000
00010000
00001000
00010000
00000000
,
00001000
00000100
00000001
00001000
00000010
00000001
00000010
00000000
00001000
00000000
00000100
00000000
,
00001000
00000000
00000001
00000100
00000001
00000000
00000010
00000000
00001000
00010000
00001000
00000000
,
00100000
00010000
01000000
00100000
10000000
01000000
00100000
00000000
01000000
00000000
01100000
00000000
,
10010000
00000000
10000000
00010000
10000000
00000000
01000000
00000000
00010000
00001000
00010000
00000000
,
00001000
00000000
00000000
00000000
00010000
00000000
00000000
00000000
00100000
00000000
00000000
00000000
01000000
00000000
00000000
00000000
00001000
00000000
00000000
00000000
00010000
00000000
00000000
00000000
00001000
00000000
00000000
00010000
00000000
00000000
00001000
00000000
00000000
00010000
00000000
00000000
00000100
00000000
00000000
00001000
00000000
00000000
00000100
00000000
00000000
00001000
00000000
00000000
,
00000100
00000010
00000000
00000020
00000000
00000000
00000031
00000000
00000001
00000100
00000000
00000200
00000000
00000000
00001300
00000000
,
00001000
00010000
00000000
00020000
00000000
00000000
00130000
00000000
00100000
00010000
00000000
00020000
00000000
00000000
00031000
00000000
,
00001000
01000000
00000000
02000000
00000000
00000000
03100000
00000000
00100000
10000000
00000000
20000000
00000000
00000000
30010000
00000000
,
00020000
00000000
00000000
00230000
00000000
00000000
01300000
00000000
10000000
01000000
00100000
00000000
00010000
10000000
00010000
10000000
,
00000000
00000000
00000000
00000000
,
01100000
00000000
00000000
01100000
00000000
00000000
10010000
00000000
10010000
00000000
00000000
00000000
00000000
00000000
00000000
00000000
,
10000000
00000000
01000000
00000000
00010000
00000000
01000000
00000000
00100000
00000000
10000000
00100000
00010000
00000000
00100000
00001000
,
00010000
00000000
00001000
00010000
00000100
00000000
00001000
00000010
00001000
00000000
00000001
00001000
00000010
00000000
00001000
00000000
,
00000010
00000000
00000001
00000000
00000010
00000000
00000100
00000000
00001000
00000000
00010000
00001000
00000100
00000000
00000010
00000000
,
00001000
00000100
00000010
00000000
00000001
00000100
00000010
00000000
00001000
00000100
00000000
00000100
00000010
00000000
00001000
00000000
,
00000010
00000000
00000100
00000000
00000001
00000000
00000100
00000000
00001000
00000000
00000010
00000001
00000010
00000000
00001000
00000100
,
00000010
00000000
00001000
00010000
00001000
00000000
00100000
00010000
10000000
00000000
00100000
10000000
00010000
00000000
10000000
00000000
,
01000000
00100000
00010000
00100000
00001000
01000000
00010000
01000000
,
00000000
00000000
00100000
00000000
00000000
00000000
00100000
00000000
10000000
01000000
00000000
00100000
00000000
00000000
10000000
00000000
,
00100000
00000000
01000000
00010000
00001000
00000000
00001000
00010000
00000000
00010000
00000000
00010000
00000100
00000000
00000000
00000000
,
00000100
00000000
00000010
00001000
00010000
00000000
00010000
00001000
00000000
00001000
00000000
00001000
00100000
00000000
00000000
00000000
,
00100000
00000000
01000000
00010000
00001000
00000000
00000010
00000100
00000000
00000100
00000000
00000100
00000010
00000000
00000000
00000000
,
00000100
00000000
00000010
00001000
00010000
00000000
01000000
00100000
00000000
00100000
00000000
00100000
01000000
00000000
00000000
00000000
,
10000000
01000000
01000000
00100000
00000000
00001000
00010000
00001000
00010000
00001000
00000000
00000000
,
00010000
00000100
00000100
00000010
00000000
00000001
00001000
00000001
00000100
00000010
00000000
00000000
,
00001000
00000100
00000100
00000100
00000000
00010000
00001000
00100000
00100000
00100000
00000000
00000000
,
00020000
00000000
00000000
00000000
20030000
00000000
00000000
00000000
30010000
00100000
01000000
00100000
01000000
10000000
01000000
00000000
,
00000000
00000000
00000000
21000000
00000000
00000000
00000000
00000000
00000000
31000000
00100000
01000000
,
00100000
00000000
00001000
00000000
00010000
00000000
00001000
00000000
00010000
00000000
00001000
00000000
00010000
00001000
00010000
00000000
,
00022000
00000000
00000000
00033000
,
00020000
00000000
00001000
00000000
,
00030200
00000000
00000010
00000000
,
00020300
00000000
00000100
00000000
,
00031000
00010000
00001000
00010000
,
00000000
00011000
01001000
00010100
,
00010000
00000100
00000010
00000001
,
00000010
00000000
00000010
00000000
00000100
00000000
00000100
00000000
00001000
00000001
00001000
00000001
00001000
00000001
00001000
00000001
,
00000000
00000000
00000010
00000000
00000000
00000000
00000010
00000000
00000100
00000000
00000000
00000010
00000000
00000000
00001001
00000000
,
00000000
00000000
00000000
00000000
00000011
00000000
00000010
00000000
00001000
00000000
00000010
00000001
00000100
00000000
00000010
00001000
,
00000100
00000000
00001000
00000100
00010000
00000000
00001000
00010000
00000100
00000000
00001000
00000100
00000010
00000000
00001000
00000000
,
00010000
01000000
10000000
01000000
00100000
00001000
01000000
00100000
,
10000000
01000000
10000000
01000000
00100000
00010000
00100000
00000000
00010000
01000000
00000000
01000000
00100000
00000000
10000000
00000000
,
01000000
00000000
00010000
00000000
10000000
00000000
00100000
00000000
00010000
00000000
00001000
00010000
00001000
00000000
00000100
00000000
,
00000020
00000000
00000000
00000031
00001000
00000000
00000100
00000000
00000020
00000000
00000000
00001030
00010000
00000000
00001000
00000000
,
00010000
00001000
00000100
00000010
00010000
00001000
00100000
01000000
,
00000000
00000000
00100000
00000000
00000000
00000000
00100000
00000000
01000000
10000000
00000000
10000000
00000000
00000000
00010000
00000000
,
00110000
10010000
01010000
01001000
00011000
00000000
,
00011000
00010100
00000110
00010100
00011000
00000000
,
00011000
00101000
01100000
01010000
11000000
00000000
,
10010000
10010000
01100000
10010000
10010000
00000000
,
10000000
00000000
00000000
00100000
00010000
00000000
00000000
00010000
00100000
00000000
00000000
00100000
01000000
00000000
00000000
01000000
,
00001000
00000000
00000000
00001000
00010000
00000000
00000000
00010000
00000100
00000000
00000000
00000100
00000010
00000000
00000000
00000001
,
00000100
00000001
00000100
00000001
00000100
00000001
00000100
00000001
00001000
00000010
00001000
00000010
00001000
00000010
00001000
00000010
,
00002000
00000000
00000000
00003000
,
00000000
00000000
00000000
00000000
;
