
//----- song ID: sans2 -----//
#TITLE:チルノのパーフェクトさんすう学園;
#ARTIST:ビートまりお;
#TITLETRANSLIT:Cirno no perfect sansuu gakuen;
#ARTISTTRANSLIT:BeatMARIO;
#BANNER:Cirno no perfect sansuu gakuen.png;
#BACKGROUND:Cirno no perfect sansuu gakuen-bg.png;
#CDTITLE:./CDTitles/DDR WORLD.png;
#MUSIC:Cirno no perfect sansuu gakuen.ogg;
#SAMPLESTART:24.125;
#SAMPLELENGTH:15;
#BPMS:0=179;
#NOTES:
     dance-single:
     :
     Beginner:
     3:
     :
0000
0000
0000
0000
,
0000
0000
0000
0000
,
0000
0000
0000
0000
,
0000
0000
0000
0000
,
0000
0000
0000
0000
,
1000
0000
0000
0000
,
0001
0000
0000
0000
,
0010
0000
0000
0000
,
0000
0000
0000
0000
,
0002
0000
0000
0000
,
0003
0000
0000
0000
,
2000
0000
0000
0000
,
3000
0000
0000
0000
,
0100
0000
0000
0000
,
0010
0000
0000
0000
,
0001
0000
0001
0000
,
0001
0000
0000
0000
,
0020
0000
0000
0000
,
0030
0000
0000
0000
,
0001
0000
0000
0000
,
0010
0000
0000
0000
,
0100
0000
0000
0000
,
1000
0000
1000
0000
,
1000
0000
0000
0000
,
0100
0000
0000
0000
,
0010
0000
0000
0000
,
0001
0001
0001
0000
,
0001
0000
0000
0000
,
0100
0000
0000
0000
,
0010
0000
0000
0000
,
1000
0000
1000
0000
,
1000
0000
0000
0000
,
0010
0000
0000
0000
,
1000
0000
1000
0000
,
0001
0001
0000
0000
,
0100
0000
0000
0000
,
0010
0000
0010
0000
,
0020
0000
0000
0000
,
0030
0000
0000
0000
,
1000
0000
0000
0000
,
0100
0000
0100
0000
,
0200
0000
0000
0000
,
0300
0000
0000
0000
,
0010
0000
0000
0000
,
0001
0000
0001
0000
,
0001
0000
0000
0000
,
1000
0000
0000
0000
,
0001
0000
1000
0000
,
0001
0000
1000
0000
,
0001
0000
0000
0000
,
0010
0000
0000
0000
,
0002
0000
0000
0000
,
0003
0000
0000
0000
,
0020
0000
0000
0000
,
0030
0000
0000
0000
,
0100
0000
0000
0000
,
1000
0000
0000
0000
,
0001
0000
0010
0000
,
1001
0000
0000
0000
,
1000
0000
0010
0000
,
0001
0000
0000
0000
,
0001
0000
0100
0000
,
1000
0000
0000
0000
,
0010
0000
0010
0000
,
1000
0000
1000
0000
,
0001
0000
0001
0000
,
0001
0001
0001
0000
,
0001
0000
0010
0000
,
1000
0000
0000
0000
,
1000
0000
0100
0000
,
0001
0000
0000
0000
,
0010
0000
0010
0000
,
0001
0000
0001
0000
,
1000
0000
1000
1000
,
1000
0000
0000
0000
,
0020
0000
0000
0000
,
0000
0000
0000
0000
,
0030
0000
0000
0000
,
1000
0000
1000
0000
,
1000
0000
0000
0000
,
0100
0000
0000
0000
,
0010
0000
0000
0000
,
0001
0001
0001
0000
,
0001
0000
0000
0000
,
0100
0000
0000
0000
,
0010
0000
0000
0000
,
1000
0000
1000
0000
,
1000
0000
0000
0000
,
0010
0000
0000
0000
,
1000
0000
1000
0000
,
0001
0001
0000
0020
,
0000
0000
0000
0000
,
0030
0000
0000
0000
,
0000
0000
0000
0000
;
#NOTES:
     dance-single:
     :
     Easy:
     7:
     :
0000
0000
0000
0000
,
0000
0000
0000
0000
,
0000
0000
0000
0000
,
0000
0000
0000
0000
,
0000
0000
0000
0000
,
2000
0000
0000
3000
0000
0000
0000
0000
,
0002
0000
0000
0003
0000
0000
0000
0000
,
0020
0000
0030
0000
,
0000
0000
0000
0000
,
0002
0000
0013
0000
,
0200
0000
0300
0000
,
2000
0000
3001
0000
,
0020
0000
0030
0000
,
0002
0000
0100
0000
,
2003
0000
0010
0000
,
3001
1000
0001
1000
,
0020
0030
0100
0100
,
0020
0000
0000
0000
,
0130
0000
0000
1001
,
0002
0010
2000
3003
,
2000
0010
0002
3003
,
0002
0010
2000
3003
,
0020
0030
0200
0300
,
0002
0100
2000
3003
,
2000
0100
0002
3003
,
0002
0100
2000
3003
,
0001
1000
0020
0030
,
2000
0010
0002
3003
,
0002
0010
2000
3003
,
2000
0010
0002
3003
,
0020
0030
0200
0300
,
2000
0100
0002
3003
,
0002
0100
2000
3003
,
0002
0003
2000
3000
,
0200
0310
0000
0000
,
0012
0000
1000
0000
,
0203
0000
0300
0000
,
2010
0000
0001
0000
,
3200
0000
0300
0000
,
2100
0000
0001
0000
,
3020
0000
0030
0000
,
0200
0000
0302
0000
,
2000
0000
0000
3003
,
1000
0100
0010
0000
,
0020
0031
0020
0031
,
1000
0000
1001
0000
,
0002
2003
0002
3003
,
1010
0000
1001
0000
,
0011
0000
1001
0000
,
0002
0000
0203
0000
,
0320
0000
0000
0030
,
2000
0000
3000
0000
,
0200
0000
0300
0000
,
0020
0000
0030
0000
,
0002
0000
0003
0000
,
2000
0000
0100
0000
,
3002
0000
0103
0000
,
0001
0000
0010
0000
,
2002
0000
3003
0000
,
2000
0010
0001
3100
,
2000
0010
0001
3100
,
2000
0010
0001
3100
,
1000
0100
0020
0030
,
2001
0000
3200
0000
,
0302
0000
0203
0000
,
1300
0100
0010
0001
,
1000
0001
2002
3003
,
0002
0100
1000
0013
,
0002
0100
1000
0013
,
0002
0100
1000
0013
,
0001
0010
0200
0300
,
1002
0000
0023
0000
,
2030
0000
3020
0000
,
0031
0010
0100
1000
,
0001
0100
0220
0330
,
2000
0010
0002
3003
,
0002
0010
2000
3003
,
2000
0010
0002
3003
,
0010
0010
0200
0300
,
2000
0100
0002
3003
,
0002
0100
2000
3003
,
2000
0100
0002
3003
,
1000
0001
0020
0030
,
0002
0010
2000
3003
,
2000
0010
0002
3003
,
0002
0010
2000
3003
,
0010
0010
0200
0300
,
0002
0100
2000
3003
,
2000
0100
0002
3003
,
0100
0100
0100
0000
,
0010
0010
0000
2002
,
0000
0000
0000
0000
,
3003
0000
0000
0000
,
0000
0000
0000
0000
;
#NOTES:
     dance-single:
     :
     Medium:
     12:
     :
0000
0000
0000
0000
,
0000
0000
0000
0000
,
0000
0000
0000
0000
,
0000
0000
0000
0000
,
0000
0000
0000
0000
,
MMMM
0000
0000
0000
,
MMMM
0000
0000
0000
,
MMMM
0000
2000
3000
,
MMMM
0000
0000
0000
0000
1000
0100
0010
,
0002
0000
0003
MMMM
0002
0003
MMMM
0002
,
0000
0000
0010
0000
1003
0001
0100
0010
,
2000
0000
3000
MMMM
2000
3000
MMMM
2000
,
0000
0010
3001
2000
,
3100
0000
MMMM
0000
0001
0010
0002
0000
,
0103
0000
MMMM
0000
1000
0010
2000
0000
,
3001
0100
0001
0100
0010
1000
0010
1000
,
0020
0000
0130
0001
2000
0000
3002
0000
,
0023
0001
0100
0031
,
1000
0010
0100
0001
1000
0000
MMMM
0000
,
0020
0030
MMMM
0020
0030
MMMM
0010
0000
,
0002
0003
MMMM
0002
0003
MMMM
0001
0000
,
0200
0300
MMMM
0200
0300
MMMM
0100
0000
,
0001
1000
0001
0020
0000
0130
1000
0000
,
0200
0300
MMMM
0200
0300
MMMM
0100
0000
,
2000
3000
MMMM
2000
3000
MMMM
1000
0000
,
0020
0030
MMMM
0020
0030
MMMM
0010
0000
,
1000
0001
1000
0001
MMMM
0000
0001
1000
,
0020
0030
MMMM
0020
0030
MMMM
0010
0000
,
2000
3000
MMMM
2000
3000
MMMM
1000
0000
,
0200
0300
MMMM
0200
0300
MMMM
0100
0000
,
2000
3002
0200
0303
,
0200
0300
MMMM
0200
0300
MMMM
0100
0000
,
0002
0003
MMMM
0002
0003
MMMM
0001
0000
,
0010
0000
0000
MMMM
0000
0000
1000
0000
0000
MMMM
0000
0000
1000
0000
0100
0000
,
0010
0000
0100
0000
0010
0000
0000
MMMM
0000
0000
0000
0000
1001
0000
0000
0000
,
2000
3020
0032
0003
,
2000
3200
0302
0003
,
0002
0023
2030
3010
,
0200
0000
0000
0000
0000
0300
MMMM
0000
,
0002
0023
2030
3000
,
0002
0203
2300
3000
,
0001
0010
0200
0000
0310
0100
2000
3000
,
MMMM
MMMM
MMMM
MMMM
MMMM
0000
1001
0000
,
0001
1000
0002
0000
0023
0000
0031
0000
,
2020
0030
0001
0000
0020
0030
3001
0000
,
1000
0010
1000
0000
0100
MMMM
0100
MMMM
,
0200
0310
2002
3003
,
2200
3300
0000
MMMM
0202
0303
0000
MMMM
,
0022
0033
0000
MMMM
1000
0001
1000
0000
,
0001
0010
0200
0000
0310
0100
2000
0000
,
3002
0000
0000
0203
0020
0000
0330
0000
,
2000
0000
0000
0000
,
3200
0000
0000
0000
,
0320
0000
0000
0000
,
0032
0000
0000
0000
,
2003
0000
3010
1000
0002
0000
0013
0001
,
2000
0000
3100
1000
0001
1000
0001
1000
,
0002
0003
MMMM
0000
0020
0030
MMMM
MMMM
,
2002
0000
0000
0000
3003
1000
0100
0010
,
0001
0000
MMMM
0001
0100
0000
MMMM
1000
,
0010
0000
MMMM
0002
0100
0000
1000
0000
,
0013
0000
MMMM
0010
0001
0000
MMMM
0100
,
2000
0100
0001
3010
,
2002
0000
3003
1000
0100
0010
0002
0000
,
1003
0010
2000
0000
3001
0100
0002
0000
,
1003
0100
1000
0100
0010
0001
0010
0001
,
MMMM
0000
1001
0000
MMMM
0001
0100
0010
,
1000
0000
MMMM
1000
0100
0000
MMMM
0001
,
0010
0000
MMMM
2000
0100
0000
0001
0000
,
3010
0000
MMMM
0010
1000
0000
MMMM
0100
,
0002
0100
1000
0013
,
2002
0000
3003
0001
0100
0010
2000
0000
,
3001
0010
0002
0000
1003
0100
2000
0000
,
3001
0100
0001
0100
0010
1000
0010
1000
,
0100
0010
0100
0010
0100
0000
MMMM
0000
,
0200
0300
MMMM
0200
0300
MMMM
0100
0000
,
2000
3000
MMMM
2000
3000
MMMM
1000
0000
,
0020
0030
MMMM
0020
0030
MMMM
0010
0000
,
1000
0001
1000
0200
0000
0310
0001
0000
,
0020
0030
MMMM
0020
0030
MMMM
0010
0000
,
0002
0003
MMMM
0002
0003
MMMM
0001
0000
,
0200
0300
MMMM
0200
0300
MMMM
0100
0000
,
0001
1000
0001
1000
MMMM
0000
1000
0001
,
0200
0300
MMMM
0200
0300
MMMM
0100
0000
,
0002
0003
MMMM
0002
0003
MMMM
0001
0000
,
0020
0030
MMMM
0020
0030
MMMM
0010
0000
,
0001
1000
0001
0000
2020
0000
3030
0000
,
0020
0030
MMMM
0020
0030
MMMM
0010
0000
,
2000
3000
MMMM
2000
3000
MMMM
1000
0000
,
0100
0000
0000
MMMM
0000
0000
0001
0000
0000
MMMM
0000
0000
0001
0000
0100
0000
,
0010
0000
0100
0000
0010
0000
0000
MMMM
0000
0000
0000
0000
2002
0000
0000
0000
,
0000
0000
0000
0000
,
3003
0000
0000
0000
,
0000
0000
0000
0000
;
#NOTES:
     dance-single:
     :
     Hard:
     15:
     :
0000
0000
0000
0000
,
0000
0000
0000
0000
,
0000
0000
0000
0000
,
0000
0000
0000
0000
,
0000
0000
0000
0000
,
MMMM
0000
MMMM
0000
,
MMMM
0000
0000
0000
0000
0000
0000
0000
MMMM
0000
0000
1000
0000
0000
0001
0000
,
MMMM
0000
0020
0000
0000
0030
0000
0000
0200
0000
0000
0000
0000
0000
0300
0000
,
MMMM
0000
0000
0000
0000
1000
0100
0010
,
0022
0000
0033
MMMM
2002
3003
MMMM
2200
,
0000
0000
0000
3300
0000
0100
1000
0001
,
0202
0000
0303
MMMM
0220
0330
MMMM
2020
,
0000
0000
3030
0210
,
2300
3000
MMMM
0000
0020
0030
MMMM
0000
,
0002
0003
MMMM
0000
0200
0300
MMMM
0000
,
0002
0103
0020
1030
0002
0013
0200
1300
,
0020
0030
0010
0010
2000
0000
3002
0000
,
0023
0100
1000
0100
,
0031
1000
0010
0100
0001
0000
2002
3003
,
0002
0003
MMMM
0002
0003
MMMM
0100
1000
,
0020
0030
MMMM
0020
0030
MMMM
0001
1000
,
0200
0300
MMMM
0200
0300
MMMM
0001
0010
,
0100
MMMM
0100
0020
0030
MMMM
0010
0001
,
2000
3000
MMMM
2000
3000
MMMM
0100
0001
,
0020
0030
MMMM
0020
0030
MMMM
1000
0001
,
0200
0300
MMMM
0200
0300
MMMM
1000
0010
,
0200
0302
0203
0301
MMMM
0100
1000
0001
,
0200
0300
MMMM
0200
0300
MMMM
1000
0100
,
0020
0030
MMMM
0020
0030
MMMM
0001
0100
,
2000
3000
MMMM
2000
3000
MMMM
0100
0001
,
2000
3000
0200
0300
0220
0000
0330
MMMM
,
0200
0300
MMMM
0200
0300
MMMM
0001
0100
,
0020
0030
MMMM
0020
0030
MMMM
1000
0100
,
0001
0000
MMMM
0100
0000
MMMM
1000
0000
MMMM
0100
0000
MMMM
0001
0000
1000
0000
,
0020
0030
0000
0000
0000
0000
0000
0000
0000
0000
0000
0000
0020
0030
0000
0000
0000
0000
0000
0000
0000
0000
0000
0000
0020
0030
0000
0000
0000
0000
0000
0000
0000
0000
0000
0000
0100
0000
0000
0000
0000
0000
0010
0000
0000
0000
0000
0000
0000
0000
0000
0000
0000
0000
0000
0000
0000
0000
0000
0000
MMMM
0000
0000
0000
0000
0000
0000
0000
0000
0000
0000
0000
2002
0000
0000
0000
0000
0000
0000
0000
0000
0000
0000
0000
3003
0000
0000
0000
0000
0000
0000
0000
0000
0000
0000
0000
,
2000
0000
3000
1000
0020
0000
0130
0000
0002
0000
0000
0000
0013
0000
0000
0000
,
0200
0000
0300
0100
2000
0000
3010
0000
0200
0000
0000
0000
0301
0000
0000
0000
,
0020
0000
0030
0010
0200
0000
1300
0000
0002
0000
0000
0000
1003
0000
0000
0000
,
0200
0300
0200
0300
0200
0300
MMMM
0000
,
0002
0000
0003
0001
0020
0000
0130
0000
2000
0000
0000
0000
3010
0000
0000
0000
,
0200
0000
0300
0100
0002
0000
0013
0000
0200
0000
0000
0000
1300
0000
0000
0000
,
0002
0023
0230
0302
2003
3020
0230
1300
,
MMMM
MMMM
MMMM
MMMM
MMMM
MMMM
2002
3003
,
0002
0203
2300
3200
0302
0000
1003
0000
,
2020
0030
0100
0000
0020
0030
3100
0000
,
0011
0001
1000
0010
0100
MMMM
1000
MMMM
,
0020
0032
0013
0000
2020
0000
3030
MMMM
,
0022
0000
0033
MMMM
0202
0000
0303
MMMM
,
2200
0000
3300
MMMM
1100
0100
0010
0000
,
0200
0302
2003
3020
0230
2300
3002
0103
,
0200
0000
0000
0010
0020
0000
0330
0000
,
2000
0000
0000
0002
0000
0000
0003
0000
,
3200
0000
0000
0002
0000
0000
0003
0000
,
0320
0000
0000
2000
0000
0000
3000
0000
,
0032
0000
0000
2000
0000
0000
3000
0000
,
0103
0000
0000
0000
0000
0000
0000
0000
0000
0000
0000
0000
0000
0000
0000
0000
0000
0000
0000
0000
0000
0000
0000
0000
0001
0000
0000
0000
0000
0000
0000
0000
0000
0000
0000
0000
0200
0300
0000
0000
0000
0000
0000
0000
0000
0000
0000
0000
0200
0300
0000
0000
0000
0000
0000
0000
0000
0000
0000
0000
0000
0000
0000
0000
0000
0000
0000
0000
0000
0000
0000
0000
1000
0000
0000
0000
0000
0000
0000
0000
0000
0000
0000
0000
0200
0300
0000
0000
0000
0000
0000
0000
0000
0000
0000
0000
,
0200
0000
0300
0000
0000
0000
0000
0000
0000
0000
0000
0000
0000
0000
0000
0000
0000
0000
0000
0000
0000
0000
0000
0000
0000
0000
0000
0000
0000
0000
0000
0000
0000
0000
0000
0000
0000
0000
0000
0000
0000
0000
0000
0000
0000
0000
0000
0000
0001
0000
0000
0000
0000
0000
0000
0000
0000
0000
0000
0000
0000
0000
0000
0000
0000
0000
0000
0000
0000
0000
0000
0000
0200
0000
0000
0300
0000
0000
0000
0000
0000
0000
0000
0000
0000
0000
0000
0000
0000
0000
0000
0000
0000
0000
0000
0000
0200
0000
0000
0300
0000
0000
0000
0000
0000
0000
0000
0000
0000
0000
0000
0000
0000
0000
0000
0000
0000
0000
0000
0000
0200
0000
0000
0300
0000
0000
0000
0000
0000
0000
0000
0000
0000
0000
0000
0000
0000
0000
0000
0000
0000
0000
0000
0000
0200
0000
0000
0300
0000
0000
0000
0000
0000
0000
0000
0000
0000
0000
0000
0000
0000
0000
0000
0000
0000
0000
0000
0000
0200
0000
0000
0300
0000
0000
0000
0000
0000
0000
0000
0000
0000
0000
0000
0000
0000
0000
0000
0000
0000
0000
0000
0000
,
0002
0003
MMMM
0000
0020
0030
MMMM
MMMM
,
2002
0000
0000
0000
3003
2000
3002
0203
,
1300
MMMM
0010
MMMM
0001
MMMM
0100
MMMM
,
1000
MMMM
0100
MMMM
0001
0002
2003
3020
,
0031
MMMM
0100
MMMM
1000
MMMM
0010
MMMM
,
0001
MMMM
0010
MMMM
1000
MMMM
0101
MMMM
,
2020
0000
3030
0010
0200
0301
1000
0100
,
0020
1030
0001
0100
0020
0031
1000
0010
,
0200
1300
0001
0010
0200
0301
1000
0100
,
0110
MMMM
1001
MMMM
1001
0002
2003
3200
,
0301
MMMM
0010
MMMM
1000
MMMM
0100
MMMM
,
0001
MMMM
0100
MMMM
1000
2000
3002
0023
,
1030
MMMM
0100
MMMM
0001
MMMM
0010
MMMM
,
1000
MMMM
0010
MMMM
0001
MMMM
1100
MMMM
,
0022
0000
0033
0010
0200
1300
0001
0100
,
0020
0031
1000
0100
0020
1030
0001
0010
,
0011
MMMM
1010
MMMM
2000
3020
0230
0301
,
0020
0030
0000
0000
0000
0000
0000
0000
0000
0000
0000
0000
0020
0030
0000
0000
0000
0000
0000
0000
0000
0000
0000
0000
0020
0030
0000
0000
0000
0000
0000
0000
0000
0000
0000
0000
0020
0030
0000
0000
0000
0000
0000
0000
0000
0000
0000
0000
0100
0000
0000
0000
0000
0000
0000
0000
0000
0000
0000
0000
0000
0000
0000
0000
0000
0000
0000
0000
0000
0000
0000
0000
0220
0000
0000
0000
0000
0000
0000
0000
0000
0000
0000
0000
0330
0000
0000
0000
0000
0000
0000
0000
0000
0000
0000
0000
,
2000
3000
MMMM
2000
3000
MMMM
0010
0001
,
0200
0300
MMMM
0200
0300
MMMM
1000
0001
,
0020
0030
MMMM
0020
0030
MMMM
1000
0100
,
0010
MMMM
0010
0200
0300
MMMM
0100
1000
,
0002
0003
MMMM
0002
0003
MMMM
0010
1000
,
0200
0300
MMMM
0200
0300
MMMM
0001
1000
,
0020
0030
MMMM
0020
0030
MMMM
0001
0100
,
0020
2030
3020
1030
MMMM
0010
0001
1000
,
0020
0030
MMMM
0020
0030
MMMM
0001
0010
,
0200
0300
MMMM
0200
0300
MMMM
1000
0010
,
0002
0003
MMMM
0002
0003
MMMM
0010
1000
,
0002
1003
0010
0100
0220
0000
0330
MMMM
,
0020
0030
MMMM
0020
0030
MMMM
0001
0010
,
0200
0300
MMMM
0200
0300
MMMM
1000
0010
,
0001
0000
MMMM
0100
0000
MMMM
1000
0000
MMMM
0100
0000
MMMM
0001
0000
1000
0000
,
0020
0030
0000
0000
0000
0000
0000
0000
0000
0000
0000
0000
0020
0030
0000
0000
0000
0000
0000
0000
0000
0000
0000
0000
0020
0030
0000
0000
0000
0000
0000
0000
0000
0000
0000
0000
0100
0000
0000
0000
0000
0000
0010
0000
0000
0000
0000
0000
0000
0000
0000
0000
0000
0000
0000
0000
0000
0000
0000
0000
MMMM
0000
0000
0000
0000
0000
0000
0000
0000
0000
0000
0000
2002
0000
0000
0000
0000
0000
0000
0000
0000
0000
0000
0000
0000
0000
0000
0000
0000
0000
0000
0000
0000
0000
0000
0000
,
0000
0003
0000
0000
,
3100
0000
0000
0000
,
0000
0000
0000
0000
;
#NOTES:
     dance-single:
     :
     Challenge:
     17:
     :
0000
0000
0000
0000
,
0000
0000
0000
0000
,
0000
0000
0000
0000
,
0000
0000
0000
0000
,
0000
0000
0000
0000
,
MMMM
MMMM
MMMM
MMMM
0000
MMMM
MMMM
MMMM
,
MMMM
0000
MMMM
0000
MMMM
0000
MMMM
0000
0000
0000
0000
0002
0003
1000
0001
0000
,
MMMM
0000
0020
0000
0030
1000
0000
0000
0200
0000
0000
0000
0000
0000
0300
0000
,
MMMM
0000
0000
0000
0000
0000
0000
0000
0000
0000
0000
0000
0000
MMMM
0000
0000
0000
0000
0000
0000
0000
0000
0000
0000
0000
0000
0000
MMMM
0000
0000
0000
0000
0000
0000
0000
0000
0000
0000
0000
0000
MMMM
0000
0000
0000
0000
0000
0000
0000
0000
0000
0000
0000
0000
0000
0000
0000
0000
0000
0000
0000
2000
0000
0000
0000
0000
0000
0000
0000
0000
0000
0000
0000
3100
0000
0000
0000
0000
0000
0000
0000
0000
0000
0000
0000
0010
0000
0000
0000
0000
0000
0000
0000
0000
0000
0000
0000
,
0022
0000
0033
MMMM
0220
0330
MMMM
2002
,
3000
2003
3200
0320
0031
2000
3010
0100
,
0202
0000
0303
MMMM
0220
0330
MMMM
2002
,
3003
0000
0001
0010
0002
0000
1003
0010
2000
0000
0000
0000
0200
0000
3300
0000
,
0012
0003
1000
0100
2000
3000
MMMM
0100
,
0002
0003
MMMM
0010
1000
0100
MMMM
0001
,
0100
0010
0001
1000
0100
0010
1000
0001
,
0010
MMMM
0010
0010
0100
MMMM
0100
MMMM
,
0002
0000
0023
0000
0230
0000
2300
0000
3001
1000
0001
1000
0001
1000
0001
1000
,
0002
0203
2300
3200
0301
MMMM
1001
MMMM
,
0002
0000
0013
0000
MMMM
0000
2000
0000
3010
0000
MMMM
0000
0001
0010
0001
0010
,
0002
0000
0103
0000
MMMM
0000
2000
0000
3100
0000
MMMM
0000
0001
1000
0001
0000
,
0200
0000
0310
0000
MMMM
0000
0002
0000
1003
0000
MMMM
0000
1000
0010
1000
0010
,
1000
0001
1000
0000
0100
0000
0020
0000
0030
0100
0010
0100
0010
0000
0001
0000
,
2000
0000
3100
0000
MMMM
0000
0002
0000
0103
0000
MMMM
0000
1000
0100
1000
0100
,
2000
0000
3010
0000
MMMM
0000
0002
0000
0013
0000
MMMM
0000
1000
0001
1000
0000
,
0200
0000
0310
0000
MMMM
0000
2000
0000
3001
0000
MMMM
0000
0001
0100
0001
0100
,
0001
1000
0001
1000
0001
1000
0001
1000
0100
0000
MMMM
0000
0001
0000
0100
0000
,
0020
0000
1030
0000
MMMM
0000
0200
0000
0301
0000
MMMM
0000
0100
1000
0100
1000
,
0200
0000
1300
0000
MMMM
0000
0020
0000
0031
0000
MMMM
0000
0010
1000
0010
0000
,
0200
0000
0310
0000
MMMM
0000
0002
0000
1003
0000
MMMM
0000
0100
0001
0100
0001
,
2000
0001
3020
1000
0230
0010
0301
1000
,
0200
0000
0310
0000
MMMM
0000
2000
0000
3001
0000
MMMM
0000
0010
0100
0010
0100
,
0020
0000
0130
0000
MMMM
0000
2000
0000
3001
0000
MMMM
0000
0100
0010
0100
0010
,
0001
0000
0000
0000
0000
0000
0020
0030
0000
0000
0000
0000
0000
0000
0000
0000
0000
0000
0020
0030
0000
0000
0000
0000
1000
0000
0000
0000
0000
0000
0000
0000
0000
0000
0000
0000
1000
0000
0000
0000
0000
0000
0200
0300
0000
0000
0000
0000
0000
0000
0000
0000
0000
0000
0200
0300
0000
0000
0000
0000
0001
0000
0000
0000
0000
0000
0000
0000
0000
0000
0000
0000
MMMM
0000
0000
0000
0000
0000
0000
0000
0000
0000
0000
0000
0010
0000
0000
0000
0000
0000
0000
0000
0000
0000
0000
0000
,
1000
0000
0100
0000
0001
0000
MMMM
0010
0000
0000
0000
MMMM
1001
0000
0000
0000
,
1100
0000
0000
0100
0010
0000
0001
0000
0012
0000
0000
0000
1003
0000
0000
0000
,
1010
1000
0010
0100
0201
0000
0310
0000
,
0120
0000
1030
0001
0010
0100
1000
0001
,
0200
0300
0200
0300
0200
0300
MMMM
0000
,
0101
0100
0010
1000
2010
0000
3001
0000
,
0011
0000
0010
0001
0010
0000
0100
0000
1200
0000
0000
0000
0310
0000
0000
0000
,
0002
0023
0230
0302
2003
3020
0230
1300
,
MMMM
MMMM
MMMM
MMMM
MMMM
MMMM
1001
MMMM
,
0102
0203
2300
3002
0023
0000
1030
0000
,
0021
0000
0130
MMMM
0021
0000
0130
MMMM
,
2100
3200
0320
0032
0013
MMMM
1000
MMMM
,
0100
0001
0100
0001
0100
0000
0000
0000
0220
0000
0000
0000
0000
0000
0330
0000
,
MMMM
0010
1000
0010
MMMM
0001
0010
0001
,
MMMM
0100
1000
0100
MMMM
0001
1000
0000
,
0002
0203
2300
3002
0023
2030
3200
0320
,
0031
0000
1000
0010
1000
0000
0001
1000
0001
1000
0001
1000
0001
1000
0001
1000
,
0002
0000
0010
2000
0000
0000
3000
0000
,
0203
0000
0001
0020
0030
1000
0000
0010
,
0320
0000
0001
0200
0000
0000
0300
0000
,
2030
0010
0010
0002
0003
0001
0200
0300
,
3100
MMMM
0001
0100
0100
MMMM
1000
0010
,
0010
0000
0000
0000
0000
0000
0000
0000
0000
0000
0000
0000
0000
0000
0000
0000
0000
0000
0000
0000
0000
0000
0000
0000
MMMM
0000
0000
0000
0000
0000
0000
0000
0000
0000
0000
0000
0000
0000
0000
0000
0000
0000
0000
0000
0000
0000
0000
0000
0001
0000
0000
0000
0000
0000
0000
0000
0000
0000
0000
0000
0000
0000
0000
0000
0000
0000
0000
0000
0000
0000
0000
0000
0200
0000
0000
0300
0000
0000
0000
0000
0000
0000
0000
0000
0000
0000
0000
0000
0000
0000
0000
0000
0000
0000
0000
0000
0200
0000
0000
0300
0000
0000
0000
0000
0000
0000
0000
0000
0000
0000
0000
0000
0000
0000
0000
0000
0000
0000
0000
0000
0200
0000
0000
0300
0000
0000
0000
0000
0000
0000
0000
0000
0200
0000
0000
0300
0000
0000
0000
0000
0000
0000
0000
0000
0200
0000
0300
0000
0000
0000
0000
0000
0000
0000
0000
0000
0000
0000
0000
0000
0000
0000
0000
0000
0000
0000
0000
0000
0200
0000
0300
0000
0000
0000
0000
0000
0000
0000
0000
0000
0000
0000
0000
0000
0000
0000
0000
0000
0000
0000
0000
0000
,
0002
0003
MMMM
0000
0020
0030
MMMM
MMMM
,
2002
0000
0000
3003
MMMM
2000
3200
0320
,
0031
0000
MMMM
0100
1000
0000
MMMM
0010
0001
0000
MMMM
0100
1000
0000
MMMM
0010
,
0001
MMMM
0110
MMMM
1001
0002
0203
0320
,
1030
0000
MMMM
0100
0001
0000
MMMM
0010
1000
0000
MMMM
0100
0001
0000
MMMM
0010
,
1000
MMMM
0110
MMMM
1001
MMMM
1100
MMMM
,
0021
0000
0130
1000
MMMM
0010
0001
0100
,
MMMM
1000
0010
0001
MMMM
0100
0001
0010
,
MMMM
1000
0100
0001
MMMM
0010
0001
0100
,
0101
MMMM
1100
MMMM
1001
0002
2003
3200
,
0301
0000
MMMM
0001
0100
0000
MMMM
0100
1000
0000
MMMM
1000
0010
0000
MMMM
0010
,
0001
MMMM
0110
MMMM
1001
2000
3002
0203
,
1300
0000
MMMM
1000
0100
0000
MMMM
0100
0001
0000
MMMM
0001
0010
0000
MMMM
0010
,
1000
MMMM
0110
MMMM
1001
MMMM
0101
MMMM
,
1020
0000
0130
0001
MMMM
0010
1000
0100
,
MMMM
0001
0010
1000
MMMM
0100
1000
0010
,
1010
MMMM
0011
MMMM
1100
0100
0010
0001
,
0200
0300
0000
0000
0000
0000
0000
0000
0000
0000
0000
0000
0200
0300
0000
0000
0000
0000
0200
0300
0000
0000
0000
0000
0200
0300
0000
0000
0000
0000
0000
0000
0000
0000
0000
0000
0200
0300
0000
0000
0000
0000
0000
0000
0000
0000
0000
0000
0010
0000
0000
0000
0000
0000
0000
0000
0000
0000
0000
0000
MMMM
0000
0000
0000
0000
0000
0000
0000
0000
0000
0000
0000
1001
0000
0000
0000
0000
0000
0000
0000
0000
0000
0000
0000
MMMM
0000
0000
0000
0000
0000
0000
0000
0000
0000
0000
0000
,
2000
0000
3100
0000
MMMM
0000
0002
0000
0103
0000
MMMM
0000
1000
0100
1000
0100
,
2000
0000
3010
0000
MMMM
0000
0002
0000
0013
0000
MMMM
0000
1000
0001
1000
0000
,
0020
0000
0130
0000
MMMM
0000
2000
0000
3001
0000
MMMM
0000
0001
0100
0001
0100
,
0001
1000
0001
0000
0010
0000
0200
0000
0300
0010
0100
0010
0100
0000
1000
0000
,
0002
0000
0013
0000
MMMM
0000
2000
0000
3010
0000
MMMM
0000
0001
0010
0001
0010
,
0002
0000
0103
0000
MMMM
0000
2000
0000
3100
0000
MMMM
0000
0001
1000
0001
0000
,
0020
0000
0130
0000
MMMM
0000
0002
0000
1003
0000
MMMM
0000
1000
0010
1000
0010
,
1000
0001
1000
0001
1000
0001
1000
0001
0010
0000
MMMM
0000
1000
0000
0010
0000
,
0200
0000
0301
0000
MMMM
0000
0020
0000
1030
0000
MMMM
0000
0010
0001
0010
0001
,
0020
0000
0031
0000
MMMM
0000
0200
0000
1300
0000
MMMM
0000
0100
0001
0100
0000
,
0020
0000
0130
0000
MMMM
0000
2000
0000
3001
0000
MMMM
0000
0010
1000
0010
1000
,
0002
0023
2030
3002
0103
0210
1300
0001
,
0020
0000
0130
0000
MMMM
0000
0002
0000
1003
0000
MMMM
0000
0100
0010
0100
0010
,
0200
0000
0310
0000
MMMM
0000
0002
0000
1003
0000
MMMM
0000
0010
0100
0010
0100
,
1000
0000
0000
0000
0000
0000
0200
0300
0000
0000
0000
0000
0000
0000
0000
0000
0000
0000
0200
0300
0000
0000
0000
0000
0001
0000
0000
0000
0000
0000
0000
0000
0000
0000
0000
0000
0001
0000
0000
0000
0000
0000
0020
0030
0000
0000
0000
0000
0000
0000
0000
0000
0000
0000
0020
0030
0000
0000
0000
0000
1000
0000
0000
0000
0000
0000
0000
0000
0000
0000
0000
0000
MMMM
0000
0000
0000
0000
0000
0000
0000
0000
0000
0000
0000
0100
0000
0000
0000
0000
0000
0000
0000
0000
0000
0000
0000
,
0001
0000
0010
0000
1000
0000
MMMM
0100
0000
0000
0000
MMMM
2002
0000
0000
0000
,
0000
0000
0003
0000
0000
0000
0000
3000
,
MMMM
0000
0000
0000
,
0000
0000
0000
0000
;
#NOTES:
     dance-double:
     :
     Easy:
     7:
     :
00000000
00000000
00000000
00000000
,
00000000
00000000
00000000
00000000
,
00000000
00000000
00000000
00000000
,
00000000
00000000
00000000
00000000
,
00000000
00000000
00000000
00000000
,
00020000
00000000
00000000
00030000
00000000
00000000
00000000
00000000
,
00002000
00000000
00000000
00003000
00000000
00000000
00000000
00000000
,
00000020
00000000
00000030
00000000
,
00000000
00000000
00000000
00000000
,
00000002
00000000
00000013
00000000
,
00000200
00000000
00000300
00000000
,
00002000
00000000
00003010
00000000
,
00020000
00000000
00030000
00000000
,
00002000
00000000
00010000
00000000
,
02003000
00000000
00001000
00000000
,
03010000
10000000
00010000
10000000
,
00200000
00300000
01000000
01000000
,
00200000
00000000
00000000
00000000
,
01300000
00000000
00000000
10010000
,
20000000
00100000
00020000
30030000
,
00020000
10000000
00200000
00330000
,
00200000
00010000
00002000
00303000
,
00002000
00003000
00020000
00030000
,
00002000
00100000
00020000
00033000
,
00020000
00000010
00002000
00033000
,
00002000
01000000
00020000
00033000
,
00010000
00000100
00002000
00003000
,
00000002
00000010
00002000
00003003
,
00002000
00000001
00000020
00003030
,
00000020
00001000
00020000
00030030
,
00020000
00030000
00002000
00003000
,
00020000
00000100
00002000
00033000
,
00002000
01000000
00020000
00033000
,
00020000
00030000
00200000
00300000
,
02000000
03100000
00000000
00000000
,
20000000
00000000
00100000
00000000
,
30020000
00000000
00030000
00000000
,
00020000
00000000
10000000
00000000
,
02030000
00000000
03000000
00000000
,
02000000
00000000
00010000
00000000
,
03002000
00000000
00003000
00000000
,
00020000
00000000
00030200
00000000
,
00002000
00000000
00000000
00003300
,
00000001
00000100
00000010
00000000
,
00000020
00001030
00000020
00001030
,
00000020
00000000
00010030
00000000
,
00002000
00023000
00032000
00003000
,
00101000
00000000
00100000
00000000
,
00110000
00000000
00010000
00000000
,
20000000
00000000
32000000
00000000
,
03200000
00000000
00000000
00300000
,
02000000
00000000
03000000
00000000
,
00020000
00000000
00030000
00000000
,
00002000
00000000
00003000
00000000
,
00000200
00000000
00000300
00000000
,
00000002
00000000
00000100
00000000
,
00001000
00000000
00000013
00000000
,
00000001
00000000
00000010
00000000
,
00002002
00000000
00003003
00000000
,
00002000
00000010
00000001
00003100
,
00002000
00000010
00000001
00003100
,
00002000
00000010
00000001
00003100
,
00001000
00000100
00020000
00030000
,
00012000
00000000
00203000
00000000
,
00302000
00000000
00023000
00000000
,
00030010
00010000
00001000
00100000
,
00010000
10000000
20020000
30030000
,
00020000
01000000
10000000
00130000
,
00020000
01000000
10000000
00130000
,
00020000
01000000
10000000
00130000
,
00010000
00100000
00002000
00003000
,
00021000
00000000
00030200
00000000
,
00020300
00000000
00032000
00000000
,
01003000
00001000
00010000
00000010
,
00001000
00000010
00000220
00000330
,
00000002
00000010
00002000
00003003
,
00002000
00000001
00000020
00003030
,
00000020
00001000
00020000
00030030
,
00010000
00010000
00002000
00003000
,
00020000
00000010
00002000
00033000
,
00002000
00100000
00020000
00033000
,
00020000
00000100
00002000
00033000
,
00001000
01000000
00020000
00030000
,
20000000
00100000
00020000
30030000
,
00020000
10000000
00200000
00330000
,
00200000
00010000
00002000
00303000
,
00001000
00001000
00020000
00030000
,
00002000
01000000
00020000
00033000
,
00020000
00000100
00002000
00033000
,
00100000
00100000
00100000
00000000
,
00001000
00001000
00000000
00022000
,
00000000
00000000
00000000
00000000
,
00033000
00000000
00000000
00000000
,
00000000
00000000
00000000
00000000
;
#NOTES:
     dance-double:
     :
     Medium:
     12:
     :
00000000
00000000
00000000
00000000
,
00000000
00000000
00000000
00000000
,
00000000
00000000
00000000
00000000
,
00000000
00000000
00000000
00000000
,
00000000
00000000
00000000
00000000
,
MMMMMMMM
00000000
00000000
00000000
,
MMMMMMMM
00000000
00000000
00000000
,
MMMMMMMM
00000000
20000000
30000000
,
MMMMMMMM
00000000
00000000
00000000
00000000
10000000
01000000
00100000
,
00020000
00000000
00030000
MMMMMMMM
00020000
00030000
MMMMMMMM
00020000
,
00000000
00000000
10000000
00000000
00130000
00001000
00010000
00000010
,
00002000
00000000
00003000
MMMMMMMM
00002000
00003000
MMMMMMMM
00002000
,
00000000
00000001
00003010
00020000
,
00030100
MMMMMMMM
00002000
02003000
,
03010000
MMMMMMMM
00200000
10300000
,
01000000
00010000
00002000
00000000
00003020
00000000
00000031
00001000
,
00000010
00000000
00000010
00010000
00002000
00000000
00023000
00000000
,
00230000
0000MMMM
00010000
0000MMMM
01000000
0000MMMM
10300000
0000MMMM
,
10000000
00100000
01000000
00010000
10000000
00000000
MMMMMMMM
00000000
,
20000000
30000000
MMMMMMMM
20000000
30000000
MMMMMMMM
10000000
00000000
,
02000000
03000000
MMMMMMMM
02000000
03000000
MMMMMMMM
01000000
00000000
,
00020000
0003MMMM
MMMM1000
00020000
0003MMMM
MMMM1000
00010000
00000000
,
00000010
00000000
00000010
00000200
00000000
00000301
00001000
00000000
,
00000002
00000003
MMMMMMMM
00000002
00000003
MMMMMMMM
00000001
00000000
,
00000200
00000300
MMMMMMMM
00000200
00000300
MMMMMMMM
00000100
00000000
,
00002000
MMMM3000
0001MMMM
00002000
MMMM3000
0001MMMM
00001000
00000000
,
00010000
00100000
10000000
MMMMMMMM
,
20000000
30000000
MMMMMMMM
20000000
30000000
MMMMMMMM
10000000
00000000
,
00200000
00300000
MMMMMMMM
00200000
00300000
MMMMMMMM
00100000
00000000
,
00020000
0003MMMM
MMMM1000
00020000
0003MMMM
MMMM1000
00010000
00000000
,
00002000
00003200
00000302
00000003
,
00000002
00000003
MMMMMMMM
00000002
00000003
MMMMMMMM
00000001
00000000
,
00000020
00000030
MMMMMMMM
00000020
00000030
MMMMMMMM
00000010
00000000
,
00001000
00000000
00000000
MMMMMMMM
00000000
00000000
00010000
00000000
00000000
MMMMMMMM
00000000
00000000
00001000
00000000
00010000
00000000
,
00001000
00000000
00000000
00000000
00100000
00000000
00000000
MMMMMMMM
00000000
00000000
00000000
00000000
10010000
00000000
00000000
00000000
,
10000000
01000000
00020000
00030000
,
00001000
00000100
00000002
00000003
,
00000010
00001000
00010000
00100000
,
02000000
00000000
00000000
00000000
00000000
03000000
MMMMMMMM
00000000
,
10000000
00100000
00020000
00030000
,
00001000
00000010
00000002
00000003
,
00000100
00001000
00010000
01000000
,
MMMMMMMM
MMMMMMMM
MMMMMMMM
MMMMMMMM
MMMMMMMM
00000000
10010000
00000000
,
00010000
10000000
02000000
00000000
03020000
00000000
00031000
00000000
,
00020020
00000030
00001000
00000000
00000020
00000030
00031000
00000000
,
00010000
00001000
00010000
00000000
00000100
MMMMMMMM
00000100
MMMMMMMM
,
00000200
00000310
00002002
00003003
,
00000101
00000000
00000000
MMMMMMMM
00001010
00000000
00000000
MMMMMMMM
,
00011000
00000000
00000000
MMMMMMMM
00010000
00001000
00010000
00000000
,
00102000
00023000
00230000
20300000
,
32000000
00000000
03000000
00010000
00002000
00000000
00003000
00000000
,
00000200
00000000
00000000
00000000
,
00000302
00000000
00000000
00000000
,
00000023
00000000
00000000
00000000
,
00002030
00000000
00000000
00000000
,
00013000
00000000
00000000
01000000
10000000
00000000
00000000
00100000
,
00010000
00001000
00000010
00000100
,
00000002
00000003
MMMMMMMM
00000000
00000020
00000030
MMMMMMMM
MMMMMMMM
,
00002002
00000000
00000000
00000000
00003003
00001000
00000100
00000010
,
00000001
00000000
MMMMMMMM
00000001
00000100
00000000
MMMMMMMM
00001000
,
00000010
00000000
MMMMMMMM
00000010
00010000
00000000
00001000
00000000
,
01000000
00000000
MMMMMMMM
01000000
00010000
00000000
MMMMMMMM
00100000
,
10000000
01000000
00010000
00001000
,
00010200
00002300
MMMM0001
00000010
,
00023000
01000000
1000MMMM
00100000
,
00032000
00000100
MMMM0001
00003010
,
00011000
00000000
00101000
00000000
00100000
00010000
00100000
01000000
,
10000000
00000000
MMMMMMMM
10000000
00100000
00000000
MMMMMMMM
00010000
,
01000000
00000000
MMMMMMMM
01000000
00001000
00000000
00010000
00000000
,
00000010
00000000
MMMMMMMM
00000010
00001000
00000000
MMMMMMMM
00000100
,
00000001
00000010
00001000
00010000
,
02001000
03020000
1000MMMM
00100000
,
00032000
00000100
MMMM0001
00003010
,
00010010
00000000
00011000
00000000
00001000
00100000
00010000
10000000
,
01000000
00010000
00001000
00010000
00000020
00000030
MMMMMMMM
00000000
,
00000002
00000003
MMMMMMMM
00000002
00000003
MMMMMMMM
00000001
00000000
,
00000200
00000300
MMMMMMMM
00000200
00000300
MMMMMMMM
00000100
00000000
,
00002000
MMMM3000
0001MMMM
00002000
MMMM3000
0001MMMM
00001000
00000000
,
00100000
00010000
00100000
02000000
00000000
13000000
00010000
00000000
,
20000000
30000000
MMMMMMMM
20000000
30000000
MMMMMMMM
10000000
00000000
,
02000000
03000000
MMMMMMMM
02000000
03000000
MMMMMMMM
01000000
00000000
,
00020000
0003MMMM
MMMM1000
00020000
0003MMMM
MMMM1000
00010000
00000000
,
00000010
00001000
00000010
00001000
00000001
00000000
MMMMMMMM
00000000
,
00000002
00000003
MMMMMMMM
00000002
00000003
MMMMMMMM
00000001
00000000
,
00000020
00000030
MMMMMMMM
00000020
00000030
MMMMMMMM
00000010
00000000
,
00002000
MMMM3000
0001MMMM
00002000
MMMM3000
0001MMMM
00001000
00000000
,
00200000
00310000
20020000
30030000
,
20000000
30000000
MMMMMMMM
20000000
30000000
MMMMMMMM
10000000
00000000
,
00200000
00300000
MMMMMMMM
00200000
00300000
MMMMMMMM
00100000
00000000
,
00010000
00000000
00000000
MMMMMMMM
00000000
00000000
00001000
00000000
00000000
MMMMMMMM
00000000
00000000
00010000
00000000
00001000
00000000
,
00010000
00000000
00000000
00000000
00000010
00000000
00000000
MMMMMMMM
00000000
00000000
00000000
00000000
00002002
00000000
00000000
00000000
,
00000000
00000000
00000000
00000000
,
00003003
00000000
00000000
00000000
,
00000000
00000000
00000000
00000000
;
#NOTES:
     dance-double:
     :
     Hard:
     15:
     :
00000000
00000000
00000000
00000000
,
00000000
00000000
00000000
00000000
,
00000000
00000000
00000000
00000000
,
00000000
00000000
00000000
00000000
,
00000000
00000000
00000000
00000000
,
MMMMMMMM
00000000
MMMMMMMM
00000000
,
MMMMMMMM
00000000
00000000
00000000
00000000
00000000
00000000
00000000
MMMMMMMM
00000000
00000000
10000000
00000000
00000000
00010000
00000000
,
MMMMMMMM
00000000
00200000
00000000
00000000
00300000
00000000
00000000
02000000
00000000
00000000
00000000
00000000
00000000
03000000
00000000
,
MMMMMMMM
00000000
00000000
00000000
00000000
10000000
01000000
00100000
,
00220000
00000000
00330000
MMMMMMMM
00022000
00033000
MMMMMMMM
00002200
,
00000000
00000000
MMMM0000
00003300
MMMM0000
00000001
00001000
00000010
,
00002020
00000000
00003030
MMMMMMMM
00022000
00033000
MMMMMMMM
02020000
,
00000000
0000MMMM
0303MMMM
10020000
,
02030000
03000000
MMMMMMMM
00000000
20000000
30000000
MMMMMMMM
00000000
,
00200000
00300000
MMMMMMMM
00000000
00010000
00001000
MMMMMMMM
00000000
,
00002000
02003000
03020000
00032000
,
00003020
00000030
00000010
00000010
00000200
00000000
00000302
00000000
,
00002003
MMMM0000
00000100
MMMM0000
00000001
MMMM0000
00000010
MMMM0000
,
00023000
00000000
01030000
00010000
10000000
MMMMMMMM
20020000
30030000
,
20000000
30000000
MMMMMMMM
20000000
30000000
MMMMMMMM
01000000
00010000
,
00200000
00300000
MMMMMMMM
00200000
00300000
MMMMMMMM
10000000
01000000
,
00020000
0003MMMM
MMMM1000
00020000
0003MMMM
MMMM1000
00000100
00000001
,
00001000
MMMMMMMM
00010000
00000020
00000030
MMMMMMMM
00000010
00001000
,
00000002
00000003
MMMMMMMM
00000002
00000003
MMMMMMMM
00000100
00001000
,
00000020
00000030
MMMMMMMM
00000020
00000030
MMMMMMMM
00000001
00000100
,
00002000
MMMM3000
0001MMMM
00002000
MMMM3000
0001MMMM
00100000
10000000
,
00020000
02030000
03002000
01003000
MMMMMMMM
01000000
00010000
10000000
,
02000000
03000000
MMMMMMMM
02000000
03000000
MMMMMMMM
00010000
10000000
,
00200000
00300000
MMMMMMMM
00200000
00300000
MMMMMMMM
00100000
00010000
,
00002000
MMMM3000
0001MMMM
00002000
MMMM3000
0001MMMM
00001000
00000010
,
00000002
00000003
00000200
00000300
00000220
00000000
00000330
MMMMMMMM
,
00000200
00000300
MMMMMMMM
00000200
00000300
MMMMMMMM
00000100
00001000
,
00020000
0003MMMM
MMMM1000
00020000
0003MMMM
MMMM1000
00010000
00100000
,
01000000
00000000
MMMMMMMM
10000000
00000000
MMMMMMMM
01000000
00000000
MMMMMMMM
00010000
00000000
MMMMMMMM
00001000
00000000
00010000
00000000
,
00000020
00000030
00000000
00000000
00000000
00000000
00000000
00000000
00000000
00000000
00000000
00000000
00000020
00000030
00000000
00000000
00000000
00000000
00000000
00000000
00000000
00000000
00000000
00000000
00000020
00000030
00000000
00000000
00000000
00000000
00000000
00000000
00000000
00000000
00000000
00000000
00000100
00000000
00000000
00000000
00000000
00000000
00000010
00000000
00000000
00000000
00000000
00000000
00000000
00000000
00000000
00000000
00000000
00000000
00000000
00000000
00000000
00000000
00000000
00000000
MMMMMMMM
00000000
00000000
00000000
00000000
00000000
00000000
00000000
00000000
00000000
00000000
00000000
00001001
00000000
00000000
00000000
00000000
00000000
00000000
00000000
00000000
00000000
00000000
00000000
00000000
00000000
00000000
00000000
00000000
00000000
00000000
00000000
00000000
00000000
00000000
00000000
,
00000002
00002003
00023000
00030000
,
00002000
00023000
20030000
30000000
,
02000000
03010000
00002000
00103000
,
02000000
03000000
02000000
03000000
02000000
03000000
MMMMMMMM
00000000
,
00010000
10000000
00010000
00000000
00002000
00000000
00003000
00000000
,
00020000
00032000
00003002
00000003
,
00000020
00002030
00203000
00310000
,
MMMMMMMM
MMMMMMMM
MMMMMMMM
MMMMMMMM
MMMMMMMM
MMMMMMMM
10010000
00000000
,
10000000
00010000
01000000
00010000
00002000
00000000
00003010
00000000
,
00020020
00000030
00001000
00000000
00000020
00000030
00031000
00000000
,
00201000
00000000
00320000
00000000
01030000
MMMMMMMM
10000000
MMMMMMMM
,
00100000
00010000
00100000
00000000
00202000
00000000
00303000
MMMMMMMM
,
00011000
00000000
00000000
MMMMMMMM
00010010
00000000
00000000
MMMMMMMM
,
00001010
00000000
00000000
MMMMMMMM
00000001
00001000
00000001
00000000
,
00001000
00000100
00020000
00000000
01030000
10000000
00020000
00000000
,
02030000
00000000
00000000
00100000
00200000
00000000
03300000
00000000
,
20000000
00000000
00000000
02000000
00000000
00000000
03000000
00000000
,
30020000
00000000
00000000
00200000
00000000
00000000
00300000
00000000
,
00032000
00000000
00000000
00000200
00000000
00000000
00000300
00000000
,
00003002
00000000
00000000
00000020
00000000
00000000
00000030
00000000
,
00000103
00000000
00001000
00010000
00100000
00000000
10000000
01000000
,
00010000
00000000
00000000
00000000
00000000
00000000
00000000
00000000
00000000
00000000
00000000
00000000
00000000
00000000
00000000
00000000
00001000
00000000
00000000
00000000
00000000
00000000
00000000
00000000
00000200
00000300
00000000
00000000
00000000
00000000
00000000
00000000
00000200
00000300
00000000
00000000
00000000
00000000
00000000
00000000
00000200
00000300
00000000
00000000
00000000
00000000
00000000
00000000
00000200
00000300
00000000
00000000
00000000
00000000
00000000
00000000
00000200
00000300
00000000
00000000
00000000
00000000
00000000
00000000
,
00000002
00000003
MMMMMMMM
00000000
00000020
00000030
MMMMMMMM
MMMMMMMM
,
00002002
00000000
00000000
00000000
00003003
00002000
00003002
00000203
,
00001300
MMMMMMMM
00000010
MMMMMMMM
00000001
MMMMMMMM
00000100
MMMMMMMM
,
00002000
00000000
00023000
0000MMMM
01030000
02000000
23000000
30200000
,
00310000
MMMMMMMM
01000000
MMMMMMMM
10000000
MMMMMMMM
00100000
MMMMMMMM
,
00020000
00000000
00032000
MMMM0000
00003020
00000000
00000031
0000MMMM
,
00002001
00000000
00000010
00000000
00023000
0000MMMM
01000000
00000000
,
10000000
00000000
00100000
00000000
00032000
MMMM0000
00000100
00000000
,
00003001
00001000
00000010
00000100
00001000
0001MMMM
00100000
01000000
,
01100000
MMMMMMMM
10010000
MMMMMMMM
10010000
00020000
20030000
32000000
,
03010000
MMMMMMMM
00100000
MMMMMMMM
10000000
MMMMMMMM
01000000
MMMMMMMM
,
00020000
00000000
00032000
MMMM0000
00003100
00000200
00000302
00000023
,
00001030
MMMMMMMM
00000100
MMMMMMMM
00000001
MMMMMMMM
00000010
MMMMMMMM
,
00002000
00000000
00023000
0000MMMM
00230000
00000000
10300000
MMMM0000
,
10020000
00000000
00100000
00000000
00032000
MMMM0000
00000100
00000000
,
00000001
00000000
00000010
00000000
00023000
0000MMMM
01030000
00000000
,
10010000
00000000
00110000
00000000
00100000
01000000
00010000
00001000
,
00000020
00000030
00000000
00000000
00000000
00000000
00000000
00000000
00000000
00000000
00000000
00000000
00000020
00000030
00000000
00000000
00000000
00000000
00000000
00000000
00000000
00000000
00000000
00000000
00000020
00000030
00000000
00000000
00000000
00000000
00000000
00000000
00000000
00000000
00000000
00000000
00000020
00000030
00000000
00000000
00000000
00000000
00000000
00000000
00000000
00000000
00000000
00000000
00000200
00000000
00000000
00000000
00000000
00000000
00000000
00000000
00000000
00000000
00000000
00000000
00000300
00000000
00000000
00000000
00000000
00000000
00000000
00000000
00000000
00000000
00000000
00000000
00000220
00000000
00000000
00000000
00000000
00000000
00000000
00000000
00000000
00000000
00000000
00000000
00000330
00000000
00000000
00000000
00000000
00000000
00000000
00000000
00000000
00000000
00000000
00000000
,
00000002
00000003
MMMMMMMM
00000002
00000003
MMMMMMMM
00000100
00001000
,
00000020
00000030
MMMMMMMM
00000020
00000030
MMMMMMMM
00000001
00000100
,
00002000
MMMM3000
0001MMMM
00002000
MMMM3000
0001MMMM
01000000
10000000
,
00010000
MMMMMMMM
00001000
00200000
00300000
MMMMMMMM
00100000
00010000
,
20000000
30000000
MMMMMMMM
20000000
30000000
MMMMMMMM
01000000
00010000
,
00200000
00300000
MMMMMMMM
00200000
00300000
MMMMMMMM
10000000
01000000
,
00020000
0003MMMM
MMMM1000
00020000
0003MMMM
MMMM1000
00000010
00000001
,
00002000
00003200
00020300
00030100
MMMMMMMM
00000100
00001000
00000001
,
00000200
00000300
MMMMMMMM
00000200
00000300
MMMMMMMM
00001000
00000001
,
00000020
00000030
MMMMMMMM
00000020
00000030
MMMMMMMM
00000010
00001000
,
00020000
0003MMMM
MMMM1000
00020000
0003MMMM
MMMM1000
00010000
00100000
,
10000000
01000000
00100000
00000000
02200000
00000000
03300000
MMMMMMMM
,
02000000
03000000
MMMMMMMM
02000000
03000000
MMMMMMMM
01000000
00010000
,
00002000
MMMM3000
0001MMMM
00002000
MMMM3000
0001MMMM
00001000
00000010
,
00000100
00000000
MMMMMMMM
00000001
00000000
MMMMMMMM
00000100
00000000
MMMMMMMM
00001000
00000000
MMMMMMMM
00010000
00000000
00001000
00000000
,
00200000
00300000
00000000
00000000
00000000
00000000
00000000
00000000
00000000
00000000
00000000
00000000
00200000
00300000
00000000
00000000
00000000
00000000
00000000
00000000
00000000
00000000
00000000
00000000
00200000
00300000
00000000
00000000
00000000
00000000
00000000
00000000
00000000
00000000
00000000
00000000
01000000
00000000
00000000
00000000
00000000
00000000
00010000
00000000
00000000
00000000
00000000
00000000
00000000
00000000
00000000
00000000
00000000
00000000
00000000
00000000
00000000
00000000
00000000
00000000
MMMMMMMM
00000000
00000000
00000000
00000000
00000000
00000000
00000000
00000000
00000000
00000000
00000000
00022000
00000000
00000000
00000000
00000000
00000000
00000000
00000000
00000000
00000000
00000000
00000000
00000000
00000000
00000000
00000000
00000000
00000000
00000000
00000000
00000000
00000000
00000000
00000000
,
00000000
00003000
00000000
00000000
,
00030100
00000000
00000000
00000000
,
00000000
00000000
00000000
00000000
;
#NOTES:
     dance-double:
     :
     Challenge:
     17:
     :
00000000
00000000
00000000
00000000
,
00000000
00000000
00000000
00000000
,
00000000
00000000
00000000
00000000
,
00000000
00000000
00000000
00000000
,
00000000
00000000
00000000
00000000
,
MMMMMMMM
MMMMMMMM
MMMMMMMM
MMMMMMMM
00000000
MMMMMMMM
MMMMMMMM
MMMMMMMM
,
MMMMMMMM
00000000
MMMMMMMM
00000000
MMMMMMMM
00000000
MMMMMMMM
00000000
00000000
00000000
00000000
20000000
30000000
01000000
00010000
00000000
,
MMMMMMMM
00000000
00020000
00000000
00030000
00001000
00000000
00000000
00000200
00000000
00000000
00000000
00000000
00000000
00000300
00000000
,
MMMMMMMM
00000000
00000000
00000000
00000000
00000000
00000000
00000000
00000000
00000000
00000000
00000000
00000000
MMMMMMMM
00000000
00000000
00000000
00000000
00000000
00000000
00000000
00000000
00000000
00000000
00000000
00000000
00000000
MMMMMMMM
00000000
00000000
00000000
00000000
00000000
00000000
00000000
00000000
00000000
00000000
00000000
00000000
MMMMMMMM
00000000
00000000
00000000
00000000
00000000
00000000
00000000
00000000
00000000
00000000
00000000
00000000
00000000
00000000
00000000
00000000
00000000
00000000
00000000
00000002
00000000
00000000
00000000
00000000
00000000
00000000
00000000
00000000
00000000
00000000
00000000
00000103
00000000
00000000
00000000
00000000
00000000
00000000
00000000
00000000
00000000
00000000
00000000
00000010
00000000
00000000
00000000
00000000
00000000
00000000
00000000
00000000
00000000
00000000
00000000
,
00002020
00000000
00003030
MMMMMMMM
00020020
00030030
MMMMMMMM
00022000
,
00003000
00031000
00100000
00010000
10000000
01000000
00100000
00010000
,
00220000
00000000
00330000
MMMMMMMM
00202000
00303000
MMMMMMMM
00022000
,
00033000
00000000
00010000
00001000
00020000
00000000
00030010
00001000
00000020
00000000
00000030
00000000
00000201
00000000
00000000
00000000
,
00000320
00000030
MMMMMMMM
00000010
00002000
00003000
MMMMMMMM
00010000
,
00002000
00003000
MMMMMMMM
00001000
00010000
00100000
MMMMMMMM
00100000
,
10000000
01000000
00100000
00010000
MMMM1000
00000100
00000010
00000001
,
00000010
MMMMMMMM
00000010
00000010
00000100
MMMMMMMM
00000100
MMMMMMMM
,
00002001
MMMM0000
00000010
MMMM0000
00023000
0000MMMM
01000000
0000MMMM
,
10030000
00100000
00010000
MMMM1000
00000100
MMMMMMMM
00001001
MMMMMMMM
,
00000002
00000000
00000013
00000000
MMMMMMMM
00000000
00002000
00000000
00003010
00000000
MMMMMMMM
00000000
00000010
00010000
00000010
00010000
,
00002000
00000000
01003000
00000000
MMMMMMMM
00000000
00020000
00000000
00030100
00000000
MMMMMMMM
00000000
00001000
00010000
00001000
00000000
,
00200000
00000000
00301000
00000000
MMMMMMMM
00000000
00020000
00000000
00130000
00000000
MMMMMMMM
00000000
10000000
01000000
10000000
01000000
,
10000000
00010000
10000000
00000000
00100000
00000000
00020000
00000000
00030000
00001000
00010000
00001000
00010000
00000000
00000100
00000000
,
00002000
00000000
00003100
00000000
MMMMMMMM
00000000
00000002
00000000
00000103
00000000
MMMMMMMM
00000000
00001000
00000010
00001000
00000010
,
00020000
00000000
00030010
00000000
MMMMMMMM
00000000
00002000
00000000
00103000
00000000
MMMMMMMM
00000000
00010000
00001000
00010000
00000000
,
00200000
00000000
01300000
00000000
MMMMMMMM
00000000
20000000
00000000
31000000
00000000
MMMMMMMM
00000000
00010000
00100000
00010000
00100000
,
00001000
00010000
00001000
00010000
00000010
00001000
00000010
00001000
00000001
00000000
MMMMMMMM
00000000
00000100
00000000
00001000
00000000
,
00000020
00000000
00001030
00000000
MMMMMMMM
00000000
00000200
00000000
00000301
00000000
MMMMMMMM
00000000
00000010
00001000
00000010
00001000
,
00000020
00000000
00010030
00000000
MMMMMMMM
00000000
00200000
00000000
00301000
00000000
MMMMMMMM
00000000
00001000
00010000
00001000
00000000
,
02000000
00000000
03010000
00000000
MMMMMMMM
00000000
00200000
00000000
10300000
00000000
MMMMMMMM
00000000
01000000
00100000
01000000
00100000
,
00020000
00000000
00030020
00000000
00002030
00000000
00003000
MMMMMMMM
,
00000200
00000000
00000310
00000000
MMMMMMMM
00000000
00000002
00000000
00001003
00000000
MMMMMMMM
00000000
00010000
00001000
00010000
00001000
,
00200000
00000000
00301000
00000000
MMMMMMMM
00000000
00000020
00000000
00010030
00000000
MMMMMMMM
00000000
00100000
00010000
00100000
00010000
,
10000000
00000000
00000000
00000000
00000000
00000000
02000000
03000000
00000000
00000000
00000000
00000000
0000MMMM
00000000
00000000
00000000
00000000
00000000
02000000
03000000
00000000
00000000
00000000
00000000
00020000
00030000
00000000
00000000
00000000
00000000
0000MMMM
00000000
00000000
00000000
00000000
00000000
00020000
00030000
00000000
00000000
00000000
00000000
00002000
00003000
00000000
00000000
00000000
00000000
MMMM0000
00000000
00000000
00000000
00000000
00000000
00002000
00003000
00000000
00000000
00000000
00000000
00000200
00000300
00000000
00000000
00000000
00000000
MMMM0000
00000000
00000000
00000000
00000000
00000000
00000200
00000300
00000000
00000000
00000000
00000000
00000000
00000000
00000000
00000000
00000000
00000000
00000001
00000000
00000000
00000000
00000000
00000000
00000000
00000000
00000000
00000000
00000000
00000000
,
00001000
00000000
00000010
00000000
00010000
00000000
MMMMMMMM
00100000
00000000
00000000
00000000
MMMMMMMM
10010000
00000000
00000000
00000000
,
10000000
00000000
00000000
01000000
00010000
00000000
00020000
00000000
00030200
00000000
00000000
00000000
00001300
00000000
00000000
00000000
,
00000001
00000100
00001000
00001000
02000000
00000000
03010000
00000000
,
20000000
00000000
30100000
00010000
00001000
00010000
00000100
00010000
,
02000000
03000000
02000000
03000000
02000000
03000000
MMMMMMMM
00000000
,
00010000
10000000
00100000
00010000
00000020
00000000
00001030
00000000
,
00000001
00000010
00001000
00001000
00200000
00000000
00310000
00000000
,
20000000
00000000
32000000
03002000
00023000
00000000
00030020
00000031
,
MMMMMMMM
MMMMMMMM
MMMMMMMM
MMMMMMMM
MMMMMMMM
MMMMMMMM
00001001
MMMMMMMM
,
00000002
00000203
00002300
00023000
00030020
00000000
00001030
00000000
,
00020010
00000000
00031000
MMMMMMMM
00020010
00000000
00031000
MMMMMMMM
,
00101000
00100000
00010000
10000000
00100000
MMMMMMMM
00010000
MMMMMMMM
,
01000000
00100000
01000000
00100000
01000000
00000000
00000000
00000000
00022000
00000000
00000000
00000000
00000000
00000000
00033000
00000000
,
MMMMMMMM
00010000
00001000
00000010
MMMMMMMM
00000010
00000001
00000100
,
MMMMMMMM
00000100
00001000
00010000
MMMM1000
00100000
01000000
00000000
,
02000000
23000000
30200000
00320000
00032000
00003200
00000302
00000013
,
00000100
00000000
00010000
00001000
00010000
00000000
00001000
00100000
00010000
10000000
00010000
10000000
00010000
10000000
00010000
10000000
,
00020000
00000000
01000000
20000000
00000000
30000000
00100000
00000000
,
00032000
00000000
00000100
00000002
00000003
00000010
00000000
00010000
,
00023000
00000000
01000000
20000000
00000000
30000000
00100000
00000000
,
00032000
00000000
00000100
00000002
00000003
00000001
00000010
00000000
,
00023000
00000000
01000000
10000000
20030000
00000000
31000000
00010000
,
00001000
00000000
00000000
00000000
00000000
00000000
00000000
00000000
00000000
00000000
00000000
00000000
00000000
00000000
00000000
00000000
00000000
00000000
00000000
00000000
00000000
00000000
00000000
00000000
00000000
00000000
00000000
00000000
00000000
00000000
00000000
00000000
00000000
00000000
00000000
00000000
00000000
00000000
00000000
00000000
00000000
00000000
00000000
00000000
00000000
00000000
00000000
00000000
00000010
00000000
00000000
00000000
00000000
00000000
00000000
00000000
00000000
00000000
00000000
00000000
00000000
00000000
00000000
00000000
00000000
00000000
00000000
00000000
00000000
00000000
00000000
00000000
00000200
00000000
00000000
00000300
00000000
00000000
00000000
00000000
00000000
00000000
00000000
00000000
00000000
00000000
00000000
00000000
00000000
00000000
00000000
00000000
00000000
00000000
00000000
00000000
00000200
00000000
00000000
00000300
00000000
00000000
00000000
00000000
00000000
00000000
00000000
00000000
00000000
00000000
00000000
00000000
00000000
00000000
00000000
00000000
00000000
00000000
00000000
00000000
00000200
00000000
00000000
00000300
00000000
00000000
00000000
00000000
00000000
00000000
00000000
00000000
00000200
00000000
00000000
00000300
00000000
00000000
00000000
00000000
00000000
00000000
00000000
00000000
00000200
00000000
00000300
00000000
00000000
00000000
00000000
00000000
00000000
00000000
00000000
00000000
00000000
00000000
00000000
00000000
00000000
00000000
00000000
00000000
00000000
00000000
00000000
00000000
00000200
00000000
00000300
00000000
00000000
00000000
00000000
00000000
00000000
00000000
00000000
00000000
00000000
00000000
00000000
00000000
00000000
00000000
00000000
00000000
00000000
00000000
00000000
00000000
,
00000002
00000003
MMMMMMMM
00000000
00000020
00000030
MMMMMMMM
MMMMMMMM
,
00002002
00000000
00000000
00003003
MMMMMMMM
00000002
00000023
00000230
,
00001300
00000000
MMMMMMMM
00000010
00000001
00000000
MMMMMMMM
00000100
00001000
00000000
MMMMMMMM
00000010
00000001
00000000
MMMMMMMM
00000100
,
00001000
MMMMMMMM
00010000
MMMMMMMM
00011000
00002000
00023000
00230000
,
10300000
00000000
MMMMMMMM
01000000
00010000
00000000
MMMMMMMM
00100000
10000000
00000000
MMMMMMMM
01000000
00010000
00000000
MMMMMMMM
00100000
,
10000000
MMMMMMMM
11000000
MMMMMMMM
01010000
MMMMMMMM
00011000
MMMMMMMM
,
00010020
00000000
00000130
00000001
MMMMMMMM
00000010
00001000
00000100
,
MMMMMMMM
00001000
00010000
00100000
MMMMMMMM
00100000
10000000
01000000
,
0001MMMM
00001000
00000010
00000100
0001MMMM
00000010
00000100
00001000
,
00011000
MMMMMMMM
00110000
MMMMMMMM
10100000
20000000
32000000
03200000
,
00310000
00000000
MMMMMMMM
01000000
10000000
00000000
MMMMMMMM
00100000
00010000
00000000
MMMMMMMM
01000000
10000000
00000000
MMMMMMMM
00100000
,
00010000
MMMMMMMM
00001000
MMMMMMMM
00011000
00020000
00032000
00003200
,
00000301
00000000
MMMMMMMM
00000010
00001000
00000000
MMMMMMMM
00000100
00000001
00000000
MMMMMMMM
00000010
00001000
00000000
MMMMMMMM
00000100
,
00000001
MMMMMMMM
00000011
MMMMMMMM
00001010
MMMMMMMM
00011000
MMMMMMMM
,
02001000
00000000
03100000
10000000
MMMMMMMM
00100000
00010000
01000000
,
MMMMMMMM
00010000
00001000
00000010
MMMMMMMM
00000010
00000001
00000100
,
00000101
MMMMMMMM
00001100
MMMMMMMM
00011000
00010000
00100000
10000000
,
02000000
03000000
00000000
00000000
00000000
00000000
00000000
00000000
00000000
00000000
00000000
00000000
02000000
03000000
00000000
00000000
00000000
00000000
02000000
03000000
00000000
00000000
00000000
00000000
02000000
03000000
00000000
00000000
00000000
00000000
00000000
00000000
00000000
00000000
00000000
00000000
02000000
03000000
00000000
00000000
00000000
00000000
00000000
00000000
00000000
00000000
00000000
00000000
00100000
00000000
00000000
00000000
00000000
00000000
00000000
00000000
00000000
00000000
00000000
00000000
MMMMMMMM
00000000
00000000
00000000
00000000
00000000
00000000
00000000
00000000
00000000
00000000
00000000
10010000
00000000
00000000
00000000
00000000
00000000
00000000
00000000
00000000
00000000
00000000
00000000
MMMMMMMM
00000000
00000000
00000000
00000000
00000000
00000000
00000000
00000000
00000000
00000000
00000000
,
20000000
00000000
31000000
00000000
MMMMMMMM
00000000
00020000
00000000
01030000
00000000
MMMMMMMM
00000000
01000000
00001000
01000000
00001000
,
00020000
00000000
00030010
00000000
MMMMMMMM
00000000
00002000
00000000
00103000
00000000
MMMMMMMM
00000000
00010000
00001000
00010000
00000000
,
00000200
00000000
00010300
00000000
MMMMMMMM
00000000
00002000
00000000
00003100
00000000
MMMMMMMM
00000000
00000001
00000010
00000001
00000010
,
00000001
00001000
00000001
00000000
00000100
00000000
00002000
00000000
00003000
00010000
00001000
00010000
00001000
00000000
00100000
00000000
,
00020000
00000000
00130000
00000000
MMMMMMMM
00000000
20000000
00000000
30100000
00000000
MMMMMMMM
00000000
00010000
01000000
00010000
01000000
,
00002000
00000000
01003000
00000000
MMMMMMMM
00000000
00020000
00000000
00030100
00000000
MMMMMMMM
00000000
00001000
00010000
00001000
00000000
,
00000200
00000000
00000310
00000000
MMMMMMMM
00000000
00000002
00000000
00000013
00000000
MMMMMMMM
00000000
00001000
00000100
00001000
00000100
,
00010000
00001000
00010000
00001000
01000000
00010000
01000000
00010000
10000000
00000000
MMMMMMMM
00000000
00100000
00000000
00010000
00000000
,
02000000
00000000
03010000
00000000
MMMMMMMM
00000000
00200000
00000000
10300000
00000000
MMMMMMMM
00000000
01000000
00010000
01000000
00010000
,
02000000
00000000
03001000
00000000
MMMMMMMM
00000000
00000200
00000000
00010300
00000000
MMMMMMMM
00000000
00010000
00001000
00010000
00000000
,
00000020
00000000
00001030
00000000
MMMMMMMM
00000000
00000200
00000000
00000301
00000000
MMMMMMMM
00000000
00000010
00000100
00000010
00000100
,
00000001
00000010
00001000
00010000
00201000
00310000
10000000
10000000
,
00200000
00000000
01300000
00000000
MMMMMMMM
00000000
20000000
00000000
30010000
00000000
MMMMMMMM
00000000
00001000
00010000
00001000
00010000
,
00000200
00000000
00010300
00000000
MMMMMMMM
00000000
02000000
00000000
03001000
00000000
MMMMMMMM
00000000
00000100
00001000
00000100
00001000
,
00000001
00000000
00000000
00000000
00000000
00000000
00000020
00000030
00000000
00000000
00000000
00000000
MMMM0000
00000000
00000000
00000000
00000000
00000000
00000020
00000030
00000000
00000000
00000000
00000000
00002000
00003000
00000000
00000000
00000000
00000000
MMMM0000
00000000
00000000
00000000
00000000
00000000
00002000
00003000
00000000
00000000
00000000
00000000
00020000
00030000
00000000
00000000
00000000
00000000
0000MMMM
00000000
00000000
00000000
00000000
00000000
00020000
00030000
00000000
00000000
00000000
00000000
00200000
00300000
00000000
00000000
00000000
00000000
0000MMMM
00000000
00000000
00000000
00000000
00000000
00200000
00300000
00000000
00000000
00000000
00000000
00000000
00000000
00000000
00000000
00000000
00000000
10000000
00000000
00000000
00000000
00000000
00000000
00000000
00000000
00000000
00000000
00000000
00000000
,
00010000
00000000
01000000
00000000
00001000
00000000
MMMMMMMM
00000100
00000000
00000000
00000000
MMMMMMMM
00002002
00000000
00000000
00000000
,
00000000
00000000
00003000
00000000
00000000
00000000
00000000
00000003
,
MMMMMMMM
00000000
00000000
00000000
,
00000000
00000000
00000000
00000000
;
