
//----- song ID: chpl -----//
#TITLE:Chocolate Planet;
#ARTIST:Freezer feat.妃苺;
#ARTISTTRANSLIT:Freezer feat. Kiichigo;
#BANNER:Chocolate Planet.png;
#BACKGROUND:Chocolate Planet-bg.png;
#CDTITLE:./CDTitles/SDVX IV HEAVENLY HAVEN.png;
#MUSIC:Chocolate Planet.ogg;
#SAMPLESTART:45.335;
#SAMPLELENGTH:15;
#BPMS:0=185;
#BGSTAGE:5;
#NOTES:
     dance-single:
     :
     Beginner:
     3:
     :
0000
0000
0000
0000
,
0000
0000
0000
0000
,
0000
0000
0000
0000
,
0000
0000
0000
0000
,
0000
0000
0000
0000
,
0000
0000
0000
0000
,
0000
0000
0000
0000
,
1000
0000
0001
0000
,
1000
0000
0000
0000
,
0010
0000
0100
0000
,
0010
0000
0000
0000
,
1000
0000
0000
0000
,
0001
0000
0000
0000
,
1000
0000
0001
0000
,
1000
0000
0000
0000
,
0100
0000
0000
0000
,
0010
0000
0000
0000
,
0100
0000
0010
0000
,
0100
0000
0000
0000
,
1000
0000
0010
0000
,
1000
0000
0010
0000
,
0100
0000
0001
0000
,
0100
0000
0000
0000
,
0001
0000
0010
0000
,
0100
0000
1000
0000
,
0001
0000
1000
0000
,
0001
0000
0000
0000
,
0100
0000
0000
0000
,
0100
0000
0000
0000
,
0010
0000
0000
0000
,
0010
0000
0000
0000
,
1000
0000
0001
0000
,
1000
0000
0001
0000
,
0100
0000
0010
0000
,
0110
0000
0000
0000
,
0010
0000
1000
0000
,
0001
0000
0100
0000
,
0002
0000
0000
0003
,
2000
0000
0000
3000
,
0001
0000
0010
0000
,
0100
0000
1000
0000
,
0001
0000
1000
0000
,
0001
0000
0000
0000
,
1000
0000
0010
0000
,
0100
0000
0001
0000
,
2000
0000
0000
3000
,
0002
0000
0000
0003
,
1000
0000
0100
0000
,
0010
0000
0001
0000
,
1000
0000
0001
0000
,
1000
0000
0000
0000
,
0001
0000
0100
0000
,
0010
0000
1000
0000
,
0002
0000
0000
0003
,
2000
0000
0000
3000
,
0001
0000
0100
0000
,
0001
0000
0100
0000
,
0010
0000
1000
0000
,
0001
0000
0000
0000
,
1000
0000
0000
0000
,
1000
0000
0000
0000
,
0001
0000
0000
0000
,
0001
0000
0000
0000
,
0100
0000
0010
0000
,
0100
0000
0010
0000
,
1000
0000
0001
0000
,
1001
0000
0000
0000
,
1000
0000
0010
0000
,
0100
0100
0100
0000
,
0001
0000
0100
0000
,
0010
0010
0010
0000
,
1000
0000
0001
0000
,
0010
0010
0010
0000
,
0100
0000
1000
0000
,
0001
0000
0000
0000
,
0100
0000
0010
0000
,
1000
0000
0001
0000
,
0020
0000
0000
0030
,
0200
0000
0000
0300
,
0010
0000
0001
0000
,
1000
0000
0001
0000
,
0100
0000
0010
0000
,
0100
0000
0000
0000
,
0010
0000
0100
0000
,
0001
0000
1000
0000
,
0200
0000
0000
0300
,
0020
0000
0000
0030
,
0100
0000
1000
0000
,
0001
0000
0010
0000
,
0100
0000
0010
0000
,
0100
0000
1000
0000
,
0001
0000
0000
0000
,
0000
0000
0000
0000
;
#NOTES:
     dance-single:
     :
     Easy:
     8:
     :
0000
0000
0000
0000
,
0000
0000
0000
0000
,
0000
0000
0000
0000
,
0000
0000
0000
0000
,
0000
0000
0000
0000
,
0000
0000
0000
0000
,
0000
0000
0000
0000
,
0001
1000
0001
1000
,
0010
0100
0010
0000
0100
0000
0001
0000
,
0010
0100
0110
0000
,
1000
0010
1000
0000
0010
0100
0010
0000
,
1000
0001
0100
0001
,
0010
0100
0010
0000
,
0001
0100
0001
1000
,
0010
0000
1000
0000
0010
0100
0010
0000
,
1000
0100
1000
0001
,
0010
0001
1000
0000
,
0010
0100
0010
1000
,
0002
0023
0230
2300
,
3001
0100
0001
1000
,
0010
0000
0100
0000
0010
0100
0010
0000
,
1000
0100
0010
0001
,
1000
0100
0010
0001
,
1000
0010
0010
1000
,
0001
0010
0010
0001
,
0100
0010
0100
0001
,
1000
0000
0100
0000
1000
0001
1000
0000
,
0001
0000
0000
0100
0010
0000
0100
0000
,
0001
0000
0000
0010
0100
0000
0010
0000
,
0001
0000
0000
1000
0001
0000
1000
0000
,
0010
0000
0100
0010
0100
0000
0110
0000
,
1000
0000
0001
0100
0001
0000
0010
0000
,
0001
0000
1000
0010
1000
0000
0100
0000
,
1000
0001
1000
0001
,
0100
0000
0010
0100
0010
0000
0000
0000
,
1000
0100
0010
0001
,
1000
0010
0100
0001
,
1000
0010
1000
0010
,
0100
0001
0100
0001
,
1000
0100
0010
0001
,
1000
0010
0100
0001
,
1000
0000
0000
0001
0100
0000
0000
0010
,
1000
1000
0001
0001
,
1000
0010
0100
0001
,
1000
0100
0010
0001
,
1000
0100
1000
0100
,
0010
0001
0010
0001
,
1000
0010
0100
0001
,
1000
0100
0010
0001
,
1000
0000
0000
0001
0010
0000
0000
0100
,
1000
0000
1000
0000
0001
0000
0100
0010
,
0100
0010
1000
0001
,
0100
0010
1000
0001
,
1000
1000
0001
0001
,
0010
0000
0100
0010
0100
0000
0010
0000
,
0001
0010
0100
1000
,
0001
0010
0100
1000
,
0001
0001
1000
1000
,
0010
0010
0010
1001
,
1000
0000
0000
0010
0100
0000
0010
0000
,
1000
0000
0000
0100
0010
0000
0100
0000
,
1000
0000
0000
0001
1000
0000
0001
0000
,
0100
0000
0010
0100
0010
0000
0110
0000
,
0001
0000
1000
0010
1000
0000
0100
0000
,
1000
0000
0001
0100
0001
0000
0010
0000
,
0001
1000
0001
1000
,
0010
0000
0100
0010
0100
0000
0000
0000
,
0001
0010
0010
0010
,
0001
0000
1000
0000
0010
0100
0010
0000
,
1000
0100
0100
0100
,
1000
0000
0001
0000
0010
0100
0010
0000
,
0001
0100
0100
0010
,
1000
0000
0100
0000
0010
0100
0010
0000
,
0001
1000
1000
0010
,
0100
0000
0001
0000
1000
0001
1000
0000
,
0001
0010
0100
1000
,
0001
0100
0010
1000
,
0001
0100
0001
0100
,
0010
1000
0010
1000
,
0001
0010
0100
1000
,
0001
0100
0001
1000
,
1001
0000
0001
1000
,
0010
0010
0100
0100
,
0001
0100
0010
1000
,
0001
0010
0100
1000
,
0001
0010
0001
0010
,
0100
1000
0100
1000
,
0001
0100
0010
1000
,
0001
0010
0100
1000
,
0001
0000
0000
1000
0100
0000
0000
0010
,
0001
0000
0001
0000
1000
0000
0010
0100
,
0010
0000
0000
0000
,
0000
0000
0000
0000
;
#NOTES:
     dance-single:
     :
     Medium:
     12:
     :
0000
0000
0000
0000
,
0000
0000
0000
0000
,
0000
0000
0000
0000
,
0000
0000
0000
0000
,
0000
0000
0000
0000
,
0000
0000
0000
0000
,
0000
0000
0000
0000
,
0001
0000
0100
0000
0010
0100
0000
0010
,
1000
0100
1000
0100
0000
0010
0001
0010
,
0001
0100
0010
1000
,
0001
0100
0000
0001
0000
1000
0001
0000
,
1000
0000
0000
0100
0010
0100
0000
1000
,
0000
0000
0000
0001
0100
0010
0000
0000
,
0100
0000
0000
0010
1000
0010
0000
1010
,
0000
1001
0000
0001
0010
0001
1000
0100
,
0010
0000
0000
0001
0100
0001
0000
0100
,
0000
0010
0000
1000
0001
0100
0000
0010
,
0100
0000
0000
0001
0010
0100
0000
1000
,
0002
0203
0320
2030
,
3001
0000
1000
0010
1000
0010
0100
0000
,
0001
0000
0010
0100
0010
0100
1000
0000
,
0010
0000
0100
0010
0100
0000
0001
0000
,
1000
0000
0100
0010
0100
0000
1000
0000
,
0001
0000
0010
0100
1000
0000
1001
0000
,
1000
0000
0010
0100
0001
0000
1001
0000
,
1000
0000
0010
0000
0100
0010
0000
0100
,
0010
1000
0100
1000
0001
0100
0001
0000
,
1000
0000
0000
0010
0100
0000
0101
0000
,
0001
0000
0000
0010
0100
0000
1100
0000
,
1000
0000
0000
0001
0010
0000
0001
0100
,
0010
0000
1000
0001
1000
0000
1001
0000
,
0001
0000
0100
0010
0100
0010
1000
0000
,
0100
0000
0010
0001
0010
0001
1000
0000
,
0001
0100
0001
0100
0010
1000
0010
1000
,
0001
0000
0010
0100
0010
0000
0000
0000
,
1100
0101
0011
1010
,
0001
0100
0001
0000
1000
0100
1000
0000
,
0010
0100
0010
0100
0010
0100
0010
0000
,
1000
0001
1000
0001
0010
0100
1000
0001
,
0011
1010
1100
0101
,
1000
0010
1000
0000
0001
0010
0001
0000
,
1000
0000
0010
0100
0010
0000
0100
0001
,
0100
1001
0010
1001
,
1100
1010
0011
0101
,
1000
0010
1000
0000
0001
0010
0001
0000
,
0100
0010
0100
0010
0100
0010
0100
0000
,
0001
1000
0001
1000
0100
0010
0001
1000
,
1100
1010
0011
0101
,
1000
0010
1000
0000
0001
0100
0001
0000
,
1000
0000
0100
0010
0100
0000
0010
0001
,
1001
0000
1100
0000
0110
0000
0100
1000
,
0001
0100
0001
0100
0010
1000
0010
1000
,
0001
0010
0001
0010
0100
1000
0100
0000
,
1000
0010
0100
0001
1000
0010
0100
0001
,
1000
0000
0100
0010
0100
0010
0001
0000
,
1000
0010
1000
0010
0100
0001
0100
0001
,
1000
0100
1000
0100
0010
0001
0010
0000
,
0001
0100
0010
1000
0001
0100
0010
1000
,
0001
0000
0100
0001
0010
0000
1001
0000
,
0001
0000
0000
0100
0010
0000
1010
0000
,
1000
0000
0000
0100
0010
0000
0011
0000
,
0001
0000
0000
1000
0100
0000
1000
0010
,
0100
0000
0001
1000
0001
0000
1001
0000
,
1000
0000
0010
0100
0010
0100
0001
0000
,
0010
0000
0100
1000
0100
1000
0001
0000
,
1000
0010
1000
0010
0100
0001
0100
0001
,
1000
0000
0100
0010
0100
0000
0000
0000
,
0010
0001
1001
0110
,
1000
0000
0001
0100
0001
0100
0010
0000
,
1000
0100
0110
1001
,
0001
0010
0100
1000
0010
0100
0010
0000
,
1000
0000
1010
0000
0010
1000
0100
0000
,
0010
0000
0001
0100
0001
0100
0010
0000
,
0100
0000
0101
0000
0100
0001
0010
0000
,
0100
0010
0001
1000
0010
0100
0010
0000
,
1010
1100
0101
0011
,
1000
0010
1000
0000
0001
0010
0001
0000
,
0100
0010
0100
0010
0100
0010
0100
0000
,
0001
1000
0001
1000
0100
0010
0001
1000
,
1100
0101
0011
1010
,
0001
0100
0001
0000
1000
0100
1000
0000
,
0001
0000
0000
0100
0010
0100
0010
0000
,
1000
0011
1000
0101
,
1100
0101
0011
1010
,
0001
0100
0001
0000
1000
0100
1000
0000
,
0010
0100
0010
0100
0010
0100
0010
0000
,
1000
0001
1000
0001
0010
0100
1000
0001
,
0011
0101
1100
1010
,
0001
0100
0001
0000
1000
0010
1000
0000
,
0001
0000
0010
0100
0010
0000
0100
1000
,
0001
0000
0100
0000
0010
0000
1000
0001
,
0100
0000
0000
0000
,
0000
0000
0000
0000
;
#NOTES:
     dance-single:
     :
     Hard:
     16:
     :
0000
0000
0000
0000
,
0000
0000
0000
0000
,
0000
0000
0000
0000
,
0000
0000
0000
0000
,
0000
0000
0000
0000
,
0000
0000
0000
0000
,
0000
0000
0000
0000
,
0100
0000
1001
0000
1000
0001
0000
0100
,
0010
1000
0100
0010
0000
0001
0100
0001
,
1000
0000
0010
0000
0110
0000
0001
1000
,
0010
0000
0100
0000
0001
1000
0100
0010
0100
0000
0010
0000
0001
0000
0000
0000
,
1000
0000
0001
0010
0100
1000
0000
0020
,
0000
0000
0130
0001
0000
0101
0000
0000
,
2000
0000
3100
0010
0000
0110
0000
0000
,
0001
0000
0000
0000
0100
0000
0010
0000
1000
0000
0001
0000
1000
0100
1000
0100
,
1000
0000
0001
0010
0001
0010
0100
1000
,
0000
0001
0100
0010
0000
1010
0000
0000
,
1000
0000
0001
0010
0000
0110
0000
0000
,
1000
0100
1000
0000
0001
0010
0001
0000
0100
0010
0100
0000
0001
1000
0001
0000
,
1001
0000
1000
0100
0010
0100
1000
0001
,
0100
0000
0010
1000
0010
0000
0100
0000
0001
0000
0010
0000
0100
1000
0100
0000
,
1000
0000
0001
0010
1000
0010
0001
0000
,
0011
0000
0000
0000
1000
0000
0010
0000
0001
0000
0010
0000
1000
0010
0100
0010
,
0100
0000
0001
1000
1100
0000
0011
0000
,
1001
0000
1000
0010
0110
0000
0101
0000
,
1000
0000
0010
0000
0100
0010
1000
0001
,
0010
0001
0010
0000
0100
1000
0100
0000
1000
0010
0100
0001
1000
0000
0000
0000
,
0001
0000
0000
0100
1000
0000
0100
0000
0010
0000
1000
0000
0100
0000
0010
0000
,
0001
0000
0000
0010
1000
0000
0010
0000
0100
0000
1000
0000
0010
0000
0100
0000
,
0001
0000
0000
0100
1000
0000
0100
0000
0001
0000
0010
0000
0100
0000
1000
0000
,
0010
0000
0000
1000
0100
0000
0010
0000
0001
1000
0100
0000
1100
0000
0000
0000
,
1000
0000
0001
0100
0001
0000
0100
0000
0010
0000
1000
0100
1000
0000
0100
0000
,
0010
0000
0100
0010
0100
0000
0010
0000
0001
0000
1000
0001
1000
0000
0001
0000
,
0100
0001
0100
0000
0010
1000
0010
0000
0100
0010
0100
0010
0100
0010
0100
0010
,
0100
0000
0010
1000
0001
0000
0000
0000
,
1000
0000
0001
0100
0001
0000
1000
0000
0100
0000
0010
0000
0001
0000
0010
0000
,
0001
0000
1000
0010
1000
0000
0001
0000
0010
0000
0100
0000
1000
0000
0010
0000
,
0100
0001
0100
0001
1000
0001
0100
0000
,
0001
0010
0001
1000
0010
0100
0001
0010
,
0001
0000
1000
0010
1000
0000
0001
0000
0100
0000
0010
0000
1000
0000
0010
0000
,
1000
0000
0001
0010
0001
0000
1000
0000
0100
0000
0010
0000
0001
0000
0100
0000
,
0010
0000
1000
0001
0100
0000
0001
0000
1000
0000
0001
0010
0100
0000
0010
0000
,
0011
1001
1010
0101
,
0001
0000
1000
0100
1000
0000
0001
0000
0100
0000
0010
0000
1000
0000
0010
0000
,
1000
0000
0001
0010
0001
0000
1000
0000
0010
0000
0100
0000
0001
0000
0010
0000
,
0100
1000
0100
1000
0001
1000
0100
0000
,
1000
0010
1000
0001
0010
0100
1000
0010
,
1000
0000
0001
0010
0001
0000
1000
0000
0100
0000
0010
0000
0001
0000
0010
0000
,
0001
0000
1000
0010
1000
0000
0001
0000
0100
0000
0010
0000
0100
0001
0100
0001
,
1000
0000
0001
0010
0011
0000
1000
0010
,
1000
0100
0010
0000
0100
0010
0001
0000
0010
0001
1000
0000
0010
0000
0100
0000
,
0001
0010
0001
0100
0010
1000
0100
1000
,
0010
0100
0001
1000
0100
0010
0001
1000
,
0001
0100
0001
0100
0010
0100
0010
1000
0010
1000
0100
0010
,
0001
0000
1000
0000
0100
0000
1000
0000
0010
0000
0100
0010
0100
0000
0010
0000
,
1000
0100
0010
0100
0001
0100
1000
0001
,
0100
0010
0100
1000
0100
0010
0100
0001
,
1000
0100
1000
0100
0010
0100
0010
0000
0001
0100
0001
0100
0010
0100
0010
0000
,
1000
0000
0001
0010
0011
0000
1100
0000
,
1000
0000
0000
0010
0001
0000
0010
0000
0100
0000
0001
0000
0010
0000
0100
0000
,
1000
0000
0000
0100
0001
0000
0100
0000
0010
0000
0001
0000
0100
0000
0010
0000
,
1000
0000
0000
0010
0001
0000
0010
0000
1000
0000
0100
0000
0010
0000
0001
0000
,
0100
0000
0000
0001
0010
0000
0100
0000
1000
0001
0010
0000
0011
0000
0000
0000
,
0001
0000
1000
0010
1000
0000
0010
0000
0100
0000
0001
0010
0001
0000
0010
0000
,
0100
0000
0010
0100
0010
0000
0100
0000
1000
0000
0001
1000
0001
0000
1000
0000
,
0010
1000
0010
0000
0100
0001
0100
0000
0010
0100
0010
0100
0010
0100
0010
0100
,
0010
0000
0100
0001
1000
0000
0000
0000
,
0100
0000
0000
0010
0100
0000
0010
0000
0001
0000
0100
0000
0010
1000
0000
0000
,
0001
0000
0000
0100
0001
0000
0100
0010
0100
0000
0010
0000
1000
0001
0000
0000
,
0010
0000
0000
0100
0010
0000
0100
0000
1000
0000
0001
0000
0010
0001
0000
0000
,
0100
0010
0100
0000
0001
0100
0001
0000
1000
0000
0100
0010
0001
0000
1000
0010
,
0100
0000
0000
0001
0100
0000
0010
0000
1000
0000
0001
0000
0010
0100
0000
0000
,
0010
0000
0000
0001
0010
0000
0001
1000
0100
0000
1000
0000
0010
0100
0000
0000
,
0001
0000
0000
1000
0010
0000
0100
0000
0001
0000
1000
0000
0100
0010
0000
0000
,
0001
0000
0001
0000
1000
0010
0100
0001
1000
0000
0001
0000
0100
0000
0000
0000
,
0001
0000
1000
0010
0100
0000
0010
0000
1000
0000
0100
0000
0010
0000
0001
0000
,
1000
0000
0001
0100
0010
0000
0100
0000
0001
0000
0010
0000
0100
0000
1000
0000
,
0001
0100
0001
0100
1000
0100
0001
0000
,
1000
0100
1000
0001
0010
1000
0010
0001
,
1000
0000
0001
0010
0100
0000
0010
0000
0001
0000
0100
0000
0010
0000
1000
0000
,
0001
0000
1000
0010
0100
0000
0010
0000
1000
0000
0100
0000
0010
0000
0001
0000
,
0100
0000
0010
1000
0001
0000
0010
0000
0100
0000
0010
0001
1000
0000
0100
0000
,
1100
1001
0101
1010
,
1000
0000
0001
0100
0010
0000
0100
0000
0001
0000
0010
0000
0100
0000
1000
0000
,
0001
0000
1000
0010
0100
0000
0010
0000
1000
0000
0100
0000
0010
0000
0001
0000
,
1000
0010
1000
0010
0001
0010
1000
0000
,
0001
0010
0001
1000
0100
0001
0100
1000
,
0001
0000
1000
0100
0010
0000
0100
0000
1000
0000
0010
0000
0100
0000
0001
0000
,
1000
0000
0001
0100
0010
0000
0100
0000
0001
0000
0010
0000
0100
1000
0100
1000
,
0100
0000
0000
0000
1000
0000
0010
0000
0100
0001
0100
0001
0100
0000
0010
0000
,
1000
0010
1000
0000
0001
0100
0001
0000
1000
0010
0100
0001
1000
0000
0010
0000
,
0100
0000
0000
0000
,
0000
0000
0000
0000
;
#NOTES:
     dance-single:
     :
     Challenge:
     17:
     :
0000
0000
0000
0000
,
0000
0000
0000
0000
,
0000
0000
0000
0000
,
0000
0000
0000
0000
,
0000
0000
0000
0000
,
0000
0000
0000
0000
,
0000
0000
0000
0000
,
0002
0000
0023
0000
2030
3020
0000
0032
,
2003
3020
0032
2003
0000
3200
0302
2003
,
0000
0000
0000
0000
3020
0000
0000
0130
,
0001
0010
0000
0100
0000
1000
1001
0000
,
1002
0000
0000
0010
0010
0013
0000
0210
,
0000
0000
0000
1000
1000
1300
0000
0000
,
1020
0000
0000
0100
0100
0130
0000
0101
,
0000
0000
1010
0000
0000
0000
1100
0000
0000
0000
0011
0000
0010
0001
0010
0001
,
0020
0000
0000
0001
0001
0031
0000
0201
,
0000
0000
0000
0010
0010
0310
0000
0000
,
2010
0000
0000
0001
0001
0001
0000
3001
,
1000
0100
1000
0100
0010
0001
0010
0001
1000
0010
1000
0010
0100
0001
0100
0001
,
2000
0000
0000
3200
2000
0300
3100
0000
0020
0000
0002
0030
0020
0003
0031
0000
,
0200
0000
0000
0302
0200
0003
0301
0000
0020
0000
0200
0030
0020
0300
0130
0000
,
2000
0000
0000
3200
0020
0300
0031
0000
0020
0000
2000
0030
3020
0000
0031
0000
,
0002
0000
0000
0203
0020
0300
1030
0000
0020
0000
0002
0030
0020
0003
1030
0000
,
2000
0000
0000
0100
3200
0000
0301
0000
2000
0000
0020
3000
0002
0030
0013
0000
,
2000
0000
0000
0010
3020
0000
0031
0000
2000
0000
0200
3000
0002
0300
0103
0000
,
0020
0000
0000
0001
0032
0000
0103
0000
0010
0000
0100
0000
1001
0000
0000
0000
,
1000
0001
1000
0001
0010
0100
0010
0100
1000
0010
0100
0001
1000
0000
0000
0000
,
0001
0000
0000
0010
0001
0000
0010
0000
0110
0000
0000
0000
1100
0000
0000
0000
,
1000
0000
0000
0010
1000
0000
0010
0000
0110
0000
0000
0000
0101
0000
0000
0000
,
0100
0000
0000
0001
1000
0000
0100
0000
0110
0000
0000
0000
0011
0000
0000
0000
,
0010
0000
0000
0001
1000
0000
0010
0000
0110
0000
0000
0000
1001
0000
0000
0000
,
1000
0000
0100
0010
0001
0000
0001
0000
0001
0000
0100
0010
1000
0000
1000
0000
,
1000
0000
0010
0100
0001
0000
0001
0000
0001
0000
0010
0100
1000
0000
1000
0000
,
1000
0100
0010
0001
1000
0100
0010
0001
1000
0100
0010
0001
1000
0100
0010
0001
,
0000
0000
0000
0000
0000
0000
0000
0000
0001
0010
0100
1000
0001
0000
0000
0000
,
1200
0001
0320
0001
0032
1000
0203
1000
,
0320
0001
2030
0100
3002
0010
1003
0000
,
0002
0100
0100
0100
0100
1000
0103
0000
,
2000
0100
0100
0100
0001
0100
3001
0000
,
0021
1000
0230
1000
2300
0001
3020
0001
,
0230
1000
0302
0010
2003
0100
3001
0000
,
0001
0000
0010
0100
1000
0000
0001
0000
1000
0000
0010
0100
0001
0000
1000
0000
,
1100
0011
0101
1010
,
1200
0000
0001
0000
0020
0300
0001
0000
0002
0030
1000
0000
0200
0003
1000
0000
,
0020
0300
0001
0000
2000
0030
0100
0000
0002
3000
0010
0000
1003
0000
0000
0000
,
0001
0000
0100
0010
0100
0000
0100
0000
0001
0000
0100
0000
1000
0000
0100
0000
,
0001
0000
0010
0100
0010
0000
0010
0000
1000
0000
0010
0000
0001
0000
0010
0000
,
0021
0000
1000
0000
0200
0030
1000
0000
2000
0300
0001
0000
0020
3000
0001
0000
,
0200
0030
1000
0000
0002
0300
0010
0000
2000
0003
0100
0000
3001
0000
0000
0000
,
1000
0000
0010
0000
0000
0000
0010
0100
0010
0000
0100
0000
0001
0000
1000
0000
,
0001
1000
0001
1000
0010
0100
0010
0100
0001
0010
0100
1000
0001
0000
0000
0000
,
0002
0023
2030
3200
,
2300
3020
0032
0203
,
0301
0001
0002
1000
1000
2003
0010
0010
3020
0100
0100
0130
,
0020
0000
0000
2030
0000
0000
3002
0000
,
2003
3020
0032
0203
,
0302
0023
2030
3100
,
1000
0100
1000
0100
0010
0001
0010
0001
1000
0010
1000
0010
0100
0001
0100
0001
,
2000
0000
0000
0010
0000
0000
3010
0000
,
2000
0000
0000
0010
3010
0000
1000
0000
0010
0000
0100
0000
0001
0000
1000
0000
,
0002
0000
0000
0010
0013
0000
0001
0000
0010
0000
0100
0000
1000
0000
0001
0000
,
2000
0000
0000
0100
3100
0000
1000
0000
0010
0000
0100
0000
0001
0000
1000
0000
,
0002
0000
0000
0100
0103
0000
0001
0000
0010
0100
1000
0000
1001
0000
0000
0000
,
0001
0000
0001
1000
0100
0000
0100
0000
0100
0000
1000
0001
0100
0000
0100
0000
,
0100
0000
0001
0010
0100
0000
0100
0000
0100
0000
1000
0010
0100
0000
0100
0000
,
0001
0010
0100
1000
0001
0010
0100
1000
0001
0010
0100
1000
0001
0010
0100
1000
,
0000
0000
0000
0000
0000
0000
0000
0000
1000
0100
0010
0001
1000
0000
0000
0000
,
0210
0010
0010
0010
,
0010
0000
0000
0000
0010
0000
0320
0230
0010
0000
0010
0000
0310
0000
0000
0000
,
0120
0000
0100
0000
0100
0100
0100
0000
,
0100
0000
0230
0320
0100
0000
0130
0000
0010
0100
0010
0100
0010
0100
0010
0100
,
0020
0000
0000
0030
0210
0000
0000
0300
0120
0030
0210
0300
0120
0000
0000
0030
,
0210
0000
0000
0300
0120
0000
0230
0320
0230
0000
0310
0000
0001
1000
0001
1000
,
0002
0000
0000
0003
2001
0000
0000
3000
1002
0003
2001
3000
1002
0003
2001
0000
,
3001
0000
0001
0000
0010
0100
0010
0100
1000
0000
1000
0000
1001
0000
0000
0000
,
1200
0001
0320
0001
0032
1000
0203
1000
,
0320
0001
2030
0100
3002
0010
1003
0000
,
2000
0001
0001
0001
0001
0010
3001
0000
,
0002
1000
1000
1000
0010
1000
0013
0000
,
0021
1000
0230
1000
2300
0001
3020
0001
,
0230
1000
0302
0010
2003
0100
3001
0000
,
1000
0000
0010
0100
0001
0000
0001
0000
0001
0000
0010
0100
1000
0000
1000
0000
,
1100
0011
0101
1010
,
1200
0000
0001
0000
0020
0300
0001
0000
0002
0030
1000
0000
0200
0003
1000
0000
,
0020
0300
0001
0000
2000
0030
0100
0000
0002
3000
0010
0000
1003
0000
0000
0000
,
0001
0000
0010
0100
0010
0000
0010
0000
1000
0000
0010
0000
0001
0000
0100
0000
,
1000
0000
0100
0010
0100
0000
0100
0000
1000
0000
0100
0000
0001
0000
0010
0000
,
0021
0000
1000
0000
0200
0030
1000
0000
2000
0300
0001
0000
0020
3000
0001
0000
,
0200
0030
1000
0000
0002
0300
0010
0000
2000
0003
0100
0000
3001
0000
0000
0000
,
1000
0000
0001
0000
0000
0000
0001
1000
0001
0000
1000
0000
0000
0000
1000
0000
,
1000
0100
0010
0001
1000
0010
0100
0001
0010
0100
1000
0010
0100
0000
0000
0000
,
2002
0000
0000
0000
,
3003
0000
0000
0000
,
0000
0000
0000
0000
;
#NOTES:
     dance-double:
     :
     Easy:
     8:
     :
00000000
00000000
00000000
00000000
,
00000000
00000000
00000000
00000000
,
00000000
00000000
00000000
00000000
,
00000000
00000000
00000000
00000000
,
00000000
00000000
00000000
00000000
,
00000000
00000000
00000000
00000000
,
00000000
00000000
00000000
00000000
,
10000000
00010000
10000000
00010000
,
01000000
00001000
00010000
00000100
,
00001000
00000001
00001001
00000000
,
00001000
00000100
00001000
00000000
00000100
00010000
00000100
00000000
,
00010000
00001000
00100000
00010000
,
10000000
01000000
10000000
00000000
,
00010000
01000000
00010000
01000000
,
00001000
00010000
00000010
00001000
,
00000001
00001000
00000100
00001000
,
00000100
00010000
00001000
00000000
,
01000000
00010000
01000000
00100000
,
20000000
32000000
03020000
00032000
,
00003010
00000100
00000010
00000001
,
00001000
00000000
00000010
00000000
00010000
00001000
00010000
00000000
,
00001000
00010000
01000000
10000000
,
00100000
00010000
00001000
00000100
,
00000001
00001000
00001000
00000100
,
00010000
00001000
00001000
01000000
,
00010000
10000000
00010000
00100000
,
00001000
00000000
00010000
00000000
00000010
00001000
00000001
00000000
,
00000010
00000000
00000000
00000100
00001000
00000000
00000100
00000000
,
00010000
00000000
00000000
00001000
00010000
00000000
00001000
00000000
,
01000000
00000000
00000000
00010000
01000000
00000000
00100000
00000000
,
10000000
00010000
10000000
10010000
,
00010000
00000000
00100000
00001000
00100000
00000000
00001000
00000000
,
00010000
00000000
00000010
00001000
00000010
00000000
00001000
00000000
,
00000001
00001000
00000100
00001000
,
00000100
00000000
00010000
00001000
00010000
00000000
00000000
00000000
,
00001000
00100000
00010000
10000000
,
01000000
10000000
00010000
01000000
,
00001000
00010000
00000100
00010000
,
00001000
00100000
00010000
10000000
,
00100000
10000000
00010000
01000000
,
00001000
00010000
00000010
00001000
,
00000100
00000000
00000000
00010000
00001000
00000000
00000000
01000000
,
00010000
00010000
10000000
10000000
,
00010000
01000000
00001000
00010000
,
00000100
00001000
00000001
00001000
,
00000010
00010000
00001000
00010000
,
00001000
00100000
00010000
10000000
,
00100000
01000000
00010000
01000000
,
00001000
00010000
00000100
00001000
,
00000001
00000000
00000000
00000010
00000100
00000000
00000000
00001000
,
00000100
00010000
00001000
01000000
,
00010000
10000000
00010000
01000000
,
00001000
00010000
00001000
00010000
,
00000100
00000100
00001000
00001000
,
00000001
00000010
00000100
00001000
,
00000100
00010000
00000100
00010000
,
00001000
01000000
00010000
01000000
,
00100000
00100000
10000000
10000000
,
01000000
00010000
00001000
00011000
,
00010000
00000000
00000000
00000010
00001000
00000000
00000010
00000000
,
00010000
00000000
00000000
00001000
00100000
00000000
00010000
00000000
,
01000000
00000000
00000000
00010000
00100000
00000000
00010000
00000000
,
10000000
00100000
01000000
10010000
,
10000000
00000000
00010000
00100000
00010000
00000000
00100000
00000000
,
00001000
00000000
00010000
00001000
00010000
00000000
00000100
00000000
,
00001000
00000001
00001000
00000001
,
00000100
00000000
00000010
00000100
00000010
00000000
00000000
00000000
,
00001000
00000100
00010000
00000100
,
00010000
00000000
00001000
00000000
01000000
00010000
01000000
00000000
,
00100000
10000000
00010000
10000000
,
00010000
00000000
00100000
00000000
00001000
00010000
00001000
00000000
,
00010000
00000010
00001000
00000010
,
00001000
00000000
00000001
00000000
00000010
00000001
00000010
00000000
,
00000100
00010000
00001000
00010000
,
00001000
00000000
00100000
00000000
00010000
10000000
00010000
00000000
,
01000000
00001000
00010000
00000100
,
00001000
00000001
00000100
00000001
,
00000010
00001000
00010000
00001000
,
00010000
01000000
10000000
01000000
,
10000000
00010000
00100000
00001000
,
00010000
00000100
00001000
00000001
,
00001001
00000000
00001000
00000100
,
00010000
00010000
00001000
00001000
,
00100000
00010000
10000000
01000000
,
10000000
01000000
00100000
00010000
,
10000000
00100000
00010000
00001000
,
00010000
00001000
00000010
00000001
,
00000100
00000010
00001000
00000010
,
00010000
00001000
00100000
00010000
,
10000000
00000000
00000000
01000000
00100000
00000000
00000000
01000000
,
00010000
00000000
00001000
00000000
00000010
00000000
00000001
00001000
,
00000001
00000000
00000000
00000000
,
00000000
00000000
00000000
00000000
;
#NOTES:
     dance-double:
     :
     Medium:
     12:
     :
00000000
00000000
00000000
00000000
,
00000000
00000000
00000000
00000000
,
00000000
00000000
00000000
00000000
,
00000000
00000000
00000000
00000000
,
00000000
00000000
00000000
00000000
,
00000000
00000000
00000000
00000000
,
00000000
00000000
00000000
00000000
,
00000001
00000000
00000100
00000000
00000010
00001000
00000000
00000010
,
00010000
00001000
00010000
00001000
00000000
01000000
00010000
01000000
,
00010000
10000000
00100000
01000000
,
00010000
00100000
00000000
00001000
00000000
00010000
00001000
00000000
,
00000100
00000000
00000000
00000001
00001000
00000001
00000000
00001000
,
00000000
00000000
00000000
00000100
00010000
00001000
00000000
00000000
,
00010000
00000000
00000000
01000000
00100000
01000000
00000000
10000000
,
00000000
10010000
00000000
00010000
00100000
00001000
00010000
00000000
,
00001000
00000000
00000000
00000010
00000100
00000010
00000000
00000001
,
00000000
00000100
00000000
00001000
00010000
00100000
00000000
01000000
,
00100000
00000000
00000000
10000000
00010000
01000000
00000000
00001000
,
00020000
00030020
00002030
00003002
,
00001003
00000000
00000100
00010000
00000100
00010000
00001000
00000000
,
00100000
00000000
00010000
10000000
00010000
10000000
01000000
00000000
,
00100000
00000000
00001000
00010000
00001000
00000000
00010000
00000000
,
00000010
00000000
00001000
00000100
00001000
00000000
00000001
00000000
,
00001000
00001100
00010100
00011000
,
00001000
00000000
01000000
00010000
10000000
00000000
10010000
00000000
,
00010000
00000000
00100000
00000000
00001000
00010000
00000000
00000100
,
00001000
00000001
00000100
00000001
00000100
00000010
00001000
00000000
,
00000100
00000000
00000000
00010000
00001000
00000000
00011000
00000000
,
00010000
00000000
00000000
00001000
01000000
00000000
01010000
00000000
,
00010000
00000000
00000000
10000000
01000000
00000000
00010000
00001000
,
00010000
00000000
00000100
00001000
00000100
00000000
00001001
00000000
,
00001000
00000000
00000100
00010000
00001000
00010000
00001000
00000000
,
00100000
00000000
00010000
00100000
00010000
00100000
01000000
00000000
,
10000000
00100000
01000000
00010000
01000000
00001000
00010000
00001000
,
00010000
00000000
00000010
00001000
00000010
00000000
00000000
00000000
,
00001001
00001010
00010010
00011000
,
00001000
01000000
00001000
00000000
01000000
00010000
01000000
00000000
,
00100000
10000000
00100000
10000000
00010000
10000000
00010000
00000000
,
01000000
00001000
01000000
00001000
00010000
00001000
00010000
00000000
,
00011000
00101000
00110000
01100000
,
00100000
00010000
00100000
00000000
00001000
00010000
00001000
00000000
,
00000100
00000000
00000001
00000100
00000010
00000000
00001000
00000010
,
00010000
00001000
01000000
00010000
,
10010000
00110000
00101000
00011000
,
00010000
00000100
00010000
00000000
00000100
00001000
00000100
00000000
,
00000010
00000001
00000010
00000001
00001000
00000001
00001000
00000000
,
00000100
00010000
00000100
00010000
00001000
00010000
00001000
00000000
,
00011000
00010010
00001010
00000110
,
00000010
00001000
00000010
00000000
00010000
00001000
00010000
00000000
,
01000000
00000000
10000000
00100000
00010000
00000000
00001000
00000100
,
00000001
00000000
00001000
00000000
00000100
00000000
00010000
00001000
,
00100000
00010000
00100000
00000000
01000000
10000000
01000000
00000000
,
10000000
00100000
10000000
00000000
00010000
01000000
00010000
00000000
,
01000000
00001000
00010000
00000100
00001000
00000001
00000010
00000001
,
00001000
00000000
00000100
00000010
00000100
00000000
00001000
00000000
,
00000100
00010000
00000100
00000000
00010000
00001000
00010000
00000000
,
00001000
00100000
00001000
00000000
00010000
00001000
00010000
00000000
,
00000010
00001000
00000001
00000100
00000010
00001000
00000100
00010000
,
00001000
00000000
01000000
00010000
00100000
00000000
00110000
00000000
,
00100000
00000000
00000000
00001000
00010000
00000000
00011000
00000000
,
00001000
00000000
00000000
00010000
00000010
00000000
00001010
00000000
,
00001000
00000000
00000000
00000001
00000010
00000000
00001000
00010000
,
00001000
00000000
00100000
00010000
00100000
00000000
10010000
00000000
,
00010000
00000000
00100000
00001000
00010000
00001000
00010000
00000000
,
00000100
00000000
00001000
00000100
00001000
00000100
00000010
00000000
,
00000001
00000100
00000010
00001000
00000010
00010000
00001000
00010000
,
00001000
00000000
01000000
00010000
01000000
00000000
00000000
00000000
,
00100000
10000000
10010000
00110000
,
00100000
00000000
00001000
00010000
00001000
00010000
00000100
00000000
,
00001000
00000001
00001001
00001010
,
00001000
00000100
00010000
00001000
00100000
00010000
00100000
00000000
,
00001000
00000000
00011000
00000000
00010000
00000100
00001000
00000000
,
00000001
00000000
00000010
00000100
00000010
00000100
00001000
00000000
,
00000100
00000000
00010100
00000000
00010000
00001000
01000000
00000000
,
00010000
00000000
10000000
00000000
01000000
00100000
01000000
00000000
,
11000000
01010000
00011000
00001100
,
00000001
00000010
00000001
00000000
00001000
00000100
00001000
00000000
,
00000100
00010000
00000100
00010000
00001000
00010000
00001000
00000000
,
00100000
00001000
00100000
00010000
10000000
01000000
00100000
00000000
,
00110000
00011000
00001010
00000011
,
00001000
00000100
00001000
00000000
00000100
00010000
00000100
00000000
,
00010000
00000000
00000000
00001000
01000000
00010000
10000000
00000000
,
00100000
00010000
00001000
00000100
,
00000101
00001100
00011000
01010000
,
10000000
00100000
10000000
00000000
00010000
01000000
00010000
00000000
,
01000000
00001000
01000000
00001000
00010000
00001000
00010000
00000000
,
00000010
00010000
00000010
00001000
00000001
00000100
00000010
00000000
,
00001010
00011000
00110000
10100000
,
00010000
01000000
00010000
00000000
01000000
00001000
01000000
00000000
,
00001000
00000000
00010000
00000100
00001000
00000000
00000001
00000010
,
00000100
00000000
00001000
00000000
00010000
00000000
00100000
01000000
,
10000000
00000000
00000000
00000000
,
00000000
00000000
00000000
00000000
;
#NOTES:
     dance-double:
     :
     Hard:
     16:
     :
00000000
00000000
00000000
00000000
,
00000000
00000000
00000000
00000000
,
00000000
00000000
00000000
00000000
,
00000000
00000000
00000000
00000000
,
00000000
00000000
00000000
00000000
,
00000000
00000000
00000000
00000000
,
00000000
00000000
00000000
00000000
,
01000000
00000000
10010000
00000000
00010000
01000000
00000000
00001000
,
00010000
00000100
00001000
00000100
00000000
00000010
00000001
00000010
,
00000100
00000000
00010000
00000000
00011000
00000000
00001000
00100000
,
00010000
00000000
01000000
00000000
00100000
01000000
00100000
00000000
10000000
00000000
01000000
00000000
00010000
00000000
00000000
00000000
,
00001000
00000000
00010000
00001000
00000010
00000001
00000000
00002000
,
00000000
00000000
00003010
00001000
00000000
00001100
00000000
00000000
,
00000200
00000000
00010300
00001000
00000000
00011000
00000000
00000000
,
00001000
00000000
00000000
00000000
01000000
00000000
00010000
00000000
10000000
00000000
00100000
00000000
01000000
00010000
01000000
00010000
,
01000000
00000000
00001000
00010000
00001000
00000100
00000001
00000100
,
00000000
00000010
00001000
00000100
00000000
00010100
00000000
00000000
,
00010000
00000000
00001000
00100000
00000000
00110000
00000000
00000000
,
00010000
01000000
00010000
00000000
01000000
00100000
01000000
00000000
00100000
10000000
00100000
00000000
10000000
00010000
10000000
00000000
,
10010000
00000000
00010000
00100000
00001000
00010000
00000010
00001000
,
00000001
00000000
00000010
00000000
00000100
00000000
00001000
00000000
00000100
00000000
00010000
00000000
00001000
00010000
00001000
00000000
,
00010000
00000000
01000000
10000000
01000000
00010000
00001000
00000000
,
00010000
00000000
00000000
00000000
00001000
00000000
00000010
00000000
00000001
00000000
00000010
00000000
00000100
00001000
00000100
00001000
,
00000100
00000000
00010000
00001000
00101000
00000000
00110000
00000000
,
10010000
00000000
10000000
01000000
00100000
00000000
00110000
00000000
,
00010000
00000000
00001000
00000000
00000100
00000010
00000001
00000100
,
00000010
00001000
00000010
00000000
00001000
00000100
00001000
00000000
00000100
00010000
00001000
01000000
00010000
00000000
00000000
00000000
,
20000000
00000000
00000000
31000000
00010000
00000000
01000000
00000000
00010000
00000000
00001000
00000000
00000010
00000000
00000001
00000000
,
00000020
00000000
00000000
00000130
00001000
00000000
00000100
00000000
00010000
00000000
00001000
00000000
00000010
00000000
00000000
00000000
,
00000002
00000000
00000000
00000103
00001000
00000000
00000100
00000000
00001000
00000000
00010000
00000000
00100000
00000000
10000000
00000000
,
00200000
00000000
00000000
01300000
00010000
00000000
00100000
00000000
00001000
00010000
00001000
00000000
00011000
00000000
00000000
00000000
,
00010000
00000000
00000100
00001000
00000100
00000000
00001000
00000000
00000001
00000000
00000100
00000000
00000010
00000000
00001000
00000000
,
00000100
00000000
00010000
00001000
00010000
00000000
00001000
00000000
00100000
00000000
00010000
00000000
01000000
00000000
00100000
00000000
,
10000000
00010000
01000000
00000000
00010000
01000000
00001000
00000000
00010000
00000100
00010000
00000100
00001000
00000100
00001000
00000100
,
00000010
00000000
00000001
00001000
00000100
00000000
00000000
00000000
,
00010000
00000010
00001000
00000100
00010000
00001000
01000000
00010000
,
00100000
01000000
00010000
00001000
00010000
00000010
00000100
00000010
,
00001000
00000100
00001000
00000100
00010000
00001000
00100000
00000000
,
00010000
01000000
00010000
10000000
01000000
00010000
00001000
00010000
,
00001000
01000000
00010000
00100000
00001000
00010000
00000010
00001000
,
00000100
00000010
00001000
00010000
00001000
01000000
00100000
01000000
,
00010000
00000000
00100000
00001000
00010000
00000000
00001000
00000000
00010000
00000000
00000100
00001000
00000001
00000000
00001000
00000000
,
00001100
00010100
00011000
01001000
,
01000000
00010000
00100000
00001000
00010000
00000010
00001000
00000001
,
00000010
00000001
00000010
00001000
00010000
01000000
10000000
00010000
,
01000000
00001000
01000000
00001000
00010000
00000100
00001000
00000000
,
00000010
00010000
00000010
00001000
00000100
00010000
00001000
00000100
,
00000001
00000100
00001000
00010000
00001000
01000000
00010000
10000000
,
01000000
10000000
01000000
00010000
00001000
00000010
00000001
00001000
,
00000010
00000000
00010000
00001000
00011000
00000000
00001000
01000000
,
00010000
10000000
00100000
00000000
10000000
00010000
01000000
00000000
00001000
00010000
00000010
00000000
00000100
00000000
00000001
00000000
,
00001000
00000010
00010000
00001000
00010000
00000100
00001000
00000100
,
00010000
00001000
00100000
00001000
00010000
00001000
01000000
00010000
,
10000000
00100000
10000000
00010000
01000000
00001000
00010000
00001000
00010000
00000100
00001000
00000001
,
00001000
00000000
00000010
00000000
00000100
00000000
00000010
00000000
00010000
00000000
00001000
00010000
00001000
00000000
00100000
00000000
,
00010000
01000000
00001000
00010000
00001000
00100000
00010000
00100000
,
00001000
00010000
00000100
00010000
00001000
00010000
00000010
00001000
,
00000100
00010000
00001000
00010000
00001000
00000000
01000000
00000000
00001000
00010000
00001000
00010000
00000010
00000000
00001000
00000000
,
00000001
00000000
00000010
00000100
00000110
00000000
00001001
00000000
,
00000001
00000000
00000000
00000010
00001000
00000000
00000010
00000000
00001000
00000000
00010000
00000000
01000000
00000000
10000000
00000000
,
01000000
00000000
00000000
00100000
00010000
00000000
00100000
00000000
00001000
00000000
00010000
00000000
01000000
00000000
00000000
00000000
,
10000000
00000000
00000000
00100000
00010000
00000000
00100000
00000000
00010000
00000000
00001000
00000000
00000100
00000000
00000001
00000000
,
00000100
00000000
00000000
00000010
00001000
00000000
00000100
00000000
00010000
00001000
00010000
00000000
00011000
00000000
00000000
00000000
,
00001000
00000000
00100000
00010000
00100000
00000000
00010000
00000000
10000000
00000000
01000000
00000000
00100000
00000000
00010000
00000000
,
01000000
00000000
00001000
00010000
00001000
00000000
00010000
00000000
00000010
00000000
00001000
00000000
00000100
00000000
00000010
00000000
,
00000001
00001000
00000100
00000000
00010000
00001000
01000000
00000000
00100000
10000000
00100000
10000000
00010000
01000000
00010000
01000000
,
00001000
00000000
00010000
00000100
00001000
00000000
00000000
00000000
,
00000001
00000000
00000000
00000010
00000100
00000000
00001000
00000000
00000100
00000000
00010000
00000000
00001000
00010000
00000000
00000000
,
00001000
00000000
00000000
01000000
00010000
00000000
01000000
00100000
01000000
00000000
00100000
00000000
10000000
00010000
00000000
00000000
,
10000000
00000000
00000000
01000000
00100000
00000000
00010000
00000000
00100000
00000000
00001000
00000000
00010000
00001000
00000000
00000000
,
00010000
00000100
00010000
00000000
00000100
00001000
00000100
00000000
00001000
00000000
00000001
00000100
00000010
00000000
00001000
00000000
,
00000100
00000000
00000000
00010000
00001000
00000000
00000010
00000000
00000100
00000000
00000010
00000000
00000001
00001000
00000000
00000000
,
00000010
00000000
00000000
00010000
00001000
00000000
00100000
00010000
10000000
00000000
00100000
00000000
01000000
00001000
00000000
00000000
,
00100000
00000000
00000000
00001000
00010000
00000000
01000000
00000000
00100000
00000000
01000000
00000000
10000000
00010000
00000000
00000000
,
01000000
00000000
01000000
00000000
00001000
00010000
00001000
00000000
00000100
00000000
00000001
00000000
00001000
00000000
00000000
00000000
,
00000001
00000000
00000010
00000100
00001000
00000000
00000100
00000000
00010000
00000000
00001000
00000000
00100000
00000000
00010000
00000000
,
01000000
00000000
00001000
00100000
00010000
00000000
01000000
00000000
00010000
00000000
00100000
00000000
01000000
00000000
10000000
00000000
,
01000000
00100000
01000000
00100000
01000000
00010000
00001000
00000000
,
00000010
00000100
00000010
00000001
00000010
00001000
00010000
01000000
,
10000000
00000000
00100000
01000000
00010000
00000000
01000000
00000000
00001000
00000000
00010000
00000000
00000010
00000000
00001000
00000000
,
00000100
00000000
00010000
00000010
00001000
00000000
00000100
00000000
00001000
00000000
00000001
00000000
00000100
00000000
00000010
00000000
,
00001000
00000000
00000010
00010000
00001000
00000000
00100000
00000000
00010000
00000000
10000000
01000000
00100000
00000000
00010000
00000000
,
00101000
00011000
00001100
00000101
,
00000001
00000000
00000100
00000010
00001000
00000000
00000010
00000000
00010000
00000000
00001000
00000000
01000000
00000000
00010000
00000000
,
00100000
00000000
00001000
01000000
00010000
00000000
00100000
00000000
00010000
00000000
10000000
00000000
00100000
00000000
10000000
00000000
,
00100000
01000000
00100000
01000000
00100000
00010000
00001000
00000000
,
00000100
00000010
00000100
00000001
00000100
00001000
00010000
00100000
,
10000000
00000000
01000000
00100000
00010000
00000000
00100000
00000000
00001000
00000000
00010000
00000000
00000100
00000000
00001000
00000000
,
00000010
00000000
00010000
00000100
00001000
00000000
00000010
00000000
00001000
00000000
00000100
00000000
00000010
00000100
00000010
00000100
,
00000010
00000000
00000000
00000000
00000001
00000000
00001000
00000000
00000100
00001000
00000100
00001000
00000100
00000000
00010000
00000000
,
00001000
00100000
00001000
00000000
00100000
00010000
00100000
00000000
00010000
01000000
00001000
00010000
00000100
00000000
00001000
00000000
,
00000001
00000000
00000000
00000000
,
00000000
00000000
00000000
00000000
;
#NOTES:
     dance-double:
     :
     Challenge:
     17:
     :
00000000
00000000
00000000
00000000
,
00000000
00000000
00000000
00000000
,
00000000
00000000
00000000
00000000
,
00000000
00000000
00000000
00000000
,
00000000
00000000
00000000
00000000
,
00000000
00000000
00000000
00000000
,
00000000
00000000
00000000
00000000
,
00021000
00000000
00230000
00000000
20300000
32000000
00000000
03020000
,
00032000
00003020
00000032
00000203
00000000
00002300
00023000
02030000
,
00000000
00000000
00000000
00000000
03200000
00000000
00000000
00301000
,
00010000
00000010
00000000
00000100
00000000
00000001
00001001
00000000
,
00001020
00000000
00000000
00001000
00001000
00001030
00000000
00021000
,
00000000
00000000
00000000
00001000
00001000
00031000
00000000
00000000
,
01020000
00000000
00000000
01000000
01000000
01030000
00000000
10010000
,
00000000
00000000
00101000
00000000
00000000
00000000
00010010
00000000
00000000
00000000
00001001
00000000
00000001
00001000
00000001
00001000
,
00000002
00000000
00000000
00001000
00001000
00001003
00000000
00021000
,
00000000
00000000
00000000
00001000
00001000
00031000
00000000
00000000
,
10020000
00000000
00000000
10000000
10000000
10000000
00000000
10030000
,
00010000
00100000
00010000
00100000
00001000
00010000
00001000
00010000
00000010
00001000
00000010
00001000
00000001
00000100
00000001
00000100
,
00000002
00000000
00000000
00002003
00000002
00003000
00001003
00000000
00000020
00000000
00020000
00000030
00000020
00030000
00010030
00000000
,
00002000
00000000
00000000
02003000
00002000
03000000
01003000
00000000
00020000
00000000
20000000
00030000
00020000
30000000
10030000
00000000
,
20000000
00000000
00000000
30020000
20000000
00030000
30010000
00000000
00200000
00000000
00002000
00300000
00200000
00003000
00301000
00000000
,
00020000
00000000
00000000
00030200
00020000
00000300
00030100
00000000
00002000
00000000
00000002
00003000
00002000
00000003
00003001
00000000
,
00000002
00000000
00000000
00000103
00002000
00000000
00013000
00000000
00002000
00000000
00020000
00003000
00230000
00000000
10300000
00000000
,
20000000
00000000
00000000
31000000
00020000
00000000
00031000
00000000
00020000
00000000
00032000
00000000
00003020
00000000
00000031
00000000
,
00000002
00000000
00000000
00000013
00002000
00000000
00013000
00000000
00001000
00000000
00100000
00000000
00101000
00000000
00000000
00000000
,
00100000
00001000
00100000
00001000
00010000
00000100
00010000
00000100
00001000
00000001
00001000
00000001
00001000
00000000
00000000
00000000
,
00000001
00000000
00000000
00000100
00001000
00000000
00010000
00000000
00100000
00000000
00000000
00000000
10100000
00000000
00000000
00000000
,
10000000
00000000
00000000
01000000
00010000
00000000
00001000
00000000
00000010
00000000
00000000
00000000
00000011
00000000
00000000
00000000
,
00000001
00000000
00000000
00000010
00001000
00000000
00010000
00000000
01000000
00000000
00000000
00000000
11000000
00000000
00000000
00000000
,
10000000
00000000
00000000
00100000
00010000
00000000
00001000
00000000
00000100
00000000
00000000
00000000
00000101
00000000
00000000
00000000
,
00000100
00000000
00000100
00001000
00010000
00000000
00010000
00000000
01000000
00000000
01000000
00010000
00001000
00000000
00001000
00000000
,
00000010
00000000
00000010
00001000
00010000
00000000
00010000
00000000
00100000
00000000
00100000
00010000
00001000
00000000
00001000
00000000
,
00010000
00001000
00010000
00001000
00100000
00010000
00100000
00010000
10000000
00100000
10000000
00100000
01000000
00010000
01000000
00010000
,
00000000
00000000
00000000
00000000
00000000
00000000
00000000
00000000
00010000
01000000
00001000
00010000
00001000
00000000
00000000
00000000
,
00012000
00000010
00003020
00000001
00000032
00001000
00000203
00001000
,
00000320
00000001
00002030
00000100
00003002
00000010
00001003
00000000
,
00000001
00000100
00001000
00000100
00000001
00000100
00001000
00000000
,
00000100
00001000
00010000
00001000
00000100
00001000
00010000
00000000
,
00021000
00100000
00230000
10000000
20300000
00010000
30200000
00010000
,
02300000
10000000
03020000
00100000
20030000
01000000
30010000
00000000
,
00020000
00000000
00030000
00001000
00010000
00000000
00000000
00100000
,
01100000
00011000
00000110
00011000
,
00012000
00000000
00000010
00000000
00000020
00003000
00000001
00000000
00000002
00000030
00001000
00000000
00000200
00000003
00001000
00000000
,
00000020
00000300
00000001
00000000
00002000
00000030
00000100
00000000
00000002
00003000
00000010
00000000
00001003
00000000
00000000
00000000
,
00000001
00000010
00001000
00000010
00000001
00000010
00001000
00000000
,
00000010
00001000
00010000
00001000
00000010
00001000
00010000
00000000
,
00021000
00000000
00100000
00000000
00200000
00030000
10000000
00000000
20000000
00300000
00010000
00000000
00200000
30000000
00010000
00000000
,
02000000
00300000
10000000
00000000
00020000
03000000
00100000
00000000
20000000
00030000
01000000
00000000
30010000
00000000
00000000
00000000
,
10000000
00100000
00000000
00100000
00010000
00001000
00000000
00001000
,
00010000
00001000
00010000
00001000
00100000
00010000
00100000
00010000
10000000
00100000
10000000
00100000
10000000
00000000
00000000
00000000
,
00020000
00230000
02300000
03002000
,
00023000
00030020
00000230
00002300
,
00003100
00000100
00000200
00010000
00010000
00020300
00001000
00001000
00032000
00100000
00100000
00103000
,
00020000
00000000
00000000
20030000
00000000
00000000
32000000
00000000
,
03020000
00032000
00003200
00020300
,
00032000
00203000
02300000
03010000
,
10000000
00010000
10000000
00010000
00100000
00001000
00100000
00001000
00010000
00000010
00010000
00000010
00001000
00000001
00001000
00000001
,
00002000
00000000
00000000
00000010
00000000
00000000
00003010
00000000
,
00002000
00000000
00000000
00010000
00023000
00000000
01030000
00000000
,
00020000
00000000
00000000
00001000
00032000
00000000
00003010
00000000
,
00002000
00000000
00000000
00010000
00023000
00000000
01030000
00100000
,
00020000
00000000
00000000
00001000
00031000
00000000
00011000
00000000
,
00010000
00000000
00001000
00010000
01000000
00000000
01000000
00000000
01000000
00000000
00010000
00001000
00000100
00000000
00000100
00000000
,
00000100
00000000
00001000
00010000
00100000
00000000
00100000
00000000
00100000
00000000
00010000
00001000
00000010
00000000
00000010
00000000
,
00000001
00001000
00000001
00001000
00000010
00010000
00000010
00010000
00001000
00100000
00001000
00100000
00010000
10000000
00010000
10000000
,
00000000
00000000
00000000
00000000
00000000
00000000
00000000
00000000
00010000
01000000
00001000
00010000
00001000
00000000
00000000
00000000
,
00021000
00001000
00001000
00001000
,
00001000
00000000
00000000
00000000
00001000
00000000
00032000
00023000
00001000
00000000
00001000
00000000
00031000
00000000
00000000
00000000
,
00012000
00000000
00010000
00000000
00010000
00010000
00010000
00000000
,
00010000
00000000
00023000
00032000
00010000
00000000
00013000
00000000
00100000
00000000
01000000
00000000
00100000
00000000
01000000
00000000
,
01200000
00000000
00000000
00300000
02100000
00000000
00000000
03000000
01200000
00300000
02100000
03000000
01200000
00000000
00000000
00300000
,
02100000
00000000
00000000
03000000
01200000
00000000
02300000
03200000
02300000
00000000
03100000
00000000
00020000
00000000
00030000
00000000
,
00012000
00000000
00000000
00003000
00021000
00000000
00000000
00030000
00012000
00003000
00021000
00030000
00012000
00003000
00021000
00000000
,
00031000
00000000
00001000
00000000
00000010
00000100
00000010
00000100
00001000
00000000
00001000
00000000
00001001
00000000
00000000
00000000
,
00001200
00000001
00000320
00000001
00000032
00000100
00000203
00001000
,
00000320
00000001
00002030
00000100
00003002
00000010
00001003
00000000
,
00000001
00000010
00001000
00010000
00001000
00000100
00000001
00000000
,
00000010
00001000
00010000
00001000
00000100
00000001
00000010
00000000
,
00000021
00001000
00000230
00001000
00002300
00000001
00003020
00000001
,
00000230
00001000
00000302
00000010
00002003
00000100
00003001
00000000
,
00002000
00000000
00003000
00000010
00001000
00010000
00001000
00000000
,
00001001
00010100
01001000
10010000
,
12000000
00000000
00010000
00000000
00200000
03000000
00010000
00000000
00020000
00300000
10000000
00000000
02000000
00030000
10000000
00000000
,
00200000
03000000
00010000
00000000
20000000
00300000
01000000
00000000
00020000
30000000
00100000
00000000
10030000
00000000
00000000
00000000
,
10000000
00100000
00010000
00001000
00010000
01000000
10000000
00000000
,
00100000
00010000
00001000
00010000
01000000
00100000
00010000
00000000
,
00210000
00000000
10000000
00000000
02000000
00300000
10000000
00000000
20000000
03000000
00010000
00000000
00200000
30000000
00010000
00000000
,
02000000
00300000
10000000
00000000
00020000
03000000
00100000
00000000
20000000
00030000
01000000
00000000
30010000
00000000
00000000
00000000
,
10000000
00000000
00010000
00000000
00000000
00000000
00010000
00100000
01000000
00000000
00100000
00000000
00000000
00000000
00100000
00000000
,
00100000
00001000
00100000
00001000
00010000
00000010
00010000
00000010
00001000
00000001
00000010
00000100
00001000
00000000
00000000
00000000
,
00022000
00000000
00000000
00000000
,
00033000
00000000
00000000
00000000
,
00000000
00000000
00000000
00000000
;
