
//----- song ID: chee -----//
#TITLE:Cheerleader;
#ARTIST:Porter Robinson;
#BANNER:Cheerleader.png;
#BACKGROUND:Cheerleader-bg.png;
#CDTITLE:./CDTitles/DDR WORLD.png;
#MUSIC:Cheerleader.ogg;
#SAMPLESTART:54.5;
#SAMPLELENGTH:15;
#BPMS:0=148;
#NOTES:
     dance-single:
     :
     Beginner:
     2:
     :
0000
0000
0000
0000
,
0000
0000
0000
0000
,
0000
0000
0000
0000
,
0000
0000
0000
0000
,
0000
0000
0000
0000
,
0000
0000
0000
0000
,
0001
0000
0000
0000
,
1000
0000
0000
0000
,
0002
0000
0000
0000
,
0003
0000
0000
0000
,
1000
0000
0000
0000
,
0001
0000
0001
0000
,
0001
0000
0000
0000
,
0010
0000
0000
0000
,
0001
0000
0000
0000
,
1000
0000
1000
0000
,
2000
0000
0000
0000
,
3000
0000
0000
0000
,
0010
0000
0000
0000
,
1000
0000
0000
0000
,
0001
0000
0001
0000
,
0001
0000
0000
0000
,
0010
0000
0000
0000
,
0001
0000
0000
0000
,
1000
0000
1000
0000
,
1000
0000
0000
0000
,
0002
0000
0000
0000
,
0003
0000
0000
0000
,
2000
0000
0000
0000
,
3000
0000
0000
0000
,
0020
0000
0000
0000
,
0030
0000
0000
0000
,
1000
0000
0000
0000
,
0001
0000
0000
0000
,
0020
0000
0000
0000
,
0000
0000
0000
0000
,
0030
0000
0000
0000
,
0001
0000
0001
0000
,
0001
0000
0000
0000
,
1000
0000
0000
0000
,
0010
0000
0010
0000
,
0010
0000
0000
0000
,
0200
0000
0000
0000
,
0300
0000
0000
0000
,
0001
0000
0000
0000
,
1000
0000
1000
0000
,
1000
0000
0000
0000
,
0001
0000
0000
0000
,
0010
0000
0010
0000
,
0010
0000
0000
0000
,
0002
0000
0000
0000
,
0003
0000
0000
0000
,
1000
0000
0000
0000
,
0001
0000
0001
0000
,
0001
0000
0000
0000
,
1000
0000
0000
0000
,
0010
0000
0010
0000
,
0010
0000
0000
0000
,
0000
0000
1000
0000
,
2000
0000
3000
0000
,
0010
0000
0010
0000
,
0010
0000
0000
0000
,
2000
0000
3000
0000
,
0002
0000
0003
0000
,
0010
0000
0010
0000
,
0010
0000
0000
0000
,
0002
0000
0000
0000
,
0000
0000
0003
0000
,
2000
0000
0000
0000
,
0000
0000
3000
0000
,
0020
0000
0000
0000
,
0000
0000
0030
0000
,
0200
0000
0000
0000
,
0300
0000
0000
0010
,
0000
0000
0000
0000
;
#NOTES:
     dance-single:
     :
     Easy:
     6:
     :
0000
0000
0000
0000
,
0000
0000
0000
0000
,
0000
0000
0000
0000
,
0000
0000
0000
0000
,
0000
0000
0000
0000
,
0000
0000
0000
0000
,
2000
3000
1000
0002
,
0000
0003
0001
1000
,
0100
0010
0001
2000
,
0001
0000
0001
3001
,
1000
0020
0030
0000
,
1000
1000
0001
0001
,
1000
0200
0300
0000
,
1000
0001
1000
0000
,
0001
0020
0030
0000
,
0001
0001
1000
1000
,
0002
0000
0000
0003
,
0200
0000
0000
0300
,
0010
0020
0030
0000
,
0200
0000
0300
0000
,
0001
0001
1000
1000
,
0200
0000
0300
0000
,
0020
0030
0000
0001
,
1000
0001
0000
0000
,
1000
1000
0001
0001
,
0200
0000
0000
0300
,
0002
0000
0100
0000
,
2003
0000
0100
0000
,
3002
0000
0013
0000
,
0001
0001
1000
1000
,
2000
0000
0100
0000
,
3002
0000
0100
0000
,
2003
0000
0010
0010
,
3010
0000
1000
0001
,
1000
0100
0010
0001
,
1000
0010
0100
0001
,
2000
0000
3000
0001
,
0010
0100
1000
2000
,
0000
0002
0000
3003
,
0001
0001
1000
1000
,
0100
0010
0001
2000
,
0000
3000
0001
1000
,
0001
0100
0010
1000
,
0001
0010
0100
1000
,
0001
0002
0003
1000
,
0020
0030
0100
0100
,
0000
0002
0000
0003
,
1000
1000
0001
0001
,
0010
0100
1000
0002
,
0000
0000
1003
0001
,
1000
0100
0010
0001
,
1000
0010
0100
0001
,
2000
0000
3000
0001
,
0010
0100
1000
2000
,
0000
0002
0000
3003
,
0001
0001
1000
1000
,
0100
0010
0001
1000
,
0010
0010
0100
0100
,
0000
1001
0001
1000
,
0001
0001
1000
1000
,
0100
0010
0001
2000
,
0000
3000
0001
1000
,
0001
0001
1000
0001
,
0100
0100
0001
0001
,
0010
0100
1000
0002
,
0000
0000
1003
0001
,
0020
0030
0001
2000
,
0000
3000
0001
0200
,
0300
0001
1000
0010
,
0020
0000
2030
3000
,
0020
0030
1000
0002
,
0000
0003
1000
0200
,
0300
1000
1000
0010
,
0020
0000
0000
0030
,
0000
0000
0000
0000
;
#NOTES:
     dance-single:
     :
     Medium:
     9:
     :
0000
0000
0000
0000
,
0000
0000
0000
0000
,
0000
0000
0000
0000
,
0000
0000
0000
0000
,
0000
0000
0000
0000
,
0000
0000
0000
0000
,
2000
0000
3010
0000
1000
0001
1000
0002
,
0000
0000
0013
0000
0001
1000
0001
0000
,
1000
0100
0010
0001
1000
0000
0010
0200
,
0000
0000
0301
0000
1000
0001
1000
0000
,
0001
0000
0011
0000
0000
1000
0001
1000
,
0000
0010
1000
0000
0001
0000
0010
0000
,
0100
0000
1100
0000
0000
1000
0001
1000
,
0000
0010
0100
0010
0000
1000
0001
0000
,
1000
0000
1010
0000
0000
0001
1000
0001
,
0000
1000
0000
0100
0010
0000
0001
0000
,
2000
0100
0001
0010
,
3002
0000
0010
0000
1003
0000
0010
0100
,
0010
0000
0110
0000
0000
2000
0000
3002
,
0000
2003
0000
3000
0000
0001
0010
0001
,
0000
1000
0010
1000
0010
0000
0100
0002
,
0000
2003
0000
0000
3000
0001
0010
0100
,
0000
0100
1000
0000
0000
0002
0000
2003
,
0000
3002
0000
0003
0000
1000
0010
1000
,
0000
0001
0010
0000
0100
0000
1000
0200
,
0000
1300
0000
0001
0000
0100
0001
0000
,
2000
0000
0001
0000
3010
0000
0010
1000
,
0020
0000
1000
0000
0130
0000
0100
0010
,
0200
0000
0010
0000
0301
0000
0001
1000
,
0000
1000
0000
0010
0000
0100
0001
0100
,
0002
0000
1000
0000
0013
0000
0010
0001
,
0020
0000
0001
0000
0130
0000
0100
0010
,
0200
0010
1300
1000
,
0001
1000
0001
0000
0100
0001
0100
0000
,
0201
0010
1000
0010
,
0001
0010
1000
0310
,
2000
0000
0001
0000
3100
0000
1000
0100
,
0000
1000
0001
0000
0100
0001
0200
0000
,
0001
0000
0310
0000
1000
0001
1000
0002
,
0000
0000
0013
0000
0001
1000
0001
0000
,
1000
0100
0010
0001
1000
0000
0010
0200
,
0000
0000
0301
1000
0000
0100
0000
0000
,
1200
0010
0001
0010
,
2300
0000
3000
0010
0000
0100
0000
0001
,
0010
0002
0000
0000
0003
1000
0000
0200
,
0000
0000
1300
0001
1000
0001
2000
0000
,
0001
0000
3010
0000
1000
0001
1000
0002
,
0000
0000
0013
0000
0001
1000
0001
0000
,
1000
0100
0010
0001
1000
0000
0010
0200
,
0000
0000
0301
1000
0000
0010
0000
0000
,
1020
0100
0001
0100
,
2030
0000
3000
0100
0000
0010
0000
0001
,
0100
0002
0000
0000
0003
1000
0000
0020
,
0000
0000
1030
0001
1000
0001
2000
0000
,
0001
0000
3100
0000
1000
0001
1000
0002
,
0000
0000
0103
0000
0001
1000
0001
0000
,
1000
0100
0010
0001
1000
0000
0001
0010
,
0000
0001
1000
0000
0010
1000
0010
0000
,
0100
0000
0101
0000
0001
1000
0001
2000
,
0000
0000
3010
0000
1000
0001
1000
0000
,
0001
0010
0100
1000
0001
0000
0100
0020
,
0000
0000
1030
0000
0001
1000
0001
0000
,
0200
0000
0301
0000
1000
0001
1000
0002
,
0000
0000
0013
0000
0001
1000
0001
0000
,
1000
0100
0010
0001
1000
0000
0010
0100
,
0000
0001
1000
0000
0100
0010
0100
0000
,
2000
0001
0010
3002
,
0100
1000
0010
1000
,
0203
0010
1000
0010
,
0302
0000
1003
0000
1000
0010
1000
0000
,
0002
1000
0010
2003
,
0100
0001
0010
0001
,
3200
0010
0001
0010
,
2300
0000
3001
0000
0001
1000
0001
0000
,
0000
0000
0000
0000
;
#NOTES:
     dance-single:
     :
     Hard:
     13:
     :
0000
0000
0000
0000
,
0000
0000
0000
0000
,
0000
0000
0000
0000
,
0000
0000
0000
0000
,
0000
0000
0000
0000
,
0000
0000
0000
0000
,
0002
0000
2003
0000
3010
1000
0001
0200
,
0010
0000
0302
0100
2003
0100
3002
0003
,
1000
0100
0010
0001
2000
0010
3020
0230
,
0001
0000
0310
1000
0001
0010
0100
1000
,
0001
0000
0202
0303
0000
1000
0001
0011
,
0000
0000
0010
0000
0100
0000
0010
0000
0001
0000
0000
0100
0000
0000
0001
0000
,
1000
0000
2200
3300
0000
0001
1000
0010
,
0000
0100
0001
1000
0100
0010
0001
1000
,
0001
0000
0022
0033
0000
1000
0001
0101
,
0000
0000
0100
0000
0010
0000
0100
0000
0001
0000
0000
0010
0000
0000
0100
0000
,
2000
0000
0001
0001
0000
0100
0000
3002
,
0000
0100
0103
0001
1000
0100
0010
0010
,
0100
0000
0220
0330
0000
0001
1000
0010
,
0000
0220
0330
0000
1000
0100
1000
1002
,
0000
0103
0010
0100
1000
0100
0010
2000
,
0000
3001
0010
0100
0000
1000
0001
0021
,
0000
0130
0010
0000
0000
1200
0000
0001
,
0000
1300
0000
0000
0001
1000
0010
0210
,
0000
0301
1000
0000
1200
0000
0310
0002
,
0000
0103
0010
2000
0000
3100
0010
0000
,
1002
0000
0103
0001
1000
0100
0010
0200
,
1000
0000
0310
0001
1000
0010
0100
0020
,
1000
0000
0130
0001
1000
0100
0010
0002
,
0000
0203
0000
2300
0000
3100
0001
1000
,
2001
0000
3100
1000
0001
0100
0010
0200
,
0001
0000
0310
1000
0001
0010
0100
0020
,
0001
0000
0130
1000
0020
0000
0130
0001
,
1000
0010
0100
0001
1000
0100
0010
0000
,
1002
0000
0203
0000
1300
2000
3002
0000
,
0023
0000
2030
0000
3001
0002
0013
0200
,
1000
0000
0001
0000
1300
0001
0100
0020
,
1030
0001
0010
0001
2000
0010
3002
0000
,
1003
0000
2100
0000
3001
0100
0010
0200
,
1000
0000
0302
0100
2003
0100
0002
3003
,
1000
0100
0010
0001
2000
0010
3020
0230
,
1000
0000
0301
2000
3001
0020
0130
0000
,
2001
0000
3020
0000
0031
0002
2003
0000
,
3200
0000
0301
2000
3001
0020
0130
1000
,
0001
0200
0010
0000
0301
1000
0100
0001
,
0200
0000
2300
3001
0200
0310
2000
0000
,
3001
0000
0012
0000
1003
0100
0010
0200
,
0001
0000
2300
0100
3002
0100
2000
3003
,
0001
0100
0010
1000
0002
0010
0023
0230
,
0001
0000
1300
0002
1003
0020
0130
0000
,
1002
0000
0023
0000
1030
2000
3002
0000
,
0203
0000
1300
0002
1003
0020
0130
0001
,
1000
0200
0010
0000
1300
0001
0100
0010
,
2000
0000
3200
0310
0002
0013
0200
0000
,
1300
0000
1002
0000
0103
0010
1000
0200
,
0001
0000
1300
0001
2000
0010
0002
3003
,
1000
0100
0010
0001
2000
3100
0200
0320
,
0001
0032
1000
0103
0001
1000
0010
0000
,
1001
0000
0102
0000
1003
0100
0010
0200
,
0001
0000
2300
0100
3002
0100
2000
3003
,
1000
0100
0010
0001
0200
0010
0320
2030
,
0001
0000
3100
0010
0001
0010
0100
1000
,
0002
0000
2003
0000
3001
0100
0010
0200
,
1000
0000
0302
0100
2003
0100
0002
3003
,
0001
0100
0010
1000
0200
0010
0320
0032
,
0000
1000
0013
0001
1000
0100
0010
0001
,
0200
0000
0001
0000
0310
1000
0100
0020
,
0001
0000
1000
0000
0031
1000
0100
0010
,
0001
0100
0010
1000
0002
0010
0023
0230
,
1000
0000
0010
0320
0001
0031
0010
0000
,
1200
0000
1000
0000
0310
0001
0100
0020
,
1000
0000
0100
0000
1030
0001
0100
0010
,
0001
0010
0100
0010
2000
0001
3002
0023
,
0001
0000
1000
0000
0001
0031
1000
0000
,
0000
0000
0000
0000
;
#NOTES:
     dance-single:
     :
     Challenge:
     15:
     :
0000
0000
0000
0000
,
0000
0000
0000
0000
,
0000
0000
0000
0000
,
0000
0000
0000
0000
,
0000
0000
0000
0000
,
0000
0000
0000
0000
,
2100
0000
0001
0000
3010
1000
0001
0020
,
1000
0000
0000
0000
0031
0000
1000
0001
1000
0000
0002
0000
0200
0000
0303
0000
,
1010
0010
0001
1000
0200
0010
0302
0023
,
1000
0000
0031
1000
0010
0100
0001
1000
,
1001
0000
0202
0303
0000
0100
0010
0210
,
0000
0000
0310
0000
0001
0000
0010
0000
0110
0000
0100
0001
1000
0000
0100
0000
,
1100
0000
0220
0330
0000
0001
0100
0210
,
0000
0000
0301
0000
1000
0000
0001
1000
0100
0010
0001
0000
0100
0000
0001
0000
,
1001
0000
2020
3030
0000
0010
0100
0101
,
0000
0000
1000
0000
0100
0000
0010
0000
0110
0000
0100
0010
0001
0000
1000
0000
,
0102
0203
2300
3200
0302
0023
0130
2000
,
3020
0000
0032
0000
0013
0000
1000
0001
0100
0010
1000
0000
0001
0000
0010
0000
,
0011
0001
2002
3003
0000
1000
0010
2010
,
0000
3002
0103
0000
1001
1000
0010
0220
,
0330
0100
0001
0010
1000
0010
0001
0201
,
0000
0320
1000
0130
0000
0001
1000
2020
,
0030
0010
3001
0000
0000
0021
0000
2000
,
3000
0002
0033
0000
2001
3010
0100
0210
,
0000
1300
0100
0001
0012
0000
0103
0201
,
0000
0000
0310
0000
0100
0000
2000
0000
0000
0000
3100
0000
0001
0000
1000
0001
,
2000
0001
0010
0010
0001
0001
0100
3200
,
1000
1000
0010
0010
0001
0001
0010
0320
,
0001
0001
0100
0100
1000
1000
0130
2000
,
3100
2000
3001
0200
0310
1000
0100
0010
,
0002
1000
0010
0010
1000
1000
0100
0203
,
0001
0001
0010
0010
1000
1000
0010
0320
,
0100
0100
1000
2030
3200
0320
0032
2003
,
3010
0000
1000
0001
1000
0000
0100
1000
0100
0000
2000
0000
3001
0000
0000
0000
,
0102
0203
2300
3200
0302
0023
2030
3002
,
0203
2300
3020
0032
2003
3100
0001
0020
,
0230
0320
0230
0310
0001
1000
0010
0120
,
0000
0031
0010
0100
0001
1000
1200
0000
,
0001
0000
2300
3002
0103
1000
0001
0020
,
0100
0000
0000
0000
1030
0000
0100
1000
0001
0000
2000
0000
0020
0000
3030
0000
,
0101
0100
1000
0001
0020
0100
2030
3200
,
0010
0000
0000
0000
1300
0000
1001
0000
0000
0000
0101
0000
0001
0000
1000
0001
,
2000
3020
0032
2003
3200
0302
0023
1030
,
0002
0203
1300
0020
0031
0020
1030
0001
,
0010
0200
0001
0000
1300
0001
0100
0020
,
0001
0000
1030
0100
0001
0100
0020
0000
,
0031
0000
0012
2003
3010
1000
0001
0200
,
1000
0000
0000
0000
0301
0000
0010
0001
1000
0000
0002
0000
0020
0000
0033
0000
,
1100
0100
0001
1000
0020
0100
0032
0203
,
0010
0000
0000
0000
0301
0000
1001
0000
0000
0000
1100
0000
1000
0000
0001
1000
,
0002
0023
2030
3002
0203
2300
3020
0031
,
2000
3200
0301
0020
1030
0020
0031
1000
,
0010
0200
1000
0000
0301
1000
0100
0020
,
1000
0000
0031
0100
1000
0100
0020
0000
,
1030
0000
2010
3002
0013
0001
1000
0200
,
0001
0000
1300
0001
0100
0020
2000
3030
,
0101
0100
1000
0001
0020
1030
0001
0012
,
0000
1003
0100
0010
1000
0010
0200
0000
,
1300
0000
1002
0000
0103
0001
1000
0020
,
0001
0000
0000
0000
1030
0000
0100
1000
0001
0000
2000
0000
0200
0000
3300
0000
,
0011
0010
1000
0001
0200
0010
2300
3020
,
0001
0000
1030
0001
0100
1000
0100
0001
,
0010
0000
2001
0000
3100
1000
0001
0020
,
1000
0000
0000
0000
0031
0000
0100
0001
1000
0000
0002
0000
0200
0000
0303
0000
,
1010
0010
0001
1000
0200
0010
0302
0023
,
0000
0000
1000
0000
0130
0000
0010
0100
0000
1000
0001
0000
0010
0100
1000
0001
,
0200
0000
1000
0000
0302
0023
2030
3020
,
0001
0000
1000
0000
0032
0203
2300
3200
,
0302
0023
2030
3002
0203
0010
2300
3020
,
0001
0000
0100
2030
0001
0001
3100
0000
,
1200
0000
0001
0000
2300
3020
0032
0023
,
1000
0000
0001
0000
2030
3200
0302
0203
,
2300
3020
0032
2003
3200
0010
0302
0023
,
1000
0000
0001
0000
1030
0010
0001
0000
,
0000
0000
0000
0000
;
#NOTES:
     dance-double:
     :
     Easy:
     6:
     :
00000000
00000000
00000000
00000000
,
00000000
00000000
00000000
00000000
,
00000000
00000000
00000000
00000000
,
00000000
00000000
00000000
00000000
,
00000000
00000000
00000000
00000000
,
00000000
00000000
00000000
00000000
,
00011000
00000000
00001000
00200000
,
00000000
00300000
00010000
10000000
,
01000000
00010000
00001000
00020000
,
00001000
00000000
00001000
00031000
,
00010000
00000020
00000030
00000000
,
00001000
00001000
00000001
00000001
,
00001000
00000200
00000300
00000000
,
00010000
00001000
00010000
00000000
,
00001000
00200000
00300000
00000000
,
00010000
00010000
10000000
10000000
,
00020000
00000000
00000000
00030000
,
02000000
00000000
00000000
03000000
,
00001000
00020000
00030000
00000000
,
00000020
00000000
00000030
00000000
,
00001000
00001000
00000001
00000001
,
00000200
00000000
00000300
00000000
,
00002000
00003000
00000000
00010000
,
00001000
00100000
00000000
00000000
,
00010000
00010000
10000000
10000000
,
02000000
00000000
03000000
00000000
,
20000000
00000000
00010000
00000000
,
32000000
00000000
00100000
00000000
,
03020000
00000000
00031000
00000000
,
00010000
00010000
00001000
00001000
,
00000020
00000000
00000100
00000000
,
00000032
00000000
00001000
00000000
,
00002003
00000000
00000010
00000010
,
00003010
00000000
00010000
00001000
,
00010000
00100000
10000000
00010000
,
10000000
01000000
00010000
00001000
,
00020000
00000000
00030000
00000010
,
00001000
00000001
00000100
00002000
,
00000000
00020000
00000000
00033000
,
00001000
00100000
00010000
10000000
,
01000000
00010000
00001000
00020000
,
00000000
00030000
00001000
00010000
,
00001000
00000010
00000001
00001000
,
00000001
00000100
00001000
00010000
,
00002000
00000000
00003000
00100000
,
00010000
10000000
01000000
00020000
,
00000000
00002000
00000000
00033000
,
00010000
00000010
00001000
00000001
,
00000100
00001000
00010000
00002000
,
00000000
00003000
00010000
00001000
,
00010000
01000000
10000000
00010000
,
10000000
00100000
00010000
00001000
,
00000020
00000000
00000030
00000001
,
00000200
00000300
00001000
00001000
,
00020000
00002000
00000000
00033000
,
00001000
01000000
00010000
10000000
,
00100000
00010000
00001000
00010000
,
00002000
00000000
00003000
00010000
,
00000010
00001020
00000000
00000130
,
00000001
00000001
00001000
00000001
,
00000010
00001000
00010000
00002000
,
00000000
00003000
01000000
00001000
,
00010000
00001000
00100000
00010000
,
10000000
10000000
00010000
10000000
,
00100000
00010000
00001000
00020000
,
00000000
00030000
00000100
00001000
,
00002000
00000000
00000001
00000000
,
00000010
00000000
00010000
00000000
,
00023000
00000000
01000000
00000000
,
10000000
00000000
00100000
00000000
,
00032000
00000000
00000100
00000000
,
00000001
00000000
00000010
00000000
,
00023000
00000000
01000000
00000000
,
10000000
00000000
00100000
00130000
,
00000000
00000000
00000000
00000000
;
#NOTES:
     dance-double:
     :
     Medium:
     9:
     :
00000000
00000000
00000000
00000000
,
00000000
00000000
00000000
00000000
,
00000000
00000000
00000000
00000000
,
00000000
00000000
00000000
00000000
,
00000000
00000000
00000000
00000000
,
00000000
00000000
00000000
00000000
,
00012000
00000000
00013000
00000000
00001000
00100000
00001000
00200000
,
00000000
00000000
00310000
00000000
10000000
01000000
10000000
00000000
,
01000000
00000000
00010000
00000000
00001000
00000000
00000010
00000200
,
00000000
00000000
00001300
00000000
00000001
00001000
00000001
00000000
,
00000010
00000000
00000011
00000000
00000000
00000001
00001000
00000001
,
00000000
00001000
00000010
00000000
00010000
00000000
00001000
00000000
,
01000000
00000000
01010000
00000000
00000000
00010000
10000000
00010000
,
00000000
10000000
00100000
10000000
00000000
00010000
10000000
00000000
,
00100000
00000000
10100000
00000000
00000000
10000000
00010000
10000000
,
00000000
00010000
00000000
00100000
00001000
00000000
00010000
00000000
,
00000020
00010000
00001000
00000130
,
00000200
00000000
00000010
00000000
00000301
00000000
00001000
00000001
,
00001000
00000000
00001100
00000000
00000000
00000200
00000000
00020300
,
00000000
00032000
00000000
00003000
00000000
01000000
00010000
01000000
,
00000000
00010000
10000000
00010000
10000000
00000000
01000000
20000000
,
00000000
30020000
00000000
00030000
00000000
00100000
00010000
00100000
,
00000000
00100000
00010000
00000000
00000000
02000000
00000000
03002000
,
00000000
00023000
00000000
00030000
00000000
00000100
00001000
00000100
,
00000000
00001000
00000001
00000000
00001000
00000000
00000100
00020000
,
00000000
00031000
00000000
00100000
00000000
00010000
10000000
00000000
,
00020000
00000000
01000000
00000000
,
10000000
00000000
00100000
00000000
,
00032000
00000000
00000100
00000000
,
00003001
00000000
00000000
00001000
00000000
00000100
00001000
00000100
,
00002000
00000000
00000100
00000000
,
00000001
00000000
00000010
00000000
,
00023000
00000000
01000000
00000000
,
10030000
00000000
00010000
00000000
01000000
00001000
00010000
00000000
,
00000200
00010000
00001000
00000010
,
00000001
00000010
00001000
00010300
,
00020000
00000000
00000100
00000000
00031000
00000000
00100000
00010000
,
00000000
10000000
00010000
00000000
01000000
00010000
02000000
00000000
,
00001000
00000000
03010000
00000000
01000000
00001000
01000000
00002000
,
00000000
00000000
00013000
00000000
00000100
00001000
00000100
00000000
,
00001000
00000100
00000010
00000001
00001000
00000000
00000010
00020000
,
00000000
00000000
00031000
01000000
00000000
00001000
00000000
00000000
,
02000000
00010000
00100000
10000000
,
03200000
00000000
00300000
10000000
00000000
00010000
00000000
00100000
,
00001000
00020000
00000000
00000000
00030000
00000010
00000000
00002000
,
00000000
00000000
00003001
00001000
00000001
00001000
00000020
00000000
,
00000100
00000000
00001030
00000000
00000010
00010000
00000010
00020000
,
00000000
00000000
00031000
00000000
00100000
00010000
00100000
00000000
,
00010000
00100000
01000000
10000000
00010000
00000000
01000000
00002000
,
00000000
00000000
00013000
00000010
00000000
00010000
00000000
00000000
,
00000020
00001000
00000100
00000001
,
00000230
00000000
00000300
00000001
00000000
00001000
00000000
00000010
,
00010000
00002000
00000000
00000000
00003000
00100000
00000000
00020000
,
00000000
00000000
10030000
00010000
10000000
00010000
00200000
00000000
,
01000000
00000000
00310000
00000000
00100000
00001000
00100000
00002000
,
00000000
00000000
00013000
00000000
00000100
00001000
00000100
00000000
,
00001000
00000100
00000010
00000001
00001000
00000000
00000100
00010000
,
00000000
00001000
00010000
00000000
00100000
00000000
10000000
00000000
,
01000000
00000000
11000000
00000000
10000000
00010000
10000000
00020000
,
00000000
00000000
00130000
00000000
00001000
00010000
00000100
00000000
,
00001000
00000100
00000010
00000001
00001000
00000000
00000010
00020000
,
00000000
00031000
00000010
00000001
,
00000100
00000000
00000101
00000000
00000001
00001000
00000001
00002000
,
00000000
00000000
00003010
00000000
00010000
00001000
00100000
00000000
,
00010000
00100000
01000000
10000000
00010000
00000000
01000000
00002000
,
00000000
00000000
00013000
00000000
00000100
00001000
00000100
00000000
,
00002000
00000100
00000001
00000010
,
00023000
01000000
10000000
00100000
,
00032000
00003100
00010000
00002000
,
00100000
00000000
00000000
02003000
00000000
00000000
03010000
00000000
,
00020000
01000000
10000000
00100000
,
00032000
00000100
00000001
00000010
,
00023000
01030000
00001000
00020000
,
00001000
00000010
00031000
00010000
,
00000000
00000000
00000000
00000000
;
#NOTES:
     dance-double:
     :
     Hard:
     13:
     :
00000000
00000000
00000000
00000000
,
00000000
00000000
00000000
00000000
,
00000000
00000000
00000000
00000000
,
00000000
00000000
00000000
00000000
,
00000000
00000000
00000000
00000000
,
00000000
00000000
00000000
00000000
,
00012000
00000000
00103000
00000000
00001000
00010000
00000100
00002000
,
00000100
00000000
00003002
00000100
00002003
00000100
00003002
00000003
,
00000100
00001000
00010000
00100000
20000000
00010000
30020000
00230000
,
00001000
00000000
00310000
00100000
01000000
00010000
00001000
00010000
,
00000100
00000000
00020200
00030300
00000000
00010000
00000010
00001010
,
00000000
00000000
00000001
00000000
00000010
00000000
00000100
00000000
00001000
00000000
00000000
00000100
00000000
00000000
00010000
00000000
,
00001000
00000000
02002000
03003000
00000000
01000000
00010000
10000000
,
00000000
01000000
00100000
00010000
01000000
00100000
00010000
00001000
,
00010000
00000000
00020020
00030030
00000000
00000010
00001000
00001010
,
00000000
00000000
00001000
00000000
00000001
00000000
00000010
00000000
00001000
00000000
00000000
00010000
00000000
00000000
01000000
00000000
,
02000000
00000000
10000000
00000000
00100000
00000000
00010000
03020000
,
00000000
00001000
00031000
00010000
00000100
00001000
00000001
00001000
,
00000010
00000000
00000220
00000330
00000000
00000100
00001000
00010000
,
00000000
00022000
00033000
00000000
00001000
00010000
00100000
01200000
,
00000000
10300000
00010000
00100000
00001000
00010000
00000010
00001020
,
00000000
00000130
00000001
00001000
00000000
00000100
00010000
00012000
,
00000000
00103000
00001000
00000000
00000000
00210000
00000000
02300000
,
00000000
13000000
00000000
00000000
01000000
00010000
00001000
00012000
,
00000000
00103000
00001000
00000000
00010020
00000000
00001030
00000002
,
00000000
00000013
00001000
00020000
00000000
00130000
10000000
00000000
,
01020000
00000000
10000000
00000000
00100000
00000000
00001000
00032000
,
00000100
00000000
00000001
00000000
00000010
00000000
00013000
00020000
,
01000000
00000000
10000000
00000000
00100000
00000000
00031000
00002000
,
00000000
00003200
00000000
00020300
00000000
00030010
00001000
00000100
,
00002000
00000000
00000001
00000000
00000010
00000000
00010000
00023000
,
01000000
00000000
10000000
00000000
00100000
00000000
00001000
00032000
,
00000100
00000001
00000010
00013000
,
02010000
00000000
03100000
10000000
01000000
00010000
00001000
00000000
,
00012000
00000000
00003200
00000000
00000310
00000020
00000032
00000000
,
00002003
00000000
00023000
00000000
00031000
00100000
00010000
20000000
,
01000000
00000000
00010000
00000000
30100000
01000000
00010000
00200000
,
00302000
00013000
00000010
00001000
00000002
00000010
00002003
00000000
,
00003100
00000000
00010200
00000000
00010300
00001000
00100000
00020000
,
00100000
00000000
20030000
01000000
30020000
01000000
20030000
30000000
,
01000000
00010000
00001000
00000010
00000002
00001000
00002003
00003020
,
00010000
00000000
00001030
00000020
00010030
00002000
00013000
00000000
,
00021000
00000000
00230000
00000000
01300000
02000000
23000000
00000000
,
30020000
00000000
00031000
00020000
00030010
00002000
00003010
00000200
,
00000301
00000200
00000010
00000000
00001300
00000100
00001000
00010000
,
00200000
00000000
02300000
03100000
20000000
30010000
00200000
00000000
,
00301000
00000000
00021000
00000000
00030010
00010000
00000010
00002000
,
00000100
00000000
00003002
00000100
00002003
00000100
00003002
00000003
,
00000010
00001000
00010000
01000000
20000000
00000000
30010000
02000000
,
00001000
00000000
03010000
02000000
03001000
00020000
00031000
00000000
,
00012000
00000000
00003020
00000000
00000130
00000200
00000302
00000000
,
00002003
00000000
00013000
00002000
00103000
00020000
00130000
02000000
,
13000000
02000000
00100000
00000000
03010000
01000000
00010000
00001000
,
00000020
00000000
00000230
00000310
00000002
00001003
00000020
00000000
,
00010030
00000000
00012000
00000000
00103000
00001000
00100000
00020000
,
01000000
00000000
20030000
01000000
30020000
01000000
20030000
30000000
,
00100000
00010000
00001000
00000100
00000002
00001003
00002000
00003020
,
00010000
00020030
00001000
00032000
00103000
00010000
10000000
00000000
,
10010000
00000000
01020000
00000000
10030000
01000000
00010000
00002000
,
00100000
00000000
00023000
00001000
00030020
00001030
00000001
00000000
,
00000100
00001000
00010000
00100000
20000000
01000000
32000000
03020000
,
00001000
00000000
00030010
00010000
00001000
00000100
00000001
00000010
,
00000100
00000000
00002100
00000000
00003001
00000100
00001000
00020000
,
00000010
00000000
00032000
00010000
00203000
00310000
10000000
00000000
,
01000000
00010000
00001000
00000010
00000002
00000100
00000203
00002300
,
00000000
00013000
00001000
00100000
00010000
01000000
00100000
10000000
,
00020000
00000000
10000000
00000000
00100000
00000000
00001000
00032000
,
00010000
00000000
00000100
00000000
00000001
00000000
00000010
00003010
,
00001000
00000100
00010000
00001000
02000000
00100000
03200000
00320000
,
00001000
00000000
00000100
00030200
00010000
00010300
00000100
00000000
,
00002100
00000000
00000001
00000000
00000010
00000000
00010000
00023000
,
00001000
00000000
01000000
00000000
10000000
00000000
00100000
00130000
,
00010000
01000000
00001000
00010000
00000200
00000010
00000320
00002030
,
00010000
00000000
01000000
00000000
00010000
00013000
00001000
00000000
,
00000000
00000000
00000000
00000000
;
#NOTES:
     dance-double:
     :
     Challenge:
     15:
     :
00000000
00000000
00000000
00000000
,
00000000
00000000
00000000
00000000
,
00000000
00000000
00000000
00000000
,
00000000
00000000
00000000
00000000
,
00000000
00000000
00000000
00000000
,
00000000
00000000
00000000
00000000
,
00021000
00000000
00100000
00000000
00031000
00000010
00000001
00000200
,
00001000
00000000
00000000
00000000
00000301
00000000
00001000
00000100
00010000
00000000
00002000
00000000
00203000
00000000
00300000
00000000
,
00110000
00010000
00100000
10000000
00020000
01000000
02030000
03200000
,
00010000
00000000
00301000
00100000
00001000
00010000
00000010
00001000
,
00001001
00000000
00000202
00000303
00000000
00000100
00000010
00000210
,
00000000
00000000
00001300
00000000
00010000
00000000
00001000
00000000
02001000
00000000
00000000
03010000
00000000
00000000
10000000
00000000
,
10010000
00000000
22000000
33000000
00000000
01000000
00100000
01200000
,
00000000
00000000
00310000
00000000
00100000
00000000
00001000
00100000
00001000
00010000
00000010
00000000
00001000
00000000
00000001
00000000
,
00001001
00000000
00000022
00000033
00000000
00000010
00000100
00000110
,
00000000
00000000
00000010
00000000
00001000
00000000
00010000
00000000
00011000
00000000
00001000
00100000
00010000
00000000
10000000
00000000
,
12000000
03200000
00320000
00032000
00003200
00000320
00000031
00002000
,
00003020
00000000
00000230
00000000
00001300
00000000
00010000
00001000
00100000
00010000
10000000
00000000
00010000
00000000
10000000
00000000
,
10100000
00100000
02200000
03300000
00000000
01000000
00010000
01002000
,
00000000
00023000
00031000
00000000
00010100
00000100
00001000
00002002
,
00003003
00000001
00000100
00001000
00010000
00100000
10000000
20010000
,
00000000
32000000
03020000
00031000
00000000
00010000
00000010
00001020
,
00000000
00001000
00000130
00000000
00000000
00002001
00000000
00023000
,
00000000
20000000
30030000
00000000
11000000
01000000
00010000
00012000
,
00000000
00003010
00000001
00000100
00000210
00000000
00001300
00021000
,
00000000
00000000
00130000
00000000
10000000
00000000
02000000
00000000
00000000
00000000
00100000
00000000
13000000
00000000
00010000
10000000
,
00020000
01000000
10000000
10000000
00100000
00100000
00001000
00032000
,
00010000
00010000
00000100
00000100
00000001
00000001
00003010
00000020
,
00000001
00000001
00000100
00000100
00001000
00001000
00010030
00002000
,
00103000
00020000
10030000
00200000
00310000
00001000
00000100
00000001
,
00002000
00000010
00000001
00000001
00000100
00000100
00010000
00023000
,
00001000
00001000
00100000
00100000
10000000
10000000
01000000
02030000
,
00100000
00100000
10000000
23000000
32000000
03200000
00320000
00032000
,
00013000
00000000
00000010
00001000
00000010
00000000
00000100
00000001
00000100
00000000
00002000
00000000
00013000
00000000
00000000
00000000
,
00020000
00230000
20300000
32000000
03020000
00032000
00003200
00000302
,
00000023
00002030
00023000
00230000
20300000
31000000
00010000
00002000
,
00023000
00032000
00023000
00031000
00000010
00000001
00000100
00000210
,
00000000
00000301
00000010
00001000
00010000
00100000
02000000
00000000
,
10000000
00000000
03020000
20030000
31000000
00010000
00001000
00000200
,
00000010
00000000
00000000
00000000
00000301
00000000
00001000
00000100
00010000
00000000
00002000
00000000
00200000
00000000
00303000
00000000
,
00210000
00320000
00230000
20300000
30020000
00000000
00032000
00003020
,
00000100
00000000
00000000
00000000
00000031
00000000
00001001
00000000
00000000
00000000
00001010
00000000
00000010
00000000
00010000
00001000
,
00020000
02030000
23000000
30200000
00320000
00032000
00003020
00000031
,
00000200
00002300
00013000
02000000
13000000
02000000
03010000
00001000
,
00000100
00000020
00000001
00000000
00000130
00001000
00010000
00200000
,
01000000
00000000
10300000
00010000
00100000
00001000
00020000
00000000
,
00030100
00000000
00002100
00003002
00000103
00001000
00010000
02000000
,
00100000
00000000
00000000
00000000
13000000
00000000
00010000
01000000
00001000
00000000
00020000
00000000
00000020
00000000
00030030
00000000
,
00001020
00002030
00003020
00000032
00002003
00000000
00023000
00230000
,
01000000
00000000
00000000
00000000
10300000
00000000
10010000
00000000
00000000
00000000
00110000
00000000
00100000
00000000
00001000
00010000
,
00002000
00003200
00000302
00000023
00002030
00023000
00230000
10300000
,
02000000
03020000
00031000
00000200
00000301
00000200
00001300
00010000
,
01000000
00200000
10000000
00000000
01300000
00010000
00001000
00000020
,
00000100
00000000
00000031
00001000
00000010
00010000
00002000
00000000
,
01003000
00000000
01020000
20030000
31000000
00010000
00001000
00000200
,
00000010
00000000
00000301
00000010
00001000
00020000
00002000
00033000
,
00201000
00320000
00230000
20300000
30020000
01030000
00010000
00021000
,
00000000
00031000
00000100
00000001
00000010
00001000
00020000
00000000
,
00130000
00000000
20100000
00000000
31000000
00010000
00001000
00000200
,
00000010
00000000
00000000
00000000
00000301
00000000
00001000
00000100
00010000
00000000
00002000
00000000
02000000
00000000
03003000
00000000
,
02010000
03020000
02030000
23000000
30020000
00000000
00032000
00003200
,
00000010
00000000
00000301
00001000
00000100
00010000
00001000
00000100
,
00000001
00000000
00000012
00000000
00000103
00001000
00010000
02000000
,
00100000
00000000
00000000
00000000
13000000
00000000
00010000
01000000
00001000
00000000
00020000
00000000
00000200
00000000
00030300
00000000
,
00001200
00002300
00003200
00000302
00002003
00000000
00023000
02030000
,
00000000
00000000
00100000
00000000
13000000
00000000
01000000
00100000
00000000
00010000
00100000
00000000
00001000
00010000
00001000
00100000
,
00020000
00000000
10000000
00030000
00020000
00230000
00320000
00032000
,
00000100
00000000
00000001
00003000
00002000
00003020
00002030
00023000
,
02030000
23000000
30020000
00230000
02300000
00010000
03002000
00023000
,
00100000
00000000
00001000
00030200
00001000
00001000
00010300
00000000
,
00002100
00000000
00000001
00003000
00002000
00003020
00002030
00023000
,
01000000
00000000
10000000
00030000
00020000
00230000
00320000
00032000
,
00003200
00000302
00002003
00003020
00000230
00001000
00020300
00032000
,
00000010
00000000
00010000
00000000
00003100
00001000
00010000
00000000
,
00000000
00000000
00000000
00000000
;
