
//----- song ID: kata -----//
#TITLE:カタルシスの月;
#ARTIST:日向美ビタースイーツ♪;
#TITLETRANSLIT:Catharsis no tsuki;
#ARTISTTRANSLIT:Hinatabi bitter sweets♪;
#BANNER:Catharsis no tsuki.png;
#BACKGROUND:Catharsis no tsuki-bg.png;
#CDTITLE:./CDTitles/RB colette -Autumn-.png;
#MUSIC:Catharsis no tsuki.ogg;
#SAMPLESTART:64.013;
#SAMPLELENGTH:15;
#BPMS:0=200;
#NOTES:
     dance-single:
     :
     Beginner:
     3:
     :
0000
0000
0000
0000
,
0000
0000
0000
0000
,
0000
0000
0000
0000
,
0000
0000
0000
0000
,
0000
0000
0000
0000
,
0000
0000
0000
0000
,
1000
0000
0000
0000
,
1000
0000
0000
0000
,
0001
0000
0000
0000
,
0001
0000
0000
0000
,
0010
0000
0000
0000
,
0010
0000
0000
0000
,
0100
0000
0000
0000
,
0100
0000
0000
0000
,
1000
0000
0000
0000
,
1000
0000
0000
0000
,
0001
0000
0000
0000
,
1001
0000
0000
0000
,
0002
0000
0000
0003
,
0000
0000
0000
0000
,
0200
0000
0000
0300
,
0000
0000
0000
0000
,
0020
0000
0000
0030
,
0000
0000
0000
0000
,
2000
0000
0000
3000
,
0000
0000
0000
0000
,
0010
0000
0000
0000
,
0010
0000
0000
0000
,
0100
0000
0000
0000
,
0100
0000
0000
0000
,
0001
0000
0000
0000
,
0001
0000
0000
0000
,
1000
0000
0000
0000
,
1001
0000
0000
0000
,
2000
0000
0000
3000
,
0000
0000
0000
0000
,
0010
0000
0000
0000
,
1000
0000
0000
0000
,
0002
0000
0000
0003
,
0000
0000
0000
0000
,
0010
0000
0000
0000
,
0001
0000
0000
0000
,
1000
0000
0000
0000
,
1000
0000
0000
0000
,
0001
0000
0000
0000
,
0001
0000
0000
0000
,
1000
0000
1000
0000
,
1000
0000
0000
0000
,
0001
0000
0001
0000
,
0001
0000
0000
0000
,
0020
0000
0000
0030
,
0000
0000
0000
0000
,
1001
0000
0000
0000
,
0000
0000
0000
0000
,
1000
0000
0000
0000
,
0001
0000
0001
0000
,
0001
0000
0000
0000
,
1000
0000
0000
0000
,
0010
0000
0000
0000
,
0010
0000
0000
0000
,
0200
0000
0000
0300
,
0000
0000
0000
0000
,
0001
0000
0000
0000
,
1000
0000
1000
0000
,
1000
0000
0000
0000
,
0001
0000
0000
0000
,
0100
0000
0000
0000
,
0100
0000
0000
0000
,
0020
0000
0000
0030
,
0000
0000
0000
0000
,
0100
0000
0000
0000
,
0100
0000
0000
0000
,
0001
0000
0000
0000
,
0001
0000
0000
0000
,
1000
0000
0000
0000
,
1000
0000
0000
0000
,
0002
0000
0000
0000
,
0000
0000
0000
0003
,
0000
0000
0000
0000
,
0001
0000
0000
0000
,
1000
0000
0000
0000
,
1000
0000
0000
0000
,
0001
0000
0000
0000
,
0001
0000
0000
0000
,
0010
0000
0000
0000
,
0010
0000
0000
0000
,
0100
0000
0000
0000
,
0100
0000
0000
0000
,
1000
0000
1000
0000
,
1000
0000
0000
0000
,
0002
0000
0000
0000
,
0000
0000
0000
0000
,
0003
0000
0000
0000
,
0000
0000
0000
0000
;
#NOTES:
     dance-single:
     :
     Easy:
     7:
     :
0000
0000
0000
0000
,
0000
0000
0000
0000
,
0000
0000
0000
0000
,
0000
0000
0000
0000
,
0000
0000
0000
0000
,
0000
0000
0000
0000
,
1000
0000
0100
2000
,
0000
0000
0000
3000
0001
0000
0200
0000
,
0000
0000
0000
0300
0010
0000
2000
0000
,
0000
3000
0001
0000
1000
0000
0000
0000
,
0100
1000
0001
0010
,
0000
0001
0100
0001
,
0000
1000
0100
1000
,
0000
0010
1000
0020
,
0000
0000
0000
0030
0100
0000
0002
0000
,
0000
0000
0000
0003
0010
0000
0200
0000
,
0000
0000
0000
0300
,
1001
0000
0001
0000
,
2000
0000
0100
0000
,
3200
0000
0010
0000
,
0320
0000
0001
0000
,
0032
0000
1000
0000
,
2003
0000
0010
0000
,
0001
0000
3100
0000
,
1000
0000
0001
0000
,
1001
0000
1000
0000
,
0001
0100
0010
0000
,
1000
0100
0010
0000
,
0001
0010
0100
0000
,
1000
0010
0100
0000
,
0001
0010
1000
0010
,
0001
0000
1000
0000
,
1001
0000
0110
0000
,
1001
0000
0001
0000
,
2000
0000
0000
3000
0001
0000
0000
0200
,
0000
0000
0000
0000
0000
0300
0000
0000
,
0010
0100
0001
1000
,
0001
1000
0100
0001
,
0200
0000
0000
0000
1300
0000
0000
0020
,
0000
0000
0000
0000
0000
0030
0000
0000
,
0100
0001
0010
0100
,
1000
0000
0110
0000
,
2000
0001
0001
3001
,
0002
1000
1000
1003
,
1000
0100
0010
0001
,
1000
0000
1001
1000
,
0001
0100
0010
2000
,
0000
0000
0000
0000
0001
3000
0001
0000
,
0100
0010
0001
0010
,
0100
0001
1000
0010
,
0200
0000
0000
0300
,
0020
0000
0000
0030
,
0110
0000
0000
0000
0000
0000
0000
1001
,
0000
0000
0001
0000
,
1000
0010
0001
0000
,
0001
0010
1000
0000
,
0001
0010
1000
0000
,
1000
0010
0001
0000
,
1000
0010
1000
0000
,
0001
0100
0001
0100
,
0020
0000
0000
0000
0000
0030
0000
0200
,
0000
0000
0000
0300
0000
0000
0000
0000
,
0001
1000
0010
0000
,
1000
0001
0010
0000
,
0100
0010
0100
0000
,
1000
0001
1000
0000
,
0002
0000
1003
0000
,
2000
0000
3001
0000
,
0200
0000
0000
0000
,
0010
0000
0310
0000
,
0100
0001
0100
0001
,
1000
0010
1000
0010
,
1000
0000
0001
0000
,
1001
0000
0000
0001
,
2000
0000
0000
3010
,
0110
0000
0000
0000
0002
0000
0000
0003
,
2000
0000
0001
0000
,
0001
0000
0001
3000
,
0001
0000
1000
0000
,
0001
0010
1000
0010
,
0100
0000
0010
0002
,
0000
0000
0000
0003
1000
0000
0020
0000
,
0000
0000
0000
0030
0001
0000
0020
0000
,
0000
0030
1000
0000
0001
0000
0000
0000
,
0100
0001
1000
0010
,
0000
1000
0010
1000
,
0000
0001
0100
0001
,
0000
1000
0001
2000
,
0000
0000
0000
3000
0010
0000
0200
0000
,
0000
0300
0000
0000
0001
0000
1000
0000
,
0002
0000
0000
0000
,
0000
0000
0000
0000
,
0003
0000
0000
0000
,
0000
0000
0000
0000
;
#NOTES:
     dance-single:
     :
     Medium:
     10:
     :
0000
0000
0000
0000
,
0000
0000
0000
0000
,
0000
0000
0000
0000
,
0000
0000
0000
0000
,
0000
0000
0000
0000
,
0000
0000
0000
0000
,
0001
1000
0010
0200
,
0010
0301
1000
0200
,
1000
0310
0001
0200
,
0301
1000
0002
0003
,
1000
0001
0010
0200
,
0010
1300
0001
0200
,
0001
0310
1000
0200
,
1300
0001
0010
0002
,
1000
0000
0203
2300
,
0000
0000
3200
0020
,
0000
0000
0330
0000
,
1001
0000
1000
0001
,
2000
0000
3000
0000
0100
0000
0010
0200
,
0000
0300
0001
0000
0100
0000
1000
0020
,
0000
0030
0100
0000
0010
0000
0001
0000
,
0010
0000
0100
0000
0010
0000
1000
0200
,
0000
0000
0001
0000
,
0010
0310
0002
1003
,
0010
0100
0110
0001
,
1001
0000
2000
0000
,
3100
0000
0110
0000
0001
0000
0010
0200
,
0000
0000
1300
0000
0200
0300
0020
0030
,
2000
3000
0020
0030
0200
0300
2000
0000
,
0000
3001
1000
0000
0010
0100
0000
1001
,
0000
1000
1010
0001
,
0101
0000
1000
0000
1100
0000
1000
0010
,
2000
3100
0002
0103
,
1000
0000
0000
0000
2000
0000
0010
3000
,
0002
0000
0010
0003
2000
0000
0001
0002
,
0000
3003
0000
0000
1001
0000
0001
0010
,
0100
0000
1000
0010
0000
0001
0000
0010
,
0000
1000
0100
1000
,
0002
0000
0100
0000
2003
0000
0001
0002
,
0000
3003
0000
0000
1001
0000
1000
0010
,
0100
0000
0001
0010
0000
1000
0000
0020
,
0000
0000
0031
0000
2000
0000
0010
3000
,
0002
0000
0010
0003
2000
0000
3001
0002
,
0000
0000
0010
0000
0013
0000
0001
0100
,
1000
0000
0100
0010
0000
1000
0000
0100
,
0000
0000
0010
0000
0001
0100
0000
0010
,
2000
0100
0001
0200
,
3000
0000
0010
0000
1000
0000
0310
0001
,
0010
0000
0100
1000
0000
0000
0001
0000
,
0100
0000
1000
0100
0000
0001
0000
0000
,
0021
0000
0000
0001
0000
0000
0130
0000
,
0200
1000
0000
0000
0010
0000
0310
0000
,
0110
0000
0000
0000
0000
0000
0000
1001
,
0000
0000
0000
0000
1000
0010
0000
0210
,
0000
0000
0001
0000
0310
0000
0100
2000
,
0000
0000
3100
0000
0020
0000
1030
0001
,
0000
0100
0010
0000
1000
0000
0001
0000
,
0022
0000
0033
0000
0220
0000
0330
1200
,
0000
1000
0310
0001
,
0010
0100
1000
0001
,
0200
0000
0010
0000
0301
0000
2000
0001
,
0000
0000
3001
0000
0100
0001
0000
0020
,
0000
0000
0100
0000
0031
0000
0010
2000
,
0000
0000
3010
0000
0200
0000
1300
0001
,
0000
0010
0001
0000
1000
0000
0100
0000
,
2000
0000
3001
0000
0002
0000
1003
0200
,
0000
0300
1000
0000
0010
0000
1000
0100
,
0010
0000
0001
0010
0000
0001
0100
0000
,
0001
0001
0000
1000
1000
0000
0010
0010
,
0200
0000
0000
0300
0020
0000
0000
0000
,
2030
0001
0001
3001
,
1000
0100
0010
0001
,
0020
0031
2000
3010
,
0200
0000
0010
0000
0301
0000
0001
0100
,
0002
0010
0013
0001
,
0020
0030
0002
0003
,
2000
0100
0001
3200
,
0010
1300
0001
0200
,
0001
0310
1000
0200
,
1300
0001
0010
0002
,
1000
0013
0001
0020
,
0100
0031
1000
0020
,
1000
0130
0001
0200
,
0310
1000
0002
0003
,
2000
0100
0001
3200
,
0010
1300
0001
0200
,
0001
0310
1000
0200
,
1300
0001
0010
0002
,
0100
0000
0023
0230
,
0000
0300
1000
0000
0002
0000
0203
0000
,
2000
0000
0000
0000
,
0000
0000
0000
0000
,
0300
0000
0000
0000
,
0000
0000
0000
0000
,
3000
0000
0000
0000
,
0000
0000
0000
0000
;
#NOTES:
     dance-single:
     :
     Hard:
     13:
     :
0000
0000
0000
0000
,
0000
0000
0000
0000
,
0000
0000
0000
0000
,
0000
0000
0000
0000
,
0000
0000
0000
0000
,
0000
0000
0000
0000
,
0001
0000
1000
0000
0010
1000
0001
0000
,
1000
0000
0001
0000
0010
0001
1000
0000
,
0010
0100
0001
0100
,
0001
0000
0100
0000
0002
0000
0003
0000
1000
0000
0100
0000
1000
0000
0100
1000
,
0002
0023
0230
2300
,
0001
3020
2030
3200
,
0010
0001
0320
0032
,
1000
0203
0320
2000
,
0000
0030
3002
0200
,
0000
0300
2003
0200
,
0000
0000
0000
3300
,
0011
0000
0000
0000
0002
0000
0000
0003
,
1000
0010
1000
0010
0200
0000
0302
0000
,
1003
0100
1000
0200
0000
0000
2300
0000
,
3001
0100
0001
0100
0020
0000
2030
0000
,
3001
0010
0001
0010
0200
0000
1300
0001
,
0200
0000
0010
0000
,
0010
0000
0310
0000
2000
0000
3001
1000
,
0001
0010
1001
0000
,
0110
0000
0002
0000
,
0103
0000
0110
0000
0010
0001
0010
2000
,
3000
0101
0002
0023
,
2030
3002
0203
2300
,
0001
0000
3010
0100
0001
1000
0000
0011
,
0000
0001
0010
0000
0110
0000
1100
0000
,
1001
0000
0101
0000
0011
0000
1000
0001
,
0020
0100
0032
1000
,
0200
0303
0220
0330
,
1000
0100
1000
0100
1100
0000
0001
0100
,
0001
0100
0000
0000
0010
0100
1000
0000
,
0100
0001
0100
0001
0101
0000
1000
0100
,
1000
0100
0000
0000
0220
0000
0000
0330
,
0001
0010
0001
0010
0011
0000
1000
0010
,
1000
0010
0000
0000
0100
0010
0001
0000
,
0010
1000
0010
1000
1010
0000
0001
0010
,
0001
1000
0000
0000
2000
0000
3100
0000
,
0200
0000
0310
0000
0020
0000
0031
0002
,
0000
0000
1000
0000
1000
0000
1003
0010
,
0100
0000
0100
0002
0000
0023
0000
0230
,
0000
1300
0001
0000
1000
1100
0000
1000
,
0002
0000
0010
0000
1000
0000
2000
0003
,
0000
0000
0100
0000
0100
0000
3100
1000
,
0001
0000
0010
0100
0000
0000
1000
0000
,
0001
0000
1000
0001
0000
1000
0000
0000
,
0201
0000
0000
1000
0000
0000
0001
0000
,
0000
1000
0000
0000
0310
0000
0010
0000
,
2020
0000
0000
0000
0000
3030
0000
0011
,
0000
0000
0000
0000
0010
0100
0000
1001
,
0000
0001
1000
0000
0010
0100
1000
0000
,
0100
0001
1000
0000
0001
0010
0100
1000
,
0000
1000
0001
0000
0100
0010
0001
0000
,
0010
0100
0001
0000
1000
0100
0010
0001
,
0000
0001
1000
0000
0010
1000
0100
0000
,
0010
0001
0100
0000
1000
0100
0001
0000
,
0200
0000
0000
0000
0310
0000
1000
0020
,
0000
0000
0030
0000
1000
0001
0000
0110
,
0000
1000
0001
0000
0010
0100
0001
0000
,
0100
0010
0001
0000
1000
0010
0100
0001
,
0000
0001
1000
0000
0100
0010
1000
0000
,
0010
0100
1000
0000
0001
0100
0010
1000
,
0000
1000
0001
0000
0010
0001
0100
0000
,
0010
1000
0100
0000
0001
0100
1000
0000
,
1000
1000
0000
0010
0010
0000
0100
0100
,
0000
0001
0001
0000
0001
0010
0100
1000
,
0001
0000
0011
0000
1000
0100
1000
0000
,
0001
0000
0101
0000
1000
0010
1000
0000
,
0002
0100
0023
1000
,
0230
0000
0001
0000
1300
0000
0001
0100
,
1000
0100
0001
0010
0100
1000
0001
1000
,
0020
0030
0200
0300
,
0001
0010
0001
0100
0001
1000
0002
0000
,
0010
0000
0013
0100
0010
1000
0020
0000
,
0001
0000
0031
0010
0001
0100
0002
0000
,
1000
0000
1003
0001
1000
0010
2000
0000
,
0100
0000
3010
0000
1000
0010
0100
0000
,
0001
0000
0010
0000
0001
0010
0100
0000
,
1000
0000
0001
0000
1000
0001
0010
0000
,
0001
0000
0100
0000
0002
0000
0003
0000
1000
0000
0100
0000
1000
0000
0100
1000
,
0001
0010
0001
0100
0001
1000
0002
0000
,
0010
0000
0013
0100
0010
1000
0020
0000
,
0001
0000
0031
0010
0001
0100
0002
0000
,
1000
0000
1003
0100
1000
0010
2000
0000
,
0100
0000
3010
0000
1000
0010
0100
0000
,
0001
0010
0002
2003
,
0200
0000
0000
0000
,
0000
0000
0000
0000
,
3000
0000
0000
0000
,
0000
0000
0000
0000
,
0300
0000
0000
0000
,
0000
0000
0000
0000
;
#NOTES:
     dance-double:
     :
     Easy:
     6:
     :
00000000
00000000
00000000
00000000
,
00000000
00000000
00000000
00000000
,
00000000
00000000
00000000
00000000
,
00000000
00000000
00000000
00000000
,
00000000
00000000
00000000
00000000
,
00000000
00000000
00000000
00000000
,
10000000
00000000
01000000
00200000
,
00000000
00300000
00001000
00020000
,
00000000
00030000
00000100
00002000
,
00000000
00003000
00000010
00000000
00000001
00000000
00000000
00000000
,
00000010
00000100
00000010
00010000
,
00000000
00001000
00010000
00100000
,
00000000
10000000
01000000
10000000
,
00000000
00010000
00100000
00002000
,
00000000
00003000
00010000
00000020
,
00000000
00000030
00000100
00000002
,
00000000
00000000
00000000
00000003
,
00001001
00000000
00001000
00000000
,
00000020
00000000
00000000
00000000
,
00020030
00000000
00000000
00000000
,
00032000
00000000
00000000
00000000
,
00203000
00000000
00000000
00000000
,
00320000
00000000
00000000
00000000
,
01000000
00000000
01030000
00000000
,
00100000
00000000
10000000
00000000
,
11000000
00000000
01000000
00000000
,
00100000
00001000
00010000
00000000
,
00000010
00000100
00000001
00000000
,
00000010
00001000
00010000
00000000
,
00100000
10000000
01000000
00000000
,
10000000
00100000
10000000
00001000
,
00010000
00000000
00001000
00000000
,
00011000
00000000
00001010
00000000
,
00000110
00000000
00000001
00000000
,
00000020
00000000
00000000
00000030
00000100
00000000
00000000
00002000
,
00000000
00000000
00000000
00000000
00000000
00003000
00000000
00000000
,
00000100
00010000
00001000
00100000
,
00010000
10000000
01000000
00010000
,
00002000
00000000
00000000
00000000
00003000
00000000
00000000
00020000
,
00000000
00000000
00000000
00000000
00000000
00030000
00000000
00000000
,
00001000
00000010
00000001
00000100
,
00000001
00000000
00000101
00000000
,
00000002
00000100
00000100
00000103
,
00000200
00000010
00000010
00000310
,
00000010
00001000
00000100
00010000
,
00001000
00000000
00011000
00010000
,
00001000
00100000
00010000
02000000
,
00000000
00000000
00000000
00000000
00000000
03000000
00010000
00000000
,
10000000
00100000
00010000
00100000
,
00010000
00001000
00000010
00000100
,
00000020
00000000
00000000
00000030
,
00000002
00000000
00000000
00000003
,
00000101
00000000
00000000
00000000
00000000
00000000
00000000
00001001
,
00000000
00000000
00001000
00000000
,
00000010
00000100
00001000
00000000
,
00010000
00100000
01000000
00000000
,
00010000
10000000
01000000
00000000
,
00100000
01000000
00010000
00000000
,
00001000
00000010
00000100
00000000
,
00000010
00000001
00000010
00000001
,
00002000
00000000
00000000
00000000
00000000
00003000
00000000
00000002
,
00000000
00000000
00000000
00000003
00000000
00000000
00000000
00000000
,
00000100
00000010
00010000
00000000
,
00001000
01000000
00100000
00000000
,
10000000
00010000
00100000
00000000
,
00001000
00010000
00000100
00000000
,
00000020
00000000
00000130
00000000
,
00000200
00000000
00001300
00000000
,
00000002
00000000
00000000
00000000
,
00001000
00000000
00001003
00000000
,
00000001
00000100
00000010
00001000
,
00000100
00010000
00001000
01000000
,
00010000
00000000
00100000
00000000
,
10010000
00000000
00000000
00010000
,
02000000
00000000
00000000
03100000
,
20000000
00000000
00000000
30000000
02000000
00000000
00000000
03000000
,
00200000
00000000
00001000
00000000
,
00010000
00000000
00001000
00300000
,
00001000
00000000
00010000
00000000
,
00000100
00000010
00000001
00000100
,
00000001
00000000
00000100
00002000
,
00000000
00000000
00000000
00003000
00010000
00000000
00200000
00000000
,
00000000
00000000
00000000
00300000
10000000
00000000
20000000
00000000
,
00000000
30000000
00010000
00000000
00100000
00000000
00000000
00000000
,
00001000
00010000
00000100
00001000
,
00000000
00000001
00000010
00000001
,
00000000
00000100
00000001
00000100
,
00000000
00000010
00010000
00002000
,
00000000
00000000
00000000
00003000
00100000
00000000
00020000
00000000
,
00000000
00030000
00000000
00000000
00100000
00000000
01000000
00000000
,
20000000
00000000
00000000
00000000
,
00000000
00000000
00000000
00000000
,
30000000
00000000
00000000
00000000
,
00000000
00000000
00000000
00000000
;
#NOTES:
     dance-double:
     :
     Medium:
     10:
     :
00000000
00000000
00000000
00000000
,
00000000
00000000
00000000
00000000
,
00000000
00000000
00000000
00000000
,
00000000
00000000
00000000
00000000
,
00000000
00000000
00000000
00000000
,
00000000
00000000
00000000
00000000
,
10000000
00100000
01000000
00020000
,
00100000
01030000
00001000
00020000
,
00001000
00030010
00010000
00000200
,
00001300
00000001
00002000
00003000
,
00000001
00000010
00000100
00002000
,
00000010
00003100
00010000
00002000
,
00010000
00103000
00001000
02000000
,
03010000
10000000
00010000
02000000
,
00100000
00000000
00000000
00000000
00002000
03000000
00023000
00000000
,
00000000
00000000
00030200
00000020
,
00000000
00000000
00000330
00000000
,
00001001
00000000
00000002
00000013
,
00000020
00000000
00000100
00000000
00000130
00000000
00001000
00000200
,
00000000
00000300
00010000
00000000
00001000
00000000
01000000
00020000
,
00000000
00030000
01000000
00000000
10000000
00000000
01000000
00000000
,
00100000
00000000
01000000
00000000
00100000
00000000
00010000
00002000
,
00000000
00000000
00010000
00000000
,
00010000
00013000
00020000
00030100
,
00000010
00000100
00000110
00000001
,
00001001
00000000
00000002
00000000
,
00000103
00000000
00000010
00000000
00001000
00000000
00000100
00020000
,
00000000
00000000
00031000
00000000
00020000
00030000
00200000
00300000
,
02000000
03000000
00020000
00030000
02000000
03000000
00200000
00000000
,
00000000
00300000
00000000
00000000
10000000
01000000
00000000
11000000
,
00000000
01000000
00100000
00001000
,
00010000
00000000
00000100
00000000
00000010
00000000
00000001
00000010
,
00000002
00000103
00000020
00001030
,
00000200
00000300
00020000
00001000
,
00032000
00000000
00103000
00000000
00020000
00000000
10000000
20000000
,
00000000
30030000
00000000
00000000
10010000
00000000
10000000
01000000
,
10000000
00000000
01000000
00100000
00000000
00001000
00000000
00010000
,
00000000
00001000
00000010
00000001
,
00000200
00000000
00000010
00000000
00000302
00000000
00000100
00000200
,
00000000
00000303
00000000
00000000
00001001
00000000
00000001
00000100
,
00000001
00000000
00000100
00000010
00000000
00010000
00000000
00002000
,
00000000
00013000
00020000
00031000
,
00200000
00000000
00010000
00300000
00020000
00000000
01030000
02000000
,
00000000
00000000
00100000
00000000
00100000
00000000
03100000
10000000
,
00010000
00000000
01000000
00100000
00000000
10000000
00000000
01000000
,
00000000
00000000
00100000
00000000
00001000
00010000
00000000
00001000
,
00020000
00001000
00000100
00032000
,
00000000
01000000
00000000
00013000
,
00001000
00000000
00000010
00000100
00000000
00000000
00001000
00000000
,
00000001
00000000
00000100
00000010
00000000
00000010
00000000
00000000
,
00000200
00000000
00000000
00000300
,
00000002
00000000
00000000
00000003
,
00000101
00000000
00000000
00000000
00000000
00000000
00000000
00000110
,
00000000
00000000
00000000
00000000
00000010
00000100
00000000
00002000
,
00000000
00000000
00010000
00000000
00013000
00000000
00001000
00200000
,
00000000
00000000
00300000
00000000
00020000
00000000
00000000
01030000
,
00000000
00010000
00000000
00000000
10000000
00000000
00010000
00000000
,
02000000
00000000
00000000
03000000
00200000
00000000
00000000
20300000
,
00000000
00000000
30000000
01000000
,
00100000
00001000
00010000
00000100
,
00000020
00000000
00000000
00000030
00000001
00000000
00000010
00000200
,
00000000
00000000
00000300
00000000
00001000
00000100
00000000
00020000
,
00000000
00000000
00001000
00000000
00031000
00000000
00001000
02000000
,
00000000
00000000
03010000
00000000
02000000
00000000
00000000
03100000
,
00000000
20000000
00000000
30000000
00100000
00000000
01000000
00000000
,
00002000
00000000
00013000
00000000
00020000
00000000
00031000
00002000
,
00000000
00003000
00000010
00000000
00000001
00000000
00000010
00000100
,
00000010
00000000
00000001
00000010
00000000
00000100
00001000
00000000
,
00000100
00000100
00000000
00010000
00010000
00000000
00001000
00001000
,
00200000
00000000
00000000
00300000
00020000
00000000
00000000
00000000
,
20030000
00010000
00010000
30010000
,
00100000
01000000
00100000
00001000
,
00020000
00031000
00002000
00003010
,
00000020
00000000
00000000
00000000
00000030
00000000
00000001
00000010
,
00000002
00000000
00000000
00000003
00000000
00000000
00000100
00000000
,
00000020
00000030
00002000
00003000
,
00000001
00000010
00000100
00002000
,
00000010
00003100
00010000
00002000
,
00010000
00103000
00001000
02000000
,
03010000
10000000
01000000
00200000
,
00000000
00301000
00010000
00002000
,
00010000
00003100
00000010
00000200
,
00000001
00000310
00000100
00000002
,
00001003
00000001
00000200
00000300
,
00000001
00000010
00000100
00002000
,
00000010
00003100
00010000
00002000
,
00010000
00103000
00001000
02000000
,
03010000
10000000
01000000
00020000
,
00000000
00000000
00032000
00023000
,
00000000
00030000
00000100
00000000
00000020
00000000
00000032
00000000
,
00000200
00000000
00000000
00000000
,
00000000
00000000
00000000
00000000
,
00000003
00000000
00000000
00000000
,
00000000
00000000
00000000
00000000
,
00000300
00000000
00000000
00000000
,
00000000
00000000
00000000
00000000
;
#NOTES:
     dance-double:
     :
     Hard:
     13:
     :
00000000
00000000
00000000
00000000
,
00000000
00000000
00000000
00000000
,
00000000
00000000
00000000
00000000
,
00000000
00000000
00000000
00000000
,
00000000
00000000
00000000
00000000
,
00000000
00000000
00000000
00000000
,
00000001
00000000
00001000
00000000
00000010
00010000
00001000
00000000
,
00010000
00000000
00001000
00000000
01000000
00010000
10000000
00000000
,
01000000
00100000
00010000
01000000
,
00010000
01000000
00002000
00003000
00010000
00001000
00010000
00001000
,
00020000
00032000
00203000
00320000
,
01000000
00230000
20300000
30200000
,
00010000
00001000
00302000
00023000
,
00001000
00030200
00000320
00000002
,
00000000
00000030
00002003
00000200
,
00000000
00000300
00023000
00200000
,
00000000
00000000
00000000
00330000
,
01100000
00000000
00000000
00000000
20000000
00000000
00000000
30000000
,
00100000
10000000
00100000
10000000
02000000
00000000
03020000
00000000
,
00031000
00010000
00001000
00020000
00000000
00000000
00030200
00000000
,
00000310
00000001
00000010
00000001
00000020
00000000
00002030
00000000
,
00013000
00001000
00010000
00001000
00020000
00000000
00130000
10000000
,
02000000
00000000
00000000
03000000
00020000
00000000
00000000
00030000
,
00002000
00003000
00000200
00000300
00002000
00003000
00020000
00000000
,
00000000
00030000
00000000
00000000
00200000
00000000
00300000
00000000
,
20000000
30000000
00020000
00000000
,
00130000
00000000
00101000
00000000
00001000
00010000
00000100
00000000
,
00010000
00000000
00010100
00000000
00000100
00001000
00000001
00000000
,
00000020
00000030
00000200
00000300
00002000
00003000
00000200
00000000
,
00000000
00000300
00010000
00000000
00001000
00010000
00000000
00001000
,
00000000
00011000
00101000
01001000
,
00011000
00000000
00010010
00000000
00010100
00000000
00010000
00001000
,
00200000
00010000
00320000
10000000
,
20000000
30030000
20020000
30030000
,
10000000
01000000
00100000
00010000
00001000
00000000
00010000
00001000
,
00000100
00000010
00000000
00000000
00000100
00000010
00000001
00000000
,
00000001
00000100
00000010
00001000
00010000
00000000
00001000
00010000
,
01000000
00100000
00000000
00000000
02200000
00000000
00000000
03300000
,
10000000
01000000
00100000
00010000
00001000
00000000
00010000
00001000
,
00000100
00000010
00000000
00000000
00000100
00000010
00000001
00000000
,
00000001
00000100
00000010
00001000
00010000
00000000
00001000
00010000
,
01000000
00100000
00000000
00000000
20000000
00000000
31000000
00000000
,
02000000
00000000
03100000
00000000
00200000
00000000
00310000
00020000
,
00000000
00000000
00100000
00000000
00100000
00000000
00130000
00001000
,
00010000
00000000
00000100
00020000
00000000
00030200
00000000
00000320
,
00000000
00000030
00000100
00000000
00010000
00001000
00000000
00010000
,
00002000
00010000
00100000
00023000
,
00000000
00000000
00000100
00000000
00000100
00000000
00031000
00010000
,
00001000
00000000
00100000
00010000
00000000
00000000
10000000
00000000
,
00010000
00000000
00100000
00001000
00000000
00010000
00000000
00000000
,
00012000
00000000
00000000
00100000
00000000
00000000
00010000
00000000
,
00000000
01000000
00000000
00000000
00103000
00000000
00001000
00000000
,
00210000
00000000
00000000
00000000
00000000
00300000
00000000
01010000
,
00000000
00000000
00000000
00000000
00100000
01000000
00000000
10010000
,
00000000
00000000
10000000
00000000
00010000
00100000
01000000
00000000
,
00100000
00010000
00100000
00000000
00001000
00010000
00000100
00001000
,
00000000
00000001
00001000
00000000
00000010
00001000
00000001
00000000
,
00000100
00001000
00010000
00000000
00001000
00010000
00001000
00010000
,
00000000
00010000
00100000
00000000
01000000
00010000
00100000
00000000
,
00001000
00100000
00010000
00000000
01000000
00001000
00010000
00000000
,
00002000
00000000
00000000
00000000
00103000
00000000
00010000
02000000
,
00000000
00000000
03000000
00000000
00010000
10000000
00000000
01100000
,
00000000
00000000
10000000
00000000
00010000
00100000
01000000
00000000
,
00100000
00010000
00001000
00000000
00000100
00001000
00000010
00001000
,
00000000
00001000
00010000
00000000
01000000
00001000
00010000
00000000
,
00001000
00010000
00001000
00000000
00000010
00000100
00000010
00000001
,
00000000
00000100
00000010
00000000
00001000
00000100
00010000
00000000
,
00001000
00010000
00001000
00000000
00100000
00010000
01000000
00000000
,
00100000
00100000
00000000
01000000
01000000
00000000
00001000
00001000
,
00000000
00010000
00010000
00000000
00010000
00001000
00000100
00000010
,
00001000
00000000
00001010
00000000
00001000
00000010
00001000
00000000
,
00000100
00000000
00010100
00000000
00010000
00000100
00010000
00000000
,
00020000
00100000
00230000
01000000
,
02300000
00000000
00010000
00000000
03100000
00000000
00100000
10000000
,
01000000
10000000
01000000
10000000
00100000
01000000
00001000
00010000
,
00002000
00000000
00010000
00003000
00020000
00000000
00000100
00030000
,
00000100
00001000
00000100
00010000
00002000
00003000
00200000
00000000
,
00010000
00300000
00010000
01000000
20000000
30000000
02000000
00000000
,
00100000
03000000
00100000
10000000
02000000
03000000
20000000
00000000
,
00100000
30000000
00100000
00010000
00002000
00003000
00020000
00000000
,
00000100
00030000
00000100
00000000
00000010
00000001
00002000
00000000
,
00000100
00003000
00000100
00000000
00010000
00001000
00200000
00300000
,
02000000
00000000
10000000
03000000
01000000
00100000
00010000
00000000
,
00001000
00000100
00002000
00003000
00000001
00000100
00000001
00001000
,
00000010
00001000
00000010
00010000
00002000
00003000
02000000
00000000
,
00010000
03000000
00010000
00100000
20000000
30000000
00200000
00000000
,
01000000
00300000
01000000
10000000
00200000
00300000
20000000
00000000
,
01000000
30000000
01000000
00010000
00002000
00003000
00020000
00000000
,
00000010
00030000
00000010
00000000
00000100
00000001
00000200
00000000
,
00000010
00000300
00000010
00000000
00002000
00000000
00203000
00000000
,
02000000
00000000
00000000
00000000
,
00000000
00000000
00000000
00000000
,
00300000
00000000
00000000
00000000
,
00000000
00000000
00000000
00000000
,
03000000
00000000
00000000
00000000
,
00000000
00000000
00000000
00000000
;
