#VERSION:0.83;
#TITLE:カジノファイヤーことみちゃん;
#ARTIST:covered by 一条莉々華(ReGLOSS);
#TITLETRANSLIT:Casino fire Kotomi-chan;
#ARTISTTRANSLIT:covered by Ichijou Ririka (ReGLOSS);
#BANNER:Casino fire Kotomi-chan (cover).png;
#BACKGROUND:Casino fire Kotomi-chan (cover)-bg.png;
#CDTITLE:./CDTitles/DDR WORLD.png;
#MUSIC:Casino fire Kotomi-chan (cover).ogg;
#SAMPLESTART:75.042;
#SAMPLELENGTH:15;
#BPMS:0=230;
#BGSTAGE:17;
#NOTEDATA:;
#STEPSTYPE:dance-single;
#DIFFICULTY:Beginner;
#METER:3;
#NOTES:
0000
0000
0000
0000
,
0000
0000
0000
0000
,
0000
0000
0000
0000
,
0000
0000
0000
0000
,
0000
0000
0000
0000
,
0000
0000
0000
0000
,
0000
0000
0000
0000
,
0000
0000
0000
0000
,
0000
0000
0000
0000
,
0000
0000
0000
0000
,
1000
0000
0000
0000
,
0000
0000
0000
0000
,
0001
0000
0000
0000
,
0000
0000
0000
0000
,
0010
0000
0000
0000
,
0100
0000
0000
0000
,
0010
0000
0000
0000
,
0020
0000
0030
0000
,
0001
0000
0000
0000
,
0001
0000
0000
0000
,
1000
0000
0000
0000
,
0100
0000
0100
0000
,
0010
0000
0000
0000
,
0100
0000
0000
0000
,
1000
0000
0000
0000
,
0100
0000
0100
0000
,
0000
0000
0000
0000
,
0000
0000
0000
0000
,
0000
0000
0000
0000
,
0000
0000
0000
0000
,
0000
0010
0000
0000
,
0000
0000
0000
0000
,
0000
0000
1001
0000
,
0000
0000
0000
0000
,
0001
0000
0000
0000
,
1000
0000
0000
0000
,
0010
0000
0000
0000
,
0100
0000
0000
0000
,
0001
0000
0000
0000
,
1000
0000
0000
0000
,
0010
0000
0100
0000
,
0002
0000
0003
0000
,
1000
0000
0000
0000
,
0001
0000
0000
0000
,
1000
0000
0000
0000
,
0001
0000
0000
0000
,
0010
0000
0000
0000
,
0100
0000
0000
0000
,
1000
0000
0000
0000
,
0000
0000
1001
0000
,
0000
0000
0000
0000
,
0000
0000
0000
0000
,
0000
0000
0000
0000
,
0000
0000
0000
0000
,
0001
0000
0000
0000
,
0000
0000
0000
0000
,
0100
0000
0000
0000
,
0000
0000
0000
0000
,
0010
0000
0000
0000
,
0000
0000
0000
0000
,
0100
0000
0000
0000
,
0000
0000
0000
0000
,
0001
0000
0000
0000
,
0000
0000
0000
0000
,
1000
0000
0000
0000
,
0000
0000
0000
0000
,
0100
0000
0000
0000
,
0000
0000
0000
0000
,
0010
0000
0000
0000
,
0000
0000
0000
0000
,
0001
0000
0000
0000
,
0010
0000
0000
0000
,
0001
0000
0000
0000
,
1000
0000
0000
0000
,
1000
0000
0000
0000
,
0001
0000
0000
0000
,
0010
0000
0000
0000
,
0100
0000
0000
0000
,
0100
0000
0000
0000
,
0010
0000
0000
0000
,
0010
0000
0000
0000
,
0000
0000
0000
0000
,
0100
0000
0000
0000
,
0000
0000
0000
0000
,
1000
0000
0000
0000
,
0001
0000
0000
0000
,
1001
0000
0000
0000
,
1000
0000
0000
0000
,
0001
0000
0000
0000
,
2000
0000
3000
0000
,
0001
0000
0000
0000
,
1000
0000
0000
0000
,
0001
0000
0000
0000
,
0100
0000
0100
0000
,
0100
0000
0000
0000
,
0010
0000
0000
0000
,
1000
0000
0000
0000
,
0100
0000
0100
0000
,
0010
0000
0000
0000
,
0000
0000
0000
0000
,
0000
0000
0000
0000
,
0000
0000
0000
0000
,
0010
0000
0000
0000
,
0000
0000
0000
0000
,
0000
0000
0000
0000
,
0000
0000
0000
0000
,
0000
0000
1001
0000
;
#NOTEDATA:;
#STEPSTYPE:dance-single;
#DIFFICULTY:Easy;
#METER:7;
#NOTES:
0000
0000
0000
0000
,
0000
0000
0000
0000
,
0000
0000
0000
0000
,
0000
0000
0000
0000
,
0000
0000
0000
0000
,
0000
0000
0000
0000
,
0000
0000
0000
0000
,
0000
0000
0000
0000
,
0000
0000
0000
0000
,
0000
0000
0000
0000
,
1000
0000
1000
0000
,
1000
0000
1000
0000
,
0001
0000
0001
0000
,
0001
0000
0001
0000
,
0010
0000
0100
0000
,
0010
0000
0100
0000
,
0010
0000
0010
0000
,
0100
0100
0100
0000
,
2000
0000
3000
0000
,
0002
0000
0003
0000
,
1000
0000
0001
0000
,
0100
0010
0100
0010
,
2000
0000
3000
0000
,
0002
0000
0003
0000
,
0001
0000
1000
0000
,
0100
0000
0010
0000
0100
0000
0010
0001
,
0000
0000
0000
0000
0000
0000
0000
1000
,
0000
0000
0000
0000
0000
0000
0000
0001
,
0000
0000
0000
0001
0000
0000
0000
1000
,
0000
0000
0000
1000
0000
0000
0000
0000
,
0000
0001
0010
0100
,
1000
0100
0010
0001
,
0000
0000
2002
0000
,
0000
0000
3003
0000
,
0001
0000
0001
0000
,
1000
0000
1000
0000
,
0010
0000
0010
0000
,
0100
0010
0100
0000
,
0002
0000
0003
0000
,
2000
0000
3000
0000
,
0010
0000
0100
0000
,
0001
0001
0001
0000
,
1000
0000
1000
0000
,
0001
0000
0001
0000
,
1000
0010
1000
0000
,
0001
0100
0001
0000
,
0020
0000
0030
0000
,
0200
0000
0300
0000
,
1000
0000
1000
0000
,
0001
0000
1001
0000
,
0000
0000
0000
0000
,
0000
0000
0000
0000
,
0000
0000
0000
0000
,
0000
0000
0000
0000
,
0002
0000
0000
0000
,
0000
0000
0000
0003
,
0200
0000
0000
0000
,
0000
0000
0000
0300
,
0020
0000
0000
0000
,
0000
0000
0000
0030
,
0200
0000
0000
0000
,
0000
0000
0000
0300
,
0002
0000
0000
0000
,
0000
0000
0000
0003
,
2000
0000
0000
0000
,
0000
0000
0000
3000
,
0200
0000
0000
0000
,
0000
0000
0000
0300
,
0020
0000
0000
0000
,
0000
0000
0000
0030
,
0001
0000
0000
0000
,
1000
0001
1000
0001
,
1000
0000
0001
0000
,
1000
0000
0001
0000
,
1000
0001
0100
0010
,
1000
0001
1000
0000
,
0010
0000
0100
0000
,
0010
0000
0100
0000
,
0010
0100
0001
1000
,
0100
0010
0001
0000
,
0020
0000
0000
0000
,
0030
0000
0000
0000
,
0200
0000
0000
0000
,
0300
0000
0000
0000
,
2000
0000
3000
0000
,
0002
0000
0003
0000
,
1001
0000
0000
0000
,
0110
0000
0000
0000
,
1001
0000
0000
0000
,
1000
1000
1000
1000
,
0002
0000
0003
0000
,
2000
0000
3000
0000
,
0002
0003
2000
3000
,
0100
0010
0100
0010
,
0200
0000
0300
0000
,
0020
0000
0030
0000
,
0002
0003
2000
3000
,
0100
0010
0100
0010
,
0002
0000
0000
0000
,
0000
0000
0000
0000
,
0000
0000
0000
0000
,
0000
0000
0003
0000
,
2000
0000
0000
0000
,
0000
0000
0000
0000
,
0000
0000
0000
0000
,
0000
0000
0000
0000
,
3000
0000
1001
0000
;
#NOTEDATA:;
#STEPSTYPE:dance-single;
#DIFFICULTY:Medium;
#METER:11;
#BPMS:0=115,36=230,164=115,208=230,312=115;
#NOTES:
0000
0000
0000
0000
,
0000
0000
0000
0000
,
0000
0000
0000
0000
,
0000
0000
0000
0000
,
0000
0000
0000
0000
,
1000
0000
0001
0000
,
1000
0000
0001
0000
0010
0100
0010
0000
,
0001
0000
1000
0000
,
0010
0000
0010
0000
1000
1000
1000
1000
,
0200
0000
0000
0320
0000
0000
0030
0000
,
0002
0000
0000
2003
0000
0000
3000
0000
,
0001
0000
0000
0010
0000
0100
0000
0010
,
0100
1000
0010
0000
0100
0001
0010
0000
,
0002
0000
0000
2003
0000
0000
3000
0000
,
0200
0000
0000
0320
0000
0000
0030
0000
,
0001
0000
0000
0010
0000
0100
0010
0000
,
0100
1000
0010
0000
0100
0001
0010
0001
,
0000
1000
0100
0001
0000
0100
0000
0110
,
0000
0010
0100
1000
0000
0001
0000
1001
,
0000
1000
0100
0010
0000
0010
0100
0001
,
0000
0001
0100
1000
0000
0100
0010
0000
,
0000
2000
3020
0032
,
0203
2300
3200
0302
,
0003
0000
2002
0000
,
0000
0000
0000
3003
,
1000
1000
0001
0001
,
1000
0010
0100
0000
0001
0000
0000
0000
,
0010
0010
0100
0100
,
0010
0100
1000
0100
0010
0000
0010
0000
,
0002
0000
0000
0023
0000
0000
0130
0000
,
2000
0000
0000
3200
0000
0000
0310
0000
,
0001
1000
0000
0000
0001
0100
0000
0000
,
0010
0100
0010
0100
0010
0100
0010
0000
,
1000
1000
0001
0001
,
1000
0100
1000
0000
1000
0010
1000
0000
,
0010
0010
0100
0100
,
0001
0001
2000
3000
,
0020
0000
0000
1000
0000
0000
0130
0000
,
0002
0003
0020
0030
,
0100
0010
0000
1000
0000
0010
0001
0000
,
1000
0000
1001
0000
,
0000
0000
0000
0000
,
0000
0000
0000
0000
,
1000
0000
0000
0100
0000
0000
0010
0000
0000
0100
0000
0000
1000
0000
0000
0000
,
0001
0000
0000
0010
0000
0000
0100
0000
0000
0010
0000
0000
0001
0000
0000
0000
,
1000
0000
0000
0010
0000
0000
0100
0000
0000
0010
0000
0000
1000
0000
0000
0000
,
0001
0000
0000
0100
0000
0000
0010
0000
0000
0100
0000
0000
0001
0000
0000
0000
,
1000
0000
0000
0010
0000
0000
0001
0000
0000
0010
0000
0000
1000
0000
0000
0000
,
0001
0000
0000
0100
0000
0000
1000
0000
0000
0100
0000
0000
0001
0000
0000
0000
,
1000
0000
0000
0100
0000
0000
0001
0000
0000
0100
0000
0000
1000
0000
0000
0000
,
0001
0000
0000
0010
0000
0000
1000
0000
0000
0010
0000
0000
0001
0000
0000
0000
,
0110
0000
0000
0000
0001
0001
1000
1000
,
0001
0100
0001
0100
,
0010
1000
0010
1000
,
0100
0010
0100
0010
,
0001
0000
1000
0000
0000
0001
0000
0000
1001
0000
0000
0000
,
1000
0100
1000
0100
,
0010
0001
0010
0001
,
0100
0010
0100
0010
,
1000
0000
0001
0000
0000
1000
0000
0000
1001
0000
0000
0000
,
0110
0000
0000
0000
2000
0000
0000
3001
,
0000
0000
0000
0000
,
0011
0000
0000
0000
0002
0000
0000
0013
,
0000
0000
0000
0000
,
0020
0000
0000
0000
,
0230
0000
0000
0000
,
0310
0000
0000
0001
0000
0000
1000
0000
,
0010
0000
0000
0100
0000
0000
0001
0000
,
2000
0000
0000
0000
,
0001
0001
0001
3001
,
0002
0000
0000
0013
0000
0001
0010
0000
,
0200
0000
0000
0310
0000
0100
0010
0000
,
2000
0000
0000
3010
0000
0001
0000
0010
,
0100
1000
0010
0000
0100
0001
0010
0000
,
0200
0000
0000
1300
0000
0100
1000
0000
,
0200
0000
0000
0301
0000
0100
0001
0000
,
0200
0000
0000
1300
0000
0001
1000
0000
,
0100
1000
0010
0000
0100
0001
0010
0000
,
2002
0000
0000
0000
,
0000
0000
0000
3003
,
0020
0000
0000
0000
,
0000
0000
0000
0000
,
0000
0130
0000
0000
;
#NOTEDATA:;
#STEPSTYPE:dance-single;
#DIFFICULTY:Hard;
#METER:14;
#BPMS:0=115,36=230,164=115,208=230,312=115;
#NOTES:
0000
0000
0000
0000
,
0000
0000
0000
2000
0000
0100
3200
0000
,
0000
0300
0000
0000
0000
0000
0000
0000
,
2000
0002
0000
0000
0000
0000
0000
0000
,
0000
0000
0000
3003
,
1000
0000
0100
0000
0010
0000
0000
0001
0010
0000
0100
0000
1000
0000
0000
0000
,
0001
0000
0100
0000
0010
0000
1000
0100
0000
0100
0000
0010
0001
0000
1000
0000
,
0001
0010
0001
0000
1000
0010
1000
0000
,
0010
0000
0000
0000
0010
0000
0000
0000
1000
0100
1000
0100
0010
0010
0010
0010
,
0002
0000
0013
0002
0000
1003
0010
0000
,
2000
0000
3010
2000
0000
3001
0100
0000
,
0002
0000
1003
0010
0000
0010
0000
0010
,
0100
0100
0010
0010
0100
0100
0010
0010
,
0200
0000
0310
0200
0000
0301
0100
0000
,
0020
0000
0130
0020
0000
1030
0100
0000
,
0020
0000
0031
0010
0000
0100
1000
0010
,
0100
0100
0010
0010
0100
0100
0010
0020
,
0000
0130
0010
0100
0000
0100
0000
0101
,
0000
1000
0001
1000
0000
0100
0000
0011
,
0000
0001
0010
2000
0000
3001
0100
0020
,
0000
0031
0010
0200
0000
0310
0200
0000
,
0300
2000
0010
0001
,
3200
0001
0010
2300
,
0000
3000
2002
0000
,
0000
0000
0000
3003
,
1000
0100
1000
0100
0010
0001
0010
0000
,
0001
0100
0001
0100
0010
0000
0010
0100
,
0001
0010
0001
0010
0100
0010
0100
0000
,
0100
0100
0010
1000
0010
0001
0010
0000
,
0001
0000
1000
0001
0000
1000
0001
0000
,
0010
0000
0100
0010
0000
0100
0010
0000
,
0001
0001
0000
0000
1000
1000
0000
0000
,
1000
0100
0010
0001
0100
0100
0100
0100
,
0001
0100
0001
0100
0010
1000
0010
0000
,
1000
0100
1000
0100
0010
0001
0000
0001
,
0200
0001
0320
0100
,
2030
0000
0000
0100
0000
0000
3001
0000
0001
0000
0001
0000
,
2000
0000
0000
3020
0000
0000
0001
0000
,
0230
0000
0000
0010
0000
0000
0301
0000
,
1000
0100
0000
0100
0000
0010
0001
0010
,
0200
0000
0310
0000
,
0001
0000
0000
0010
0000
0000
0100
0000
0000
0010
0000
0000
0001
0000
0010
0000
,
0001
0000
0000
0100
0000
0000
0010
0000
0000
0100
0000
0000
0001
0001
0000
0000
,
1000
0000
0100
0010
0000
0100
0010
0000
0001
0010
0000
0001
0010
0000
0100
0000
,
0001
0000
0100
1000
0000
0100
1000
0000
0010
1000
0000
0010
1000
0000
0001
0000
,
0010
0000
0001
0100
0000
0001
0100
0000
0010
0100
0000
0010
0100
0000
1000
0000
,
0100
0000
0010
1000
0000
0010
1000
0000
0001
1000
0000
0001
1000
0000
0100
0000
,
0010
0000
0001
1000
0000
0010
1000
0000
0001
1000
0000
0100
1000
0000
0001
0000
,
0100
0000
0001
0010
0000
0100
0010
0000
1000
0010
0000
0100
0010
0000
0010
0000
,
0100
0000
1000
0100
0000
0010
0001
0000
0100
0010
0000
1000
0001
0000
1000
0000
,
0010
0000
0100
0001
0000
1000
0010
0000
1000
0001
0000
0010
0100
0000
1000
0000
,
1001
0000
0000
0000
1000
1000
1000
1000
,
0001
0000
0010
0100
0000
0010
0100
0000
0010
0100
0000
0000
,
1000
0000
0100
0010
0000
0100
0010
0000
0100
0010
0000
0000
,
0001
0000
1000
0100
0000
0000
1000
0000
0001
0010
0000
0000
,
0001
0000
0010
0000
0000
0100
0000
0000
1010
0000
0000
0000
,
0010
0000
1000
0001
0000
0100
0001
0000
1000
0001
0000
0000
,
0100
0000
0001
1000
0000
0010
1000
0000
0100
1000
0000
0100
,
0000
0000
0010
0000
0000
0001
0000
0000
0010
0000
0000
0100
,
0000
0000
0010
0000
0000
0100
0000
0000
1000
0001
0000
0000
,
1001
0000
0000
0000
2100
0000
0000
3001
,
0000
0000
0000
0000
,
1001
0000
0000
0000
0012
0000
0000
1003
,
0000
0000
0000
0000
,
0001
0000
0000
0100
0000
0000
0010
0000
1000
0010
0000
0000
,
1000
0000
0000
0100
0000
0000
0010
0000
0001
0010
0000
0000
,
0011
0000
0000
2100
0000
0000
3001
0000
,
1010
0000
0000
0102
0000
0000
1003
0000
,
2000
0000
0000
0000
,
0001
0001
0001
3001
,
0002
0000
0013
0002
0000
0103
0010
0000
,
2000
0000
3100
2000
0000
3010
0100
0000
,
0002
0000
1003
0100
0000
1000
0000
0001
,
0100
0100
0010
0010
0100
0100
0010
0010
,
0200
0000
1300
0200
0000
0310
0100
0000
,
0002
0000
1003
0002
0000
0103
0010
0000
,
0200
0000
0310
0100
0000
0001
1000
0001
,
0100
0100
0010
0010
0100
0100
0010
0010
,
0220
0000
0000
0000
,
0000
0000
0000
0330
,
0020
0000
0000
0000
,
0000
0000
0000
0000
,
0000
0000
0000
0000
0000
0000
0000
0000
0130
0000
0000
0000
0000
0000
0000
0000
0000
0000
0000
0000
0000
0000
0010
1000
0001
0000
0000
0000
0000
0000
0000
0000
;
#NOTEDATA:;
#STEPSTYPE:dance-double;
#DIFFICULTY:Easy;
#METER:7;
#NOTES:
00000000
00000000
00000000
00000000
,
00000000
00000000
00000000
00000000
,
00000000
00000000
00000000
00000000
,
00000000
00000000
00000000
00000000
,
00000000
00000000
00000000
00000000
,
00000000
00000000
00000000
00000000
,
00000000
00000000
00000000
00000000
,
00000000
00000000
00000000
00000000
,
00000000
00000000
00000000
00000000
,
00000000
00000000
00000000
00000000
,
00010000
00000000
00010000
00000000
,
00010000
00000000
00010000
00000000
,
00001000
00000000
00001000
00000000
,
00001000
00000000
00001000
00000000
,
00100000
00000000
00010000
00000000
,
00100000
00000000
00010000
00000000
,
01000000
00000000
01000000
00000000
,
00100000
00100000
00100000
00000000
,
20000000
00000000
30000000
00000000
,
00020000
00000000
00030000
00000000
,
10000000
00000000
00010000
00000000
,
01000000
00100000
01000000
00100000
,
02000000
00000000
03000000
00000000
,
00002000
00000000
00003000
00000000
,
00010000
00000000
00000010
00000000
,
00000100
00000000
00000010
00000000
00000100
00000000
00000010
00001000
,
00000000
00000000
00000000
00000000
00000000
00000000
00000000
00000100
,
00000000
00000000
00000000
00000000
00000000
00000000
00000000
00010000
,
00000000
00000000
00000000
00001000
00000000
00000000
00000000
00010000
,
00000000
00000000
00000000
00001000
00000000
00000000
00000000
00000000
,
00000000
00010000
00001000
00000010
,
00000100
00000010
00000100
00000010
,
00000000
00000000
00002002
00000000
,
00000000
00000000
00003003
00000000
,
00000001
00000000
00000001
00000000
,
00000100
00000000
00000100
00000000
,
00001000
00000000
00001000
00000000
,
00010000
00100000
00010000
00000000
,
00200000
00000000
00300000
00000000
,
02000000
00000000
03000000
00000000
,
00010000
00000000
10000000
00000000
,
01000000
01000000
01000000
00000000
,
10000000
00000000
10000000
00000000
,
01000000
00000000
01000000
00000000
,
00010000
00001000
00010000
00000000
,
00000010
00000100
00000010
00000000
,
00002000
00000000
00003000
00000000
,
00000002
00000000
00000003
00000000
,
00000100
00000000
00000100
00000000
,
00000010
00000000
00001001
00000000
,
00000000
00000000
00000000
00000000
,
00000000
00000000
00000000
00000000
,
00000000
00000000
00000000
00000000
,
00000000
00000000
00000000
00000000
,
00000002
00000000
00000000
00000000
,
00000000
00000000
00000000
00000003
,
00000200
00000000
00000000
00000000
,
00000000
00000000
00000000
00000300
,
00000020
00000000
00000000
00000000
,
00000000
00000000
00000000
00000030
,
00002000
00000000
00000000
00000000
,
00000000
00000000
00000000
00003000
,
00020000
00000000
00000000
00000000
,
00000000
00000000
00000000
00030000
,
02000000
00000000
00000000
00000000
,
00000000
00000000
00000000
03000000
,
00020000
00000000
00000000
00000000
,
00000000
00000000
00000000
00030000
,
00200000
00000000
00000000
00000000
,
00000000
00000000
00000000
00300000
,
00001000
00000000
00000000
00000000
,
00010000
00001000
00010000
00001000
,
00010000
00000000
00100000
00000000
,
01000000
00000000
00100000
00000000
,
10000000
00010000
01000000
00100000
,
10000000
00010000
01000000
00000000
,
00001000
00000000
00010000
00000000
,
00001000
00000000
00010000
00000000
,
00000100
00000010
00000001
00001000
,
00000001
00000100
00001000
00000000
,
00020000
00000000
00000000
00000000
,
00030000
00000000
00000000
00000000
,
00000200
00000000
00000000
00000000
,
00000300
00000000
00000000
00000000
,
00000020
00000000
00000030
00000000
,
00000200
00000000
00000300
00000000
,
00001001
00000000
00000000
00000000
,
00000110
00000000
00000000
00000000
,
00001001
00000000
00000000
00000000
,
00000001
00000001
00000001
00000001
,
00002000
00000000
00003000
00000000
,
00000002
00000000
00000003
00000000
,
00002000
00003000
00000002
00000003
,
00000100
00000010
00000100
00000010
,
00020000
00000000
00030000
00000000
,
00002000
00000000
00003000
00000000
,
00200000
00300000
00020000
00030000
,
01000000
00100000
01000000
00100000
,
20000000
00000000
00000000
00000000
,
00000000
00000000
00000000
00000000
,
00000000
00000000
00000000
00000000
,
00000000
00000000
30000000
00000000
,
00020000
00000000
00000000
00000000
,
00000000
00000000
00000000
00000000
,
00000000
00000000
00000000
00000000
,
00000000
00000000
00000000
00000000
,
00030000
00000000
10010000
00000000
;
#NOTEDATA:;
#STEPSTYPE:dance-double;
#DIFFICULTY:Medium;
#METER:11;
#BPMS:0=115,36=230,164=115,208=230,312=115;
#NOTES:
00000000
00000000
00000000
00000000
,
00000000
00000000
00000000
00000000
,
00000000
00000000
00000000
00000000
,
00000000
00000000
00000000
00000000
,
00000000
00000000
00000000
00000000
,
00001000
00000000
00010000
00000000
,
00000010
00000000
00000000
00000000
,
00001000
00000000
00000100
00000000
,
00000010
00000000
00000010
00000000
00000001
00000001
00000001
00000001
,
00000200
00000000
00000000
00002300
00000000
00000000
00003000
00000000
,
00020000
00000000
00000000
00230000
00000000
00000000
00300000
00000000
,
10000000
00000000
00000000
00010000
00000000
01000000
00000000
10000000
,
01000000
00010000
00100000
00000000
01000000
10000000
00100000
00000000
,
00020000
00000000
00000000
00032000
00000000
00000000
00003000
00000000
,
00000020
00000000
00000000
00000032
00000000
00000000
00000003
00000000
,
00001000
00000000
00000000
00000100
00000000
00000010
00000001
00000000
,
00000100
00000001
00000010
00000000
00000100
00001000
00000010
00000100
,
00000000
00000001
00000100
00000001
00000000
00000100
00000000
00001010
,
00000000
00001000
00000010
00001000
00000000
00000100
00000000
00000011
,
00000000
00000001
00000100
00001000
00000000
00001000
00000100
00000010
,
00000000
00010000
00001000
00010000
00000000
00001000
01000000
00000000
,
00000000
00200000
20300000
32000000
,
03020000
00032000
00003020
00000032
,
00000003
00000000
00002002
00000000
,
00000000
00000000
00000000
00003003
,
00000001
00000001
00001000
00001000
,
00000010
00000100
00001000
00000000
00010000
00000000
00000000
00000000
,
00100000
00100000
01000000
01000000
,
00001000
00010000
01000000
00000000
00100000
00000000
00000000
00000000
,
02000000
00000000
00000000
03020000
00000000
00000000
00031000
00000000
,
00000020
00000000
00000000
00002030
00000000
00000000
00013000
00000000
,
00001000
00010000
00000000
00000000
00001000
00100000
00000000
00000000
,
00010000
01000000
00010000
01000000
00010000
01000000
00010000
00000000
,
10000000
10000000
00010000
00010000
,
00100000
01000000
00010000
00000000
00001000
00000000
00000000
00000000
,
00000010
00000010
00000001
00000001
,
00001000
00001000
00000200
00000300
,
00000020
00000000
00000000
00000030
,
00000200
00000300
00020000
00030000
,
00001000
00010000
00000000
00001000
00000000
00100000
01000000
00000000
,
00100000
00000000
10010000
00000000
,
00000000
00000000
00000000
00000000
,
00000000
00000000
00000000
00000000
,
10000000
00000000
00000000
01000000
00000000
00000000
00100000
00000000
00000000
01000000
00000000
00000000
10000000
00000000
00000000
00000000
,
00010000
00000000
00000000
00100000
00000000
00000000
01000000
00000000
00000000
00100000
00000000
00000000
00010000
00000000
00000000
00000000
,
00001000
00000000
00000000
00000100
00000000
00000000
00000010
00000000
00000000
00000100
00000000
00000000
00001000
00000000
00000000
00000000
,
00000001
00000000
00000000
00000010
00000000
00000000
00000100
00000000
00000000
00000010
00000000
00000000
00000001
00000000
00000000
00000000
,
00000001
00000000
00000000
00000100
00000000
00000000
00001000
00000000
00000000
00010000
00000000
00000000
00100000
00000000
00000000
00000000
,
10000000
00000000
00000000
01000000
00000000
00000000
00010000
00000000
00000000
00001000
00000000
00000000
00000010
00000000
00000000
00000000
,
00000001
00000000
00000000
00000010
00000000
00000000
00001000
00000000
00000000
00010000
00000000
00000000
00100000
00000000
00000000
00000000
,
10000000
00000000
00000000
00100000
00000000
00000000
00010000
00000000
00000000
00001000
00000000
00000000
00000010
00000000
00000000
00000000
,
00000110
00000000
00000000
00000000
00000001
00000001
00001000
00001000
,
00000001
00000100
00001000
00000100
,
00001000
00010000
00001000
00010000
,
00100000
00010000
00100000
10000000
,
00100000
00000000
10000000
00000000
00000000
01000000
00000000
00000000
11000000
00000000
00000000
00000000
,
10000000
01000000
00010000
01000000
,
00010000
00001000
00010000
00001000
,
00000010
00001000
00000010
00000001
,
00000010
00000000
00000001
00000000
00000000
00000010
00000000
00000000
00000011
00000000
00000000
00000000
,
00001001
00000000
00000000
00000000
00000002
00000000
00000000
00001003
,
00000000
00000000
00000000
00000000
,
00001100
00000000
00000000
00000000
00002000
00000000
00000000
00003100
,
00000000
00000000
00000000
00000000
,
00020000
00000000
00000000
00000000
,
00032000
00000000
00000000
00000000
,
00013000
00000000
00000000
00001000
00000000
00000000
00100000
00000000
,
00001000
00000000
00000000
00010000
00000000
00000000
00000100
00000000
,
00000020
00000000
00000000
00000000
,
00000100
00000100
00000100
00000130
,
00002000
00000000
00000000
00003100
00000000
00001000
00000100
00000000
,
00020000
00000000
00000000
00031000
00000000
00010000
00001000
00000000
,
00200000
00000000
00000000
00310000
00000000
01000000
00000000
10000000
,
01000000
00010000
00100000
00000000
01000000
10000000
00100000
00000000
,
20000000
00000000
00000000
31000000
00000000
10000000
01000000
00000000
,
00200000
00000000
00000000
00310000
00000000
00100000
00010000
00000000
,
00002000
00000000
00000000
00003100
00000000
00000010
00000001
00000000
,
00000100
00000001
00000010
00000000
00000100
00001000
00000010
00000000
,
00000220
00000000
00000000
00000000
,
00000000
00000000
00000000
00000330
,
00000002
00000000
00000000
00000000
,
00000000
00000000
00000000
00000000
,
00000000
00001003
00000000
00000000
;
#NOTEDATA:;
#STEPSTYPE:dance-double;
#DIFFICULTY:Hard;
#METER:14;
#BPMS:0=115,36=230,164=115,208=230,312=115;
#NOTES:
00000000
00000000
00000000
00000000
,
00000000
00000000
00000000
00000002
00000000
00000100
00000203
00000000
,
00000000
00000300
00000000
00000000
00000000
00000000
00000000
00000000
,
00000002
00002000
00000000
00000000
00000000
00000000
00000000
00000000
,
00000000
00000000
00000000
00003003
,
00000001
00000000
00000100
00000000
00001000
00000000
00000000
00001000
00000100
00000000
00000001
00000000
00000010
00000000
00000000
00000000
,
00000010
00000000
00001000
00000000
00010000
00000000
00001000
00010000
00000000
00010000
00000000
00001000
00010000
00000000
00100000
00000000
,
10000000
00100000
10000000
00000000
00010000
01000000
00010000
00000000
,
00100000
00000000
00000000
00000000
00100000
00000000
00000000
00000000
00001000
00000000
00001000
00000000
00010000
00010000
00010000
00010000
,
00002000
00000000
00013000
00002000
00000000
00003100
00000010
00000000
,
00002000
00000000
00003010
00002000
00000000
00003010
00000100
00000000
,
00000002
00000000
00001003
00000010
00000000
00000010
00000000
00000010
,
00000100
00000100
00000010
00000010
00000100
00000100
00000010
00000010
,
00000200
00000000
00000310
00000200
00000000
00001300
00010000
00000000
,
00002000
00000000
00013000
00002000
00000000
01003000
00100000
00000000
,
20000000
00000000
31000000
00100000
00000000
00010000
10000000
00010000
,
01000000
01000000
00100000
00100000
01000000
01000000
00100000
00200000
,
00000000
01300000
00010000
01000000
00000000
00100000
00000000
10100000
,
00000000
10000000
00100000
10000000
00000000
01000000
00000000
11000000
,
00000000
10000000
01000000
00200000
00000000
00301000
00010000
00200000
,
00000000
01300000
00010000
00200000
00000000
01300000
00200000
00000000
,
00300000
02000000
10000000
00100000
,
03020000
01000000
00001000
00030200
,
00000000
00000300
00000220
00000000
,
00000000
00000000
00000000
00000330
,
00000010
00000001
00000010
00000001
00000100
00000010
00000100
00000000
,
00000100
00001000
00010000
00000000
00000100
00000000
00000010
00000000
,
00000001
00000100
00000001
00000100
00001000
00000100
00001000
00000000
,
00010000
00001000
00010000
00100000
00010000
00001000
00010000
00000000
,
01000000
00000000
00100000
01000000
00000000
00100000
01000000
00000000
,
10000000
00000000
00010000
10000000
00000000
00010000
10000000
00000000
,
00100000
00100000
00000000
00000000
01000000
01000000
00000000
00000000
,
00010000
01000000
10000000
01000000
00010000
01000000
00100000
00000000
,
10000000
01000000
10000000
01000000
00010000
01000000
00010000
00000000
,
00010000
00001000
00010000
00000100
00001000
00000010
00001000
00000001
,
00000200
00000001
00000320
00000100
,
00020030
00000000
00000000
00001000
00000000
00000000
00030100
00000000
00000100
00000000
00000100
00000000
,
00002000
00000000
00000000
00003020
00000000
00000000
00000001
00000000
,
00000230
00000000
00000000
00001000
00000000
00000000
00000310
00000000
,
00001000
00000010
00000000
00000010
00000000
00000100
00001000
00010000
,
00002000
00000000
00013000
00000000
,
00001000
00000000
00000000
00010000
00000000
00000000
00100000
00000000
00000000
10000000
00000000
00000000
01000000
00000000
00100000
00000000
,
01000000
00000000
00000000
10000000
00000000
00000000
00100000
00000000
00000000
00010000
00000000
00000000
00001000
00001000
00000000
00000000
,
00010000
00000000
00100000
00010000
00000000
00010000
00001000
00000000
00001000
00010000
00000000
00010000
00100000
00000000
00010000
00000000
,
00001000
00000000
00000010
00001000
00000000
00001000
00010000
00000000
00010000
00001000
00000000
00001000
00000010
00000000
00001000
00000000
,
00010000
00000000
00100000
01000000
00000000
00010000
01000000
00000000
00100000
01000000
00000000
10000000
01000000
00000000
00010000
00000000
,
00001000
00000000
00000010
00000100
00000000
00001000
00000100
00000000
00000001
00000100
00000000
00000010
00000100
00000000
00001000
00000000
,
00010000
00000000
00000100
00000010
00000000
00000010
00000001
00000000
00001000
00000010
00000000
00000010
00000001
00000000
00001000
00000000
,
00000100
00000000
00000010
00001000
00000000
00001000
00010000
00000000
00010000
01000000
00000000
01000000
00100000
00000000
00010000
00000000
,
10000000
00000000
01000000
00100000
00000000
00100000
00010000
00000000
00010000
00001000
00000000
00001000
00000100
00000000
00000010
00000000
,
00000100
00000000
00001000
00010000
00000000
00010000
01000000
00000000
01000000
00100000
00000000
00100000
00001000
00000000
00010000
00000000
,
00011000
00000000
00000000
00000000
00010000
00010000
00001000
00001000
,
00010000
00000000
00001000
00010000
00000000
00001000
00010000
00000000
00000000
00001000
00000000
00000000
,
01000000
00000000
00100000
01000000
00000000
00100000
01000000
00000000
00000000
00100000
00000000
00000000
,
10000000
00000000
00010000
01000000
00000000
00000000
00010000
00000000
10000000
00100000
00000000
00000000
,
00010000
00000000
00001000
00000000
00000000
00000100
00000000
00000000
00000110
00000000
00000000
00000000
,
00000001
00000000
00000100
00000010
00000000
00000100
00000010
00000000
00000000
00000010
00000000
00000000
,
00001000
00000000
00000100
00010000
00000000
00001000
00010000
00000000
00100000
00000000
00000000
10000000
,
00000000
00000000
00100000
00000000
00000000
00010000
00000000
00000000
00100000
00000000
00000000
10000000
,
00000000
00000000
01000000
00000000
00000000
00010000
00000000
00000000
01000000
00100000
00000000
00000000
,
10010000
00000000
00000000
00000000
20000000
00000000
00000000
30010000
,
00000000
00000000
00000000
00000000
,
00110000
00000000
00000000
00000000
00102000
00000000
00000000
00013000
,
00000000
00000000
00000000
00000000
,
00010000
00000000
00000000
00000100
00000000
00000000
00000010
00000000
00000001
00000010
00000000
00000000
,
00000001
00000000
00000000
00000100
00000000
00000000
00001000
00000000
00010000
00001000
00000000
00000000
,
00011000
00000000
00000000
02001000
00000000
00000000
03010000
00000000
,
10100000
00000000
00000000
02100000
00000000
00000000
03010000
00000000
,
20000000
00000000
00000000
00000000
,
00010000
00010000
00010000
30010000
,
00020000
00000000
00130000
00020000
00000000
01030000
00001000
00000000
,
00020000
00000000
00031000
00020000
00000000
00030100
00000010
00000000
,
00000002
00000000
00001003
00000100
00000000
00001000
00000000
00000001
,
00000100
00000100
00000010
00000010
00000100
00000100
00000010
00000010
,
00000200
00000000
00001300
00000200
00000000
00000310
00010000
00000000
,
00002000
00000000
00013000
00002000
00000000
00103000
01000000
00000000
,
00200000
00000000
01300000
00010000
00000000
01000000
10000000
00010000
,
01000000
01000000
00100000
00100000
01000000
01000000
00100000
00100000
,
02200000
00000000
00000000
00000000
,
00000000
00000000
00000000
03300000
,
02000000
00000000
00000000
00000000
,
00000000
00000000
00000000
00000000
,
00000000
00000000
00000000
00000000
00000000
00000000
00000000
00000000
03100000
00000000
00000000
00000000
00000000
00000000
00000000
00000000
00000000
00000000
00000000
00000000
00000000
00000000
00100000
10000000
00010000
00000000
00000000
00000000
00000000
00000000
00000000
00000000
;
