
//----- song ID: casr -----//
#VERSION:0.83;
#TITLE:Can't Stop Running!!;
#ARTIST:seatrus;
#BANNER:Can't Stop Running!!.png;
#BACKGROUND:Can't Stop Running!!-bg.png;
#CDTITLE:./CDTitles/DDR WORLD.png;
#MUSIC:Can't Stop Running!!.ogg;
#SAMPLESTART:70.325;
#SAMPLELENGTH:15;
#BPMS:0=197;
#NOTEDATA:;
#STEPSTYPE:dance-single;
#DIFFICULTY:Beginner;
#METER:4;
#NOTES:
0000
0000
0000
0000
,
0000
0000
0000
0000
,
0000
0000
0000
0000
,
0000
0000
0000
0000
,
0000
0000
0000
0000
,
0000
0000
0000
0000
,
1000
0000
0000
0000
,
1000
0000
0000
0000
,
0010
0000
0000
0000
,
0010
0000
0000
0000
,
0002
0000
0000
0000
,
0003
0000
0000
0000
,
0002
0000
0000
0000
,
0003
0000
0000
0000
,
0020
0000
0000
0000
,
0030
0000
0000
0000
,
0020
0000
0000
0000
,
0030
0000
0000
0000
,
1000
0000
1000
0000
,
1000
0000
0000
0000
,
1000
0000
1000
0000
,
0010
0000
0000
0000
,
0010
0000
0010
0000
,
0010
0000
0000
0000
,
0010
0000
0010
0000
,
0001
0000
0000
0000
,
0001
0000
0001
0000
,
0100
0000
0000
0000
,
0010
0000
0000
0000
,
1001
0000
0000
0000
,
1000
0000
1000
0000
,
0100
0000
0000
0000
,
0010
0000
0000
0000
,
1001
0000
0000
0000
,
0002
0000
0000
0000
,
0003
0000
0000
0000
,
0001
0000
0001
0000
,
0010
0000
0000
0000
,
0010
0000
1000
0000
,
0010
0000
0000
0000
,
1000
0000
1000
0000
,
1000
0000
0000
0000
,
1001
0000
0000
0000
,
0000
0000
0000
0000
,
1000
0000
0000
0000
,
0100
0000
0000
0000
,
0010
0000
0000
0000
,
0000
0000
0000
0000
,
0002
0000
0000
0000
,
0003
0000
0000
0000
,
0001
0000
0010
0000
,
0001
0000
0000
0000
,
0010
0000
0010
0000
,
0010
0000
0000
0000
,
1000
0000
0010
0000
,
1000
0000
0000
0000
,
0010
0000
0010
0000
,
0010
0000
0000
0000
,
1000
0000
0010
0000
,
0100
0000
0000
0000
,
0010
0000
0010
0000
,
0001
0000
0000
0000
,
0001
0000
0010
0000
,
0100
0000
0000
0000
,
0010
0000
0010
0000
,
1000
0000
0000
0000
,
1000
0000
0100
0000
,
0001
0000
0000
0000
,
0001
0000
0100
0000
,
1000
0000
0000
0000
,
1000
0000
0010
0000
,
0001
0000
0000
0000
,
0001
0000
0010
0000
,
1000
0000
0000
0000
,
2000
0000
0000
0000
,
3000
0000
0000
0000
,
0020
0000
0000
0000
,
0030
0000
0000
0000
,
0002
0000
0000
0000
,
0003
0000
0000
0000
,
0020
0000
0000
0000
,
0030
0000
0000
0000
,
0001
0000
0001
0000
,
0010
0000
0000
0000
,
0010
0000
0100
0000
,
0010
0000
0000
0000
,
0010
0000
0010
0000
,
1000
0000
0000
0000
,
1000
0000
0001
0000
,
1000
0000
0000
0000
,
0020
0000
0000
0000
,
0030
0000
1001
0000
;
#NOTEDATA:;
#STEPSTYPE:dance-single;
#DIFFICULTY:Easy;
#METER:8;
#NOTES:
0000
0000
0000
0000
,
0000
0000
0000
0000
,
0000
0000
0000
0000
,
0000
0000
0000
0000
,
0000
0000
0000
0000
,
0000
0000
0000
0000
,
1000
0100
0010
0000
,
0100
0010
0001
0000
,
1000
0001
0100
0010
,
1000
0001
1000
0000
,
0001
0100
0001
0000
,
0001
0010
0001
0000
,
1000
0100
1000
0000
,
1000
0010
1000
0000
,
0001
0100
0010
0000
,
1000
0100
0010
0000
,
0001
0010
0100
0000
,
1000
0010
0100
0000
,
0001
1000
0001
1000
,
0010
1000
0010
0000
,
1000
0001
1000
0001
,
0010
0001
0010
0000
,
0001
1000
0001
1000
,
0100
1000
0100
0000
,
1000
0001
1000
0001
,
0100
0001
0100
0000
,
0001
0010
0100
1000
,
0010
0100
0001
0000
,
1000
0100
0010
0001
,
0100
0010
1000
0000
,
0001
0010
0100
1000
,
0010
0100
0001
0000
,
1000
0010
0100
0001
,
0010
0100
1000
0000
,
0002
0000
0000
0003
,
0001
0100
0010
1000
,
0100
1000
0010
0100
,
0001
1000
0001
0000
,
1000
0001
0100
0001
,
0010
0100
1000
0000
,
0001
0100
0010
1000
,
0001
1000
0001
0000
,
1001
0000
0000
0000
,
1000
0000
0100
0000
,
0010
0000
0000
0000
,
0001
0000
0100
0000
,
0010
0000
0000
0000
,
1000
0000
0001
0000
,
2000
0000
0000
3000
,
0002
0000
0000
0003
,
1000
1000
1000
0000
,
0001
0001
0001
0000
,
0100
0100
0100
0000
,
0010
0010
0010
0000
,
1000
0100
0010
0001
,
1000
0100
0010
0001
,
1000
0001
1000
0000
0001
1000
0001
0000
,
2000
0000
0000
3000
,
0001
0100
0001
1000
,
0100
0010
0100
0000
0010
0000
0000
0000
,
0001
1000
0010
0100
,
0001
1000
0001
0000
1000
0000
0000
0000
,
0001
0100
0010
1000
,
0001
0100
0001
0000
1000
0000
0000
0000
,
0100
0010
0001
1000
,
0001
1000
0001
0000
1000
0000
0000
0000
,
1000
0010
1000
0001
,
0010
0100
0010
0000
0100
0000
0000
0000
,
1000
0001
0100
0010
,
1000
0001
1000
0000
0001
0000
0000
0000
,
1000
0010
0100
0001
,
1000
0010
1000
0000
0001
0000
0000
0000
,
0010
0100
1000
0001
,
1000
0001
1000
0000
0001
0000
0000
0000
,
1001
0000
0000
0000
1000
0100
0010
0000
,
0001
1000
0001
0000
,
1001
0000
0000
0000
0001
0100
0010
0000
,
1000
0001
1000
0000
,
0001
0000
0010
0100
1000
0000
0001
0000
,
1000
0000
0010
0100
0001
0000
1000
0000
,
0002
0003
2000
3000
,
0020
0030
0200
0300
,
0001
1000
0010
0100
,
0010
1000
0001
0000
0010
0000
0000
0000
,
0001
0010
0100
1000
,
0100
0010
0001
0000
1000
0000
0000
0000
,
0001
0100
0010
1000
,
0100
0010
0100
0000
0010
0000
0000
0000
,
0001
0010
1000
0010
,
0001
0000
1000
0001
1000
0000
0000
0000
,
0001
0001
0000
0000
1000
1000
0000
0000
,
0010
0100
1001
0000
;
#NOTEDATA:;
#STEPSTYPE:dance-single;
#DIFFICULTY:Medium;
#METER:12;
#BPMS:0=98.5,20=197,50=98.5,51=197,81=329.67,81.5=189.793,81.791667=102.779,82=197,147=98.5,163=197;
#NOTES:
0000
0000
0000
0000
,
0000
0000
0000
0000
,
0000
0000
0000
0000
,
1000
0000
0100
0000
1000
0001
1000
0000
0001
0000
0100
0000
0001
1000
0001
0000
,
1000
0000
0010
0000
0100
0010
0100
0000
0001
0000
1000
0000
2002
0000
3003
0000
,
1000
0100
0010
0001
1000
0100
0010
0000
,
0001
0100
0010
1000
0001
0100
0010
0000
,
1000
0010
0100
0001
1000
0010
0100
0000
,
0001
0010
0100
1000
0001
0010
0100
0000
,
1000
0100
0010
0100
1000
0100
0010
0000
,
0001
0100
0010
0100
0001
0100
0010
0000
,
1000
0001
0010
0001
1000
0001
0010
0000
,
0001
0000
1000
0000
2002
3003
0001
1000
,
0001
1000
0001
0000
1000
0000
0010
0100
,
0010
0100
0010
0000
0100
0000
0001
0010
,
0001
0010
0001
0000
0010
0000
0100
1000
,
0100
0000
1000
0000
0001
0000
1000
0001
,
1000
0001
1000
0000
0001
0000
0010
0100
,
0010
0100
0010
0000
0100
0000
1000
0010
,
1000
0010
1000
0000
0010
0000
0100
0001
,
0100
0002
0003
1000
,
0001
0000
1000
0100
0010
0001
0000
1000
,
0001
1000
0000
0010
0100
0000
0001
0000
,
1000
0000
0001
0100
0010
1000
0000
0001
,
1000
0001
0000
0010
0100
0000
1000
0000
,
0001
0000
1000
0010
0100
0001
0000
1000
,
0001
1000
0000
0100
0010
0000
0001
0000
,
1000
0000
0001
0010
0100
1000
0000
0001
,
1000
0001
1000
0000
0010
0000
0200
0000
,
0000
0000
0000
0000
0300
0000
0001
0100
,
0010
1000
0001
0100
0010
0000
1000
0100
,
0010
0000
0001
1000
0100
0010
0000
0001
,
1000
0001
2000
0000
3000
0000
0001
0100
,
0001
0000
1000
0100
1000
0000
0001
0010
,
0001
0000
1000
0010
1000
0000
0001
0100
,
0001
1000
0100
1000
0001
0010
0000
0001
,
1000
0010
0100
0000
0001
0000
2000
0000
,
0000
3100
0100
0020
,
0000
0031
1000
0002
,
0000
0103
0100
0020
,
0000
1030
0001
2000
,
0000
0000
3000
0200
,
0000
0000
0300
0020
,
0000
0000
0030
0002
,
0000
0000
0003
1000
,
1000
0010
0010
0100
,
0100
0000
0001
0000
0001
0000
1000
0001
,
1000
0001
1000
0001
1000
0001
1000
0000
,
0000
0000
0000
0000
0000
0000
0001
0100
,
0010
1000
0100
0010
0001
0100
0010
1000
,
0010
0001
0010
0000
1000
0000
0100
0010
,
0001
0010
0100
1000
0010
0100
0001
1000
,
0010
0100
0001
0000
1000
0000
0100
1000
,
0010
1000
0100
0010
0001
0100
0001
0010
,
0100
1000
0001
0000
1000
0000
0001
0010
,
1000
0010
0001
0100
1000
0100
0001
0000
,
0110
0000
1001
0000
0000
0000
1000
0100
,
0010
0001
0100
0010
1000
0100
0010
0001
,
0010
1000
0010
0000
0001
0000
0100
0010
,
1000
0010
0100
0001
0010
0100
1000
0001
,
0010
0100
1000
0000
0001
0000
0100
0001
,
0010
0001
0100
0010
1000
0100
1000
0010
,
0100
0001
1000
0000
0001
0000
1000
0010
,
0001
0010
1000
0100
0001
0100
1000
0000
,
0110
1001
0000
0002
,
0000
0000
1003
0010
1000
0000
0100
0000
,
0010
0100
0010
0000
0001
0000
2000
0000
,
0000
0000
3001
0010
0001
0000
0100
0000
,
0010
0100
0010
0000
1000
0000
0002
0000
,
0000
0013
0200
0000
0000
1300
0020
0000
,
0000
0000
0130
0000
0001
0000
0000
1000
0000
0000
0001
0000
2000
0000
0000
0000
,
0000
3200
0000
0320
,
0000
0000
0032
0000
0000
0000
1003
0010
,
0100
0010
1000
0001
0010
0100
1000
0001
,
0100
0010
1000
0000
0001
0000
0010
0001
,
0100
0010
1000
0100
1000
0010
0100
0001
,
0010
0100
1000
0000
0001
0000
1000
0010
,
0100
0010
1000
0100
0010
0100
1000
0001
,
0010
0001
0100
0000
0001
0000
1000
0010
,
1000
0000
0001
0010
0001
0000
1001
0000
,
0110
0000
1001
0000
0000
0000
1000
0100
,
0000
0000
0001
0100
0000
0000
1000
0001
,
1000
0001
1000
0000
0000
0000
0000
0000
;
#NOTEDATA:;
#STEPSTYPE:dance-single;
#DIFFICULTY:Hard;
#METER:15;
#BPMS:0=98.5,20=197,50=98.5,51=197,81=329.67,81.5=189.793,81.791667=102.779,82=197,147=98.5,163=197;
#NOTES:
0000
0000
0000
0000
,
0000
0000
0000
0000
,
0000
0000
0000
0000
,
1000
0000
0010
0000
0100
0001
1000
0000
0001
0010
0100
0010
0001
0000
1000
0010
,
0100
0010
0100
0000
0001
1000
0001
0000
1000
0010
0100
0001
2000
0000
3001
0000
,
1000
0000
0001
0100
0001
0000
1000
0000
0100
0000
0010
0001
0010
0000
0001
0000
,
1000
1010
0101
1001
,
0001
0000
1000
0100
1000
0000
0001
0000
0100
0000
0010
1000
0010
0000
1000
0000
,
0001
0011
1100
1001
,
1000
0000
0001
0010
0001
0000
1000
0000
0010
0000
0100
0001
0100
0000
0001
0000
,
1000
1100
0011
1001
,
0001
0000
1000
0010
1000
0000
0001
0000
0010
0000
0100
1000
0100
0000
1000
0000
,
0001
0000
0101
0000
2002
3003
0001
0100
,
0010
0000
1000
0000
0010
1000
0001
0000
1000
0000
0000
0000
0001
0000
0010
0000
,
0100
0000
1000
0000
0100
1000
0001
0000
1000
0000
0000
0000
0001
0000
1000
0000
,
0100
0000
0010
0000
0100
0010
0001
0000
1000
0000
0000
0000
1010
0000
0000
0000
,
0101
0000
0001
1000
0001
0000
1000
0100
,
0010
0000
0001
0000
0010
0001
1000
0000
0001
0000
0000
0000
1000
0000
0010
0000
,
0100
0000
0001
0000
0100
0001
1000
0000
0001
0000
0000
0000
1000
0000
0001
0000
,
0100
0000
0010
0000
0100
0010
1000
0000
0001
0000
0000
0000
0011
0000
0000
0000
,
1100
0000
0000
0000
2002
0000
0000
0000
3003
0000
0000
0000
1000
0000
0001
0010
,
0001
0000
1000
0010
1000
0000
0001
0000
0100
0000
0010
0000
0000
0000
0010
0000
,
1000
0000
0100
0000
0010
0000
0001
0000
1000
0000
0000
0000
0001
0000
1000
0010
,
1000
0000
0001
0010
0001
0000
1000
0000
0100
0000
0010
0000
0000
0000
0010
0000
,
0001
0000
0100
0000
0010
0000
1000
0000
0001
0000
0000
0000
1000
0000
0001
0100
,
0001
0000
1000
0100
1000
0000
0001
0000
0010
0000
0100
0000
0000
0000
0100
0000
,
1000
0000
0010
0000
0100
0000
0001
0000
1000
0000
0000
0000
0001
0000
1000
0100
,
1000
0000
0001
0100
0001
0000
1000
0000
0010
0000
0100
0000
0000
0000
0100
0000
,
0001
0010
0100
1000
0001
0000
2000
0000
,
0000
0000
0000
0000
3000
0000
1000
0001
,
0100
0000
0010
0000
1000
0000
0001
0000
1000
0000
0000
0000
0001
0000
0010
0001
,
0010
0000
0001
0100
0001
0000
0010
0000
0001
0000
0100
0000
0000
0000
0100
0000
,
0010
0000
1000
0000
0002
0000
0000
0000
0003
0000
0000
0000
1000
0000
0010
1000
,
0010
0000
1000
0100
1000
0000
0010
0000
1000
0000
0100
0000
0000
0000
0100
0000
,
0010
0001
0100
0010
1000
0001
1000
0010
,
0100
0000
0001
0000
1000
0000
0001
1000
0001
0000
1000
0000
0000
0000
0001
0000
,
0010
1000
0010
0001
1000
0100
2000
0000
,
0000
3020
0230
0302
,
0000
0000
1003
0100
0001
0100
2000
0000
,
0000
3020
0230
0320
,
0000
0000
0000
0000
2030
0000
0000
0000
0000
0000
3001
0100
0010
0000
0000
0000
,
0010
1000
1000
0001
,
0001
0010
0010
0100
,
0100
1000
1000
0001
,
0001
0100
0100
0020
,
0000
0000
0000
0230
,
0000
0000
0000
0000
0000
0000
0301
1000
,
0001
0000
1000
0000
0001
1000
0001
1000
0001
1000
0001
1000
0001
0000
0000
0000
,
0000
0000
0000
0000
0000
0000
0000
0000
0000
0000
0000
0000
1000
0000
0100
1000
,
0100
0000
0010
0001
0010
0000
0000
0000
0001
0000
0100
0000
0010
0000
1000
0000
,
0100
0000
1000
0000
0010
0000
0000
0000
0100
0001
0100
0000
0001
0000
0010
0001
,
0010
0000
0100
0010
0100
0000
0000
0000
1000
0000
0001
0000
0100
0000
1000
0000
,
0100
0000
0001
0000
1000
0000
0000
0000
0001
1000
0001
0000
1000
0000
0010
0100
,
0001
0000
0100
0010
1000
0000
0000
0000
0001
0000
1000
0000
0100
0000
0010
0000
,
0001
0000
0100
0000
0010
0000
0000
0000
1000
0000
0001
0000
1000
0010
1000
0000
,
0001
0000
0100
0000
0010
0000
1000
0001
1000
0000
0001
0000
0010
0000
0000
0000
,
0110
0000
0000
0000
1001
0000
0000
0000
0001
1000
0001
0000
1000
0000
0001
0100
,
0010
0000
1000
0010
0100
0000
0000
0000
0001
0000
0010
0000
0100
0000
1000
0000
,
0001
0000
0010
0000
0001
0000
0000
0000
0100
0010
0100
0000
0001
0000
0100
0010
,
1000
0000
0010
0100
0001
0000
0000
0000
1000
0000
0001
0000
0010
0000
1000
0000
,
0010
0000
0001
0000
1000
0000
0000
0000
0001
1000
0001
0000
1000
0000
0010
0100
,
0001
0000
1000
0100
0010
0000
0000
0000
0100
0000
1000
0000
0001
0000
0100
0000
,
0010
0000
1000
0000
0100
0000
0000
0000
0010
0100
0010
0000
0001
0000
0011
0000
,
0000
0000
1000
1100
0000
0000
1001
0000
,
0110
0000
0000
0000
1001
0000
0000
0000
1000
0001
1000
0000
0002
0000
0000
0000
,
0000
0000
1003
0001
0010
0100
1000
0100
,
0010
0000
0000
0000
0011
0000
0000
0000
0001
1000
0001
0000
2000
0000
0000
0000
,
0000
0000
3001
0100
0010
1000
0001
0000
,
0101
1010
1001
2000
,
3010
0100
0002
0000
0013
0100
2000
0000
,
3100
0000
0010
0000
0001
0000
0000
0100
0000
0000
0010
0000
2000
0000
0000
0000
,
3000
0001
0002
0000
0003
0010
0020
0000
,
0030
0100
0200
0000
0300
0000
1000
0010
,
0100
0000
0001
0000
1000
0000
0010
0100
0010
0000
1000
0000
0100
0010
0001
0000
,
1000
0001
1000
0000
1001
0000
0001
0010
,
0100
0000
1000
0000
0001
0000
0010
0100
0010
0000
0001
0000
0100
0010
1000
0000
,
0001
1000
0001
0000
1001
0000
1000
0100
,
0010
0000
0001
0000
1000
0000
0100
0010
0100
0000
1000
0000
0010
0100
0001
0000
,
1000
0000
0001
0000
1000
0000
0000
0000
1001
0000
0000
0000
0001
0010
0001
0010
,
0001
0000
0000
0000
1000
0010
1000
0010
1000
0000
0000
0000
1001
0000
0000
0000
,
0110
0000
1001
0000
1000
0010
0100
0001
,
1000
0000
0100
0010
0001
0000
1000
0001
,
1000
0001
1000
0000
0000
0000
0000
0000
;
#NOTEDATA:;
#STEPSTYPE:dance-double;
#DIFFICULTY:Easy;
#METER:8;
#NOTES:
00000000
00000000
00000000
00000000
,
00000000
00000000
00000000
00000000
,
00000000
00000000
00000000
00000000
,
00000000
00000000
00000000
00000000
,
00000000
00000000
00000000
00000000
,
00000000
00000000
00000000
00000000
,
00001000
00010000
00001000
00000000
,
00010000
00001000
00010000
00000000
,
00001000
00010000
00000100
00001000
,
00000100
00000000
00000110
00000000
,
00000001
00001000
00000001
00000000
,
00001000
00000100
00001000
00000000
,
00000100
00010000
00000100
00000000
,
00010000
00001000
00010000
00000000
,
00001000
01000000
00001000
00000000
,
01000000
00010000
01000000
00000000
,
00100000
01000000
00100000
00000000
,
10000000
00010000
10000000
00000000
,
00010000
10000000
00010000
10000000
,
00010000
01000000
00010000
00000000
,
01000000
00001000
01000000
00001000
,
00010000
00001000
00010000
00000000
,
00001000
00010000
00001000
00010000
,
00000100
00010000
00000100
00000000
,
00001000
00000100
00001000
00000100
,
00000010
00000100
00000010
00000000
,
00000001
00000010
00000100
00001000
,
00000100
00010000
00001000
00000000
,
00010000
00001000
01000000
00010000
,
01000000
00100000
10000000
00000000
,
00010000
10000000
00100000
01000000
,
00010000
01000000
00001000
00000000
,
00010000
00001000
00010000
00000100
,
00001000
00000100
00000010
00000000
,
00000002
00000000
00000000
00000003
,
00000001
00000010
00000100
00000000
,
00001000
00000010
00000100
00000000
,
00001000
00010000
00001000
00000000
,
00010000
00001000
01000000
00000000
,
00010000
00100000
01000000
00000000
,
10000000
00100000
01000000
00010000
,
00100000
00001000
00010000
00000000
,
00011000
00000000
00000000
00000000
,
00010000
00000000
00001000
00000000
,
00000010
00000000
00000000
00000000
,
00000001
00000000
00001000
00000000
,
00000100
00000000
00000000
00000000
,
00010000
00000000
00001000
00000000
,
00020000
00000000
00000000
00030000
,
00002000
00000000
00000000
00003000
,
00100000
00000000
00010000
00000000
,
00100000
01000000
00100000
00000000
,
00010000
00000000
10000000
00000000
,
01000000
00100000
01000000
00000000
,
00010000
00001000
00010000
00000000
,
00000010
00010000
00000010
00000000
,
00001000
00000000
00000010
00000000
00001000
00000001
00001000
00000000
,
00000002
00000000
00000000
00000003
,
00000001
00000010
00000100
00001000
,
00000100
00010000
00000100
00000000
00010000
00000000
00000000
00000000
,
00001000
01000000
00010000
01000000
,
00100000
10000000
00100000
00000000
10000000
00000000
00000000
00000000
,
00010000
10000000
01000000
00100000
,
00010000
00100000
00010000
00000000
00100000
00000000
00000000
00000000
,
00001000
00010000
00000010
00001000
,
00000010
00000100
00000010
00000000
00001000
00000000
00000000
00000000
,
00000001
00000100
00000010
00001000
,
00000010
00010000
00000010
00000000
00010000
00000000
00000000
00000000
,
00001000
00100000
00010000
00100000
,
01000000
10000000
01000000
00000000
10000000
00000000
00000000
00000000
,
00010000
10000000
00100000
01000000
,
00010000
01000000
00010000
00000000
01000000
00000000
00000000
00000000
,
00001000
00010000
00000100
00001000
,
00000100
00000010
00000100
00000000
00001000
00000000
00000000
00000000
,
00000001
00000000
00000000
00000000
00001000
00000010
00001000
00000000
,
00000010
00010000
00001000
00000000
,
00010000
00000000
00000000
00000000
00001000
01000000
00001000
00000000
,
01000000
00010000
10000000
00000000
,
10000000
01000000
00010000
00000000
,
00001000
00000010
00000001
00000000
,
00002000
00003000
00000020
00000030
,
00020000
00030000
00002000
00003000
,
00010000
00001000
01000000
00010000
,
00100000
01000000
10000000
00000000
00010000
00000000
00000000
00000000
,
10000000
00100000
01000000
00001000
,
00010000
00000010
00001000
00000000
00000010
00000000
00000000
00000000
,
00001000
00000001
00001000
00000100
,
00010000
00001000
00010000
00000000
01000000
00000000
00000000
00000000
,
10000000
00100000
01000000
00010000
,
00100000
00000000
00001000
00010000
00001000
00000000
00000000
00000000
,
00010000
00010000
00000000
00000000
00001000
00001000
00000000
00000000
,
00010000
00000000
00000100
00000010
00000100
00000000
00000000
00000000
;
#NOTEDATA:;
#STEPSTYPE:dance-double;
#DIFFICULTY:Medium;
#METER:12;
#BPMS:0=98.5,20=197,50=98.5,51=197,81=329.67,81.5=189.793,81.791667=102.779,82=197,147=98.5,163=197;
#NOTES:
00000000
00000000
00000000
00000000
,
00000000
00000000
00000000
00000000
,
00000000
00000000
00000000
00000000
,
00001000
00000000
00010000
00000000
00001000
01000000
00001000
00000000
00100000
00000000
00010000
00000000
01000000
00100000
01000000
00000000
,
00100000
00000000
10000000
00000000
00010000
10000000
00010000
00000000
01000000
00000000
00100000
00000000
02200000
00000000
03300000
00000000
,
10000000
00100000
01000000
00010000
10000000
01000000
00100000
00000000
,
00010000
00110000
00101000
00011000
,
00001000
00010000
00000010
00001000
00000100
00000010
00000001
00000000
,
00001000
00001010
00001001
00000011
,
00000010
00000001
00000010
00000100
00001000
00000100
00010000
00000000
,
00001000
00011000
01001000
01010000
,
00010000
01000000
00010000
00100000
01000000
10000000
00010000
00000000
,
10000000
01000000
00010000
00000000
00002000
00003000
00001000
00010000
,
00001000
00010000
00001000
00000000
00010000
00000000
00000010
00001000
,
00000010
00001000
00000010
00000000
00000100
00000000
00000001
00001000
,
00000001
00001000
00000001
00000000
00000010
00000000
00000100
00001000
,
00000100
00000000
00010000
00000000
00001000
00000000
00010000
00001000
,
00010000
00001000
00010000
00000000
00001000
00000000
00100000
00010000
,
00100000
00010000
00100000
00000000
01000000
00000000
10000000
00010000
,
10000000
00010000
10000000
00000000
00100000
00000000
01000000
00010000
,
01000000
00002000
00003000
00001000
,
00010000
00000000
00000100
00001000
00000100
00000010
00000000
00000001
,
00001000
00000001
00000000
00000100
00000010
00000000
00001000
00000000
,
00000100
00000000
00010000
00001000
00010000
00001000
00000000
00100000
,
00010000
00100000
00000000
01000000
10000000
00000000
00010000
00000000
,
10000000
00000000
00100000
01000000
00010000
01000000
00000000
00001000
,
01000000
00001000
00000000
00010000
00001000
00000000
00010000
00000000
,
00000010
00000000
00001000
00000010
00000100
00000010
00000000
00001000
,
00000001
00001000
00000001
00000000
00000010
00000000
00000200
00000000
,
00000000
00000000
00000000
00000000
00000300
00000000
00001000
00000001
,
00001000
00000001
00001000
00000010
00001000
00000000
00000010
00010000
,
00000010
00010000
00001000
00010000
00001000
00000000
00010000
00001000
,
01000000
00010000
02000000
00000000
03000000
00000000
00010000
00000000
,
00100000
00000000
01000000
10000000
00010000
00000000
00100000
00000000
,
00001000
00000000
00010000
00000010
00001000
00000000
00000010
00000100
,
00000010
00000000
00001000
00000001
00001000
00000001
00000000
00000100
,
00000010
00001000
00000000
00000010
00010000
00000000
00002000
00000000
,
00000000
00013000
00001000
02000000
,
00000000
03010000
10000000
02000000
,
00000000
03100000
00001000
00020000
,
00000000
00031000
00010000
00002000
,
00000000
00000000
00003000
00000020
,
00000000
00000000
00000030
00000002
,
00000000
00000000
00000003
00000200
,
00000000
00000000
00000300
00000010
,
00000010
00010000
00010000
00001000
,
00001000
00000000
01000000
00000000
01000000
00000000
00010000
01000000
,
00010000
00000000
10000000
00010000
10000000
00000000
00010000
00000000
,
00000000
00000000
00000000
00000000
00000000
00000000
10000000
00100000
,
01000000
00010000
00100000
01000000
10000000
00000000
01000000
00000000
,
00010000
00001000
00010000
00000000
00000000
00000000
00001000
00000010
,
00000001
00001000
00000100
00000010
00000001
00000000
00000100
00000000
,
00000010
00001000
00000001
00000000
00000000
00000000
00000001
00000010
,
00000100
00001000
00000010
00000100
00000001
00000000
00000100
00000000
,
00001000
00010000
00001000
00000000
00000000
00000000
00010000
00100000
,
10000000
00010000
01000000
00100000
10000000
00000000
01000000
00000000
,
00100000
00010000
10000000
00000000
00000000
00000000
00010000
10000000
,
01000000
00000000
00010000
00001000
00100000
00000000
00001000
00010000
,
00001000
00000010
00000001
00000000
00000000
00000000
00001000
00000001
,
00000100
00000000
00001000
00010000
00000010
00000000
00010000
00001000
,
00010000
00100000
10000000
00000000
00000000
00000000
00010000
10000000
,
01000000
00100000
00001000
00010000
00001000
00000000
00010000
00000010
,
00001000
00000010
00000100
00000000
00000001
00000000
00001000
00000001
,
00000100
00000010
00010000
00001000
00010000
00000000
00001000
00100000
,
00010000
00100000
01000000
00000000
10000000
00000000
00020000
00000000
,
00000000
00000000
10030000
01000000
00100000
00000000
00010000
00000000
,
00100000
00001000
00010000
00000000
00000000
00000000
00002000
00000000
,
00000000
00000000
00013000
00000100
00001000
00000000
00000010
00000000
,
00000100
00000001
00001000
00000000
00000000
00000000
00000002
00000000
,
00000000
00001003
00000020
00000000
00000000
00010030
00002000
00000000
,
00000000
00000000
00103000
00000000
00010000
00000000
00000000
00100000
00000000
00000000
01000000
00000000
20000000
00000000
00000000
00000000
,
00000000
30020000
00000000
02030000
,
00000000
00000000
03002000
00000000
00000000
00000000
00013000
00000010
,
00000100
00000001
00000010
00000100
00001000
00000000
00000100
00010000
,
00001000
00010000
01000000
00000000
10000000
00000000
00100000
01000000
,
00010000
00100000
00001000
00010000
00000010
00000000
00001000
00000100
,
00000001
00000100
00001000
00000000
00000001
00000000
00001000
00000010
,
00001000
00000100
00010000
00001000
00100000
00010000
01000000
00100000
,
10000000
01000000
00100000
00000000
00010000
00000000
00100000
00001000
,
00100000
00000000
00001000
00010000
00001000
00000000
00010000
00000100
,
00001000
00000100
00000010
00000000
00000000
00000000
00000001
00000100
,
00000000
00000000
00001000
00010000
00000000
00000000
00100000
01000000
,
00100000
01000000
00100000
00000000
00000000
00000000
00000000
00000000
;
#NOTEDATA:;
#STEPSTYPE:dance-double;
#DIFFICULTY:Hard;
#METER:15;
#BPMS:0=98.5,20=197,50=98.5,51=197,81=329.67,81.5=189.793,81.791667=102.779,82=197,147=98.5,163=197;
#NOTES:
00000000
00000000
00000000
00000000
,
00000000
00000000
00000000
00000000
,
00000000
00000000
00000000
00000000
,
00001000
00000000
00010000
00000000
00000100
00001000
00000100
00000000
00000010
00000001
00001000
00000001
00000010
00000000
00000100
00000000
,
00010000
00001000
00010000
00000000
00001000
01000000
00001000
00000000
01000000
00010000
01000000
00100000
20000000
00000000
30010000
00000000
,
10000000
00000000
01000000
00100000
01000000
00000000
00100000
00000000
00010000
00000000
00100000
00010000
00100000
00000000
00001000
00000000
,
00010000
00000000
00011000
00000000
00001000
00010000
00001000
00000000
,
00010000
00000000
00000010
00010000
00000010
00000000
00001000
00000000
00000010
00000000
00000100
00000001
00000100
00000000
00000001
00000000
,
00001000
00000000
00001001
00000000
00001000
00000100
00000010
00000000
,
00000001
00000000
00000100
00000010
00000100
00000000
00000010
00000000
00001000
00000000
00000010
00001000
00000010
00000000
00010000
00000000
,
00001000
00000000
00011000
00000000
00010000
00001000
00010000
00000000
,
00001000
00000000
00100000
00001000
00100000
00000000
00010000
00000000
00100000
00000000
01000000
10000000
01000000
00000000
10000000
00000000
,
00010000
00000000
01100000
00000000
20020000
30030000
10000000
01000000
,
00100000
00000000
00010000
00000000
10000000
01000000
00100000
00000000
00010000
00000000
00000000
00000000
01000000
00000000
00010000
00000000
,
00100000
00000000
00001000
00000000
01000000
00010000
00100000
00000000
00001000
00000000
00000000
00000000
00010000
00000000
00000010
00000000
,
00001000
00000000
00000100
00000000
00010000
00000010
00001000
00000000
00000100
00000000
00000000
00000000
00001000
00000000
00000100
00000000
,
00000010
00000000
00000001
00000000
00001000
00000100
00000010
00000000
00000001
00000000
00000000
00000000
00001000
00000000
00000010
00000000
,
00000100
00000000
00000001
00000000
00001000
00000010
00000100
00000000
00000001
00000000
00000000
00000000
00001000
00000000
00000100
00000000
,
00010000
00000000
00001000
00000000
00010000
00000010
00010000
00000000
00001000
00000000
00000000
00000000
00010000
00000000
00001000
00000000
,
01000000
00000000
00010000
00000000
00100000
00010000
00100000
00000000
01000000
00000000
00000000
00000000
10000000
00000000
01000000
00000000
,
00100000
00000000
00010000
00000000
20000000
00000000
00000000
00000000
30000000
00000000
00000000
00000000
00010000
00000000
10000000
01000000
,
10000000
00000000
00010000
01000000
00010000
00000000
00100000
00000000
00001000
00000000
00010000
00000000
00000000
00000000
00010000
00000000
,
00000010
00000000
00001000
00000000
00000010
00000000
00000100
00000000
00000001
00000000
00000000
00000000
00001000
00000000
00000001
00000100
,
00000001
00000000
00001000
00000100
00001000
00000000
00000010
00000000
00010000
00000000
00001000
00000000
00000000
00000000
00001000
00000000
,
00100000
00000000
00010000
00000000
00100000
00000000
01000000
00000000
10000000
00000000
00000000
00000000
00010000
00000000
10000000
00100000
,
10000000
00000000
00010000
00100000
00010000
00000000
01000000
00000000
00001000
00000000
00010000
00000000
00000000
00000000
00010000
00000000
,
00000100
00000000
00001000
00000000
00000100
00000000
00000010
00000000
00000001
00000000
00000000
00000000
00001000
00000000
00000001
00000010
,
00000001
00000000
00001000
00000010
00001000
00000000
00000100
00000000
00010000
00000000
00001000
00000000
00000000
00000000
00001000
00000000
,
01000000
00010000
01000000
00100000
10000000
00000000
00020000
00000000
,
00000000
00000000
00000000
00000000
00030000
00000000
10000000
00010000
,
00100000
00000000
00001000
00000000
00010000
00000000
00000100
00000000
00001000
00000000
00000000
00000000
00000001
00000000
00000100
00000010
,
00000100
00000000
00000010
00001000
00000010
00000000
00001000
00000000
00000100
00000000
00010000
00000000
00000000
00000000
00010000
00000000
,
00001000
00000000
00010000
00000000
00002000
00000000
00000000
00000000
00003000
00000000
00000000
00000000
00010000
00000000
00001000
01000000
,
00001000
00000000
00100000
00010000
00100000
00000000
01000000
00000000
10000000
00000000
00010000
00000000
00000000
00000000
00010000
00000000
,
00100000
00001000
00010000
00000010
00001000
00000000
00000001
00000010
,
00000100
00000000
00001000
00000000
00000100
00000000
00010000
00001000
00010000
00000000
00001000
00000000
00000000
00000000
00001000
00000000
,
00010000
00000000
01000000
00000000
10000000
00000000
00010000
10000000
00010000
00000000
00000000
00000000
20000000
00000000
00000000
00000000
,
00000000
32000000
03200000
00302000
,
00000000
00000000
00013000
00001000
00000010
00001000
00020000
00000000
,
00000000
00032000
00003200
00000302
,
00000000
00000000
00000000
00000000
00002003
00000000
00000000
00000000
00000000
00000000
00003001
00000100
00000010
00000000
00000000
00000000
,
00000010
00001000
00001000
00010000
,
00010000
01000000
01000000
00100000
,
00100000
10000000
10000000
00010000
,
00010000
00100000
00100000
00002000
,
00000000
00000000
00000000
00023000
,
00000000
00000000
00000000
00000000
00000000
00000000
00031000
00010000
,
00001000
00000000
00010000
00000000
00001000
00010000
00001000
00010000
00001000
00010000
00001000
00010000
00001000
00000000
00000000
00000000
,
00000000
00000000
00000000
00000000
00000000
00000000
00000000
00000000
00000000
00000000
00000000
00000000
00010000
00000000
00000010
00010000
,
00000010
00000000
00001000
00000010
00001000
00000000
00000000
00000000
00001001
00000000
00000000
00000000
00000001
00000000
00000100
00000000
,
00001000
00000000
00000100
00000000
00000001
00000000
00000000
00000000
00001000
00000001
00001000
00000000
00000100
00000000
00010000
00000100
,
00010000
00000000
00001000
00010000
00001000
00000000
00000000
00000000
00011000
00000000
00000000
00000000
00001000
00000000
00010000
00000000
,
00100000
00000000
00010000
00000000
00001000
00000000
00000000
00000000
00010000
00001000
00010000
00000000
00001000
00000000
01000000
00001000
,
01000000
00000000
00010000
01000000
00010000
00000000
00000000
00000000
10010000
00000000
00000000
00000000
10000000
00000000
01000000
00000000
,
00010000
01000000
10000000
00000000
00010000
00100000
01000000
00010000
,
00001000
00010000
01000000
00100000
00010000
00001000
00000100
00000000
,
00000110
00000000
00000000
00000000
00001001
00000000
00000000
00000000
00001000
00000100
00000010
00000000
00000001
00000000
00000100
00000010
,
00001000
00000000
00000010
00010000
00001000
00000000
00000000
00000000
00001000
00000000
00010000
00000000
01000000
00000000
10000000
00000000
,
00010000
00000000
00000000
00000000
10010000
00000000
00000000
00000000
00010000
01000000
00100000
00000000
10000000
00000000
01000000
00100000
,
00010000
00000000
00100000
00001000
00010000
00000000
00000000
00000000
00010000
00000000
00001000
00000000
00000100
00000000
00000001
00000000
,
00001000
00000000
00000000
00000000
00001001
00000000
00000000
00000000
00000001
00001000
00000100
00000000
00000010
00000000
00000100
00001000
,
00000100
00000000
00010000
00001000
00010000
00000000
00000000
00000000
00001000
00000000
00010000
00000000
01000000
00000000
10000000
00000000
,
00010000
00100000
01000000
00000000
10000000
01000000
00010000
00010000
,
00001000
00000010
00000001
00000001
00000100
00000010
00010000
00001000
,
00010000
00000000
00000000
00000000
00011000
00000000
00000000
00000000
00001000
00010000
00001000
00000000
00020000
00000000
00000000
00000000
,
00000000
00000000
00031000
00010000
00100000
10000000
00010000
01000000
,
00100000
00000000
00000000
00000000
10100000
00000000
00000000
00000000
10000000
00010000
10000000
00000000
00020000
00000000
00000000
00000000
,
00000000
00000000
10030000
01000000
00100000
00010000
00001000
00000000
,
00001100
00000110
00000011
00000002
,
00000103
00000010
00002000
00000000
00003100
00010000
00002000
00000000
,
00103000
00000000
00010000
00000000
01000000
00000000
00000000
00100000
00000000
00000000
10000000
00000000
00020000
00000000
00000000
00000000
,
00030000
00100000
00200000
00000000
00300000
00001000
00002000
00000000
,
00003000
00010000
00020000
00000000
00030000
00000000
00001000
00000010
,
00000001
00000100
00001000
00010000
00100000
10000000
01000000
00010000
,
00001000
00000000
00000000
00000000
00011000
00000000
00000000
00000000
00001000
00010000
00001000
00000000
00010000
00000000
00100000
00000000
,
10000000
01000000
00010000
00001000
00000010
00000001
00000100
00001000
,
00010000
00000000
00000000
00000000
00011000
00000000
00000000
00000000
00010000
00001000
00010000
00000000
00001000
00000000
00000100
00000000
,
00000001
00000010
00001000
00010000
01000000
10000000
00100000
00010000
,
00001000
00000000
00000000
00000000
00011000
00000000
00000000
00000000
00001000
00000000
00010000
00000000
00000100
00010000
00000100
00000000
,
00010000
00000000
00000000
00000000
00001000
01000000
00001000
00000000
01000000
00000000
00000000
00000000
00001000
00000000
00010000
00000000
,
00001000
00000000
00011000
00000000
00001000
00010000
00100000
10000000
,
01000000
00100000
00010000
00001000
00000100
00000010
00000001
00001000
,
00000100
00000010
00000001
00000000
00000000
00000000
00000000
00000000
;
