
//----- song ID: cuec -----//
#TITLE:CUE CUE RESCUE;
#ARTIST:TORIENA;
#BANNER:CUE CUE RESCUE.png;
#BACKGROUND:CUE CUE RESCUE-bg.png;
#CDTITLE:./CDTitles/bm IIDX 30 RESIDENT.png;
#MUSIC:CUE CUE RESCUE.ogg;
#SAMPLESTART:67.5;
#SAMPLELENGTH:15;
#BPMS:0=160;
#NOTES:
     dance-single:
     :
     Beginner:
     2:
     :
0000
0000
0000
0000
,
0000
0000
0000
0000
,
0000
0000
0000
0000
,
0000
0000
0000
0000
,
0000
0000
0000
0000
,
0001
0000
0000
0000
,
0000
0000
0000
0000
,
0001
0000
0000
0000
,
0000
0000
0000
0000
,
0010
0000
0000
0000
,
0000
0000
0000
0000
,
0010
0000
0000
0000
,
0000
0000
0000
0000
,
1000
0000
0000
0000
,
0000
0000
0000
0000
,
1000
0000
0000
0000
,
0000
0000
0000
0000
,
0100
0000
0000
0000
,
0000
0000
0000
0000
,
0100
0000
0000
0000
,
0000
0000
0000
0000
,
1000
0000
0000
0000
,
1000
0000
0000
0000
,
0010
0000
0000
0000
,
0000
0000
0000
0000
,
0010
0000
0000
0000
,
0010
0000
0000
0000
,
0001
0000
0000
0000
,
0000
0000
0000
0000
,
0001
0000
0000
0000
,
0001
0000
0000
0000
,
0100
0000
0000
0000
,
0000
0000
0000
0000
,
0001
0000
0000
0000
,
0001
0000
0000
0000
,
0010
0000
0000
0000
,
0000
0000
0000
0000
,
1001
0000
0000
0000
,
0000
0000
0000
0000
,
1001
0000
0000
0000
,
0000
0000
0000
0000
,
1001
0000
0000
0000
,
0000
0000
0000
0000
,
1001
0000
0000
0000
,
0000
0000
0000
0000
,
1000
0000
0000
0000
,
1000
0000
0000
0000
,
0100
0000
0000
0000
,
0000
0000
0000
0000
,
1000
0000
0000
0000
,
1000
0000
0000
0000
,
0010
0000
0000
0000
,
0000
0000
0000
0000
,
0010
0000
0000
0000
,
0010
0000
0000
0000
,
1000
0000
0000
0000
,
0000
0000
0000
0000
,
0010
0000
0000
0000
,
0010
0000
0000
0000
,
0001
0000
0000
0000
,
0000
0000
0000
0000
,
1001
0000
0000
0000
,
0000
0000
0000
0000
,
1001
0000
0000
0000
,
0000
0000
0000
0000
,
1001
0000
0000
0000
,
0000
0000
0000
0000
,
1001
0000
0000
0000
,
0000
0000
0000
0000
,
1001
0000
0000
0000
,
0000
0000
0000
0000
;
#NOTES:
     dance-single:
     :
     Easy:
     4:
     :
0000
0000
0000
0000
,
0000
0000
0000
0000
,
0000
0000
0000
0000
,
0000
0000
0000
0000
,
0000
0000
0000
0000
,
0001
0000
1000
0000
,
0001
1000
0001
0000
,
0010
0000
0100
0000
,
0010
0100
0010
0000
,
0110
0000
0000
0000
,
1001
0000
0000
0000
,
1000
0000
0100
0000
,
0010
0001
0010
0000
,
0002
0000
0000
0003
,
2000
0000
0000
3000
,
0020
0000
0000
0030
,
0200
0000
0000
0300
,
0001
1000
0001
0000
,
0100
0000
0010
0000
,
1000
0001
1000
0000
,
0100
0000
0010
0010
,
0001
0000
0001
0000
,
0001
0001
0001
0000
,
0010
0000
0010
0000
,
0010
0010
0010
0000
,
0100
0000
0100
0000
,
0100
0100
0100
0000
,
1000
0000
1000
0000
,
1000
1000
1000
0000
,
0020
0000
0000
0030
,
0200
0000
0000
0300
,
0020
0000
0000
0030
,
0200
0000
0000
0300
,
0110
0000
0000
0000
,
1001
0000
0000
0000
,
1000
0000
0010
0000
,
0100
0001
0100
0000
,
0001
0001
0001
0000
,
1000
0000
1000
0000
,
0010
0010
0010
0000
,
0100
0000
0100
0000
,
0002
0000
0000
0003
,
1000
1000
1000
0000
,
0020
0000
0000
0030
,
0100
0100
0100
0000
,
0001
0010
0100
0000
,
0010
0100
1000
0000
,
0001
0000
1000
0000
,
1001
0000
0000
0000
,
1000
0010
0100
0000
,
0010
0100
0001
0000
,
1000
0000
0001
0000
,
1001
0000
0000
0000
,
0001
1000
0100
0000
,
1000
0001
0010
0000
,
0001
0000
1000
0000
,
1001
0000
0000
0000
,
1000
0001
0010
0000
,
0001
1000
0010
0000
,
0100
0000
0010
0000
,
0110
0000
0000
0000
,
1000
1000
1000
0000
,
0001
0000
0001
0000
,
0100
0100
0100
0000
,
0010
0000
0010
0000
,
2000
0000
0000
3000
,
0001
0001
0001
0000
,
0200
0000
0000
0300
,
0010
0010
0010
0000
,
1001
0000
0000
0000
,
0000
0000
0000
0000
;
#NOTES:
     dance-single:
     :
     Medium:
     11:
     :
0000
0000
0000
0000
,
0000
0000
0000
0000
,
0000
0000
0000
0000
,
0000
0000
0000
0000
,
0000
0000
0000
0000
,
0001
0100
0010
0000
0100
0000
0010
0000
,
1000
0100
0010
0000
0100
0000
0010
0000
,
0001
1000
0001
0000
1000
0001
1000
0000
,
0010
0100
0110
1001
,
2000
0100
3100
0000
,
0200
0010
0310
0000
,
0002
0100
0103
0000
,
0200
0010
0310
0000
,
1000
0100
1000
1000
,
0001
0100
0001
0001
,
1000
0010
1000
1000
,
0001
0010
0001
0001
,
1000
0100
0010
0000
0100
0000
1000
0000
,
0001
0100
0010
0000
0100
0000
0001
0000
,
1000
0010
1000
0000
0001
0010
0001
0000
,
1000
0001
1000
0001
2000
0000
3002
0000
,
1003
0100
0001
0000
0100
0000
1000
0000
,
0001
0100
1000
0000
0100
0000
0001
0000
,
1000
0100
0001
0000
0100
0000
1000
0000
,
0001
0100
1000
0000
0100
0000
0001
0000
,
1000
0010
0001
0000
0010
0000
1000
0000
,
0001
0010
1000
0000
0010
0000
0001
0000
,
1000
0010
0001
0000
0010
0000
1000
0000
,
0001
0010
1000
0000
0010
0000
0001
0000
,
1000
1100
1000
1100
,
0001
0101
0001
0101
,
1000
1010
1000
1010
,
0001
0011
0001
0011
,
1001
0000
0000
1001
0000
0000
0000
0000
,
1000
1001
0001
1001
,
0100
0110
0010
0110
,
0001
1000
0001
0000
1000
0000
0000
0000
,
1010
0000
1100
0000
,
0001
0010
0001
0000
0010
0000
0000
0000
,
0011
0000
0101
0000
,
1000
0010
1000
0000
0010
0000
0000
0000
,
0110
0000
1001
0000
,
0001
0100
0010
0000
1000
0000
0000
0000
,
0110
0000
1001
0000
,
1000
0100
0010
0000
0002
0000
2003
0000
,
3001
0100
0010
1000
0001
0100
0010
0000
,
1000
0100
0010
0001
1000
0100
0010
0000
,
0001
0100
0010
0100
0001
1000
0100
0000
,
0010
0001
1000
0100
1000
0001
0100
0000
,
0001
0010
0100
1000
0010
0100
0010
0000
,
1000
0010
0100
0001
1000
0001
0010
0000
,
0100
1000
0010
1000
0100
0010
0001
0000
,
1000
0100
0001
0100
1000
0000
1001
0000
,
0001
0010
0100
1000
0001
0100
0010
0000
,
1000
0010
0001
0010
1000
0001
0100
0000
,
0001
0010
0100
0001
0100
0010
0001
0000
,
0100
0010
0001
0010
1000
0001
0100
0000
,
0010
0100
1000
0100
0001
1000
0100
0000
,
0010
0001
0010
1000
0010
0100
1000
0000
,
0001
0100
0010
1000
0100
0010
0100
0000
,
1000
0010
0001
0010
1000
0000
1001
0000
,
0101
0000
0011
0000
,
1000
0100
1000
0000
0100
0000
0000
0000
,
1100
0000
1010
0000
,
0001
0100
0001
0000
0100
0000
0000
0000
,
0110
0000
1001
0000
,
1000
0010
0100
0000
0001
0000
0000
0000
,
0110
0000
1001
0000
,
0001
0010
0100
0000
2000
0000
3002
0000
,
1003
0000
0000
0000
,
0000
0000
0000
0000
;
#NOTES:
     dance-single:
     :
     Hard:
     15:
     :
0000
0000
0000
0000
,
0000
0000
0000
0000
,
0000
0000
0000
0000
,
0000
0000
0000
0000
,
0000
0000
0000
0000
,
0001
0100
0010
0100
0001
0100
0010
0000
,
1000
0100
0010
0100
1000
0100
0010
0000
,
0001
0100
1000
0100
0001
0100
1000
0100
,
0001
0000
1000
0000
0200
0000
0000
0000
0310
0000
0001
0000
1000
0001
1000
0001
,
1000
0100
0010
0001
0100
0100
0010
0010
,
1000
0010
0001
0010
2000
0000
3010
0010
,
0000
0010
0100
0001
2000
0001
0001
3001
,
1000
0100
0010
0001
0110
0000
1001
0000
,
1000
0100
0010
0000
0001
0010
0001
0000
1000
0000
0001
1000
0100
0000
0010
0000
,
0001
0100
0010
0000
1000
0010
1000
0000
0001
0000
0100
0000
0001
1000
0001
0000
,
0100
0010
0100
0000
0001
0010
0100
1000
0001
0000
0100
0010
1000
0000
0010
1000
,
0001
0100
0001
0000
1000
0100
0010
0001
1000
0000
0010
0100
0010
0000
0000
0000
,
1000
0100
1000
0000
0100
0010
0100
0000
0010
0001
0010
0000
0001
0000
1000
0000
,
0001
0100
0001
0000
0100
0010
0100
0000
0010
1000
0010
0000
1000
0000
0001
0000
,
1000
1100
0110
0011
,
0010
0000
0001
0000
1000
0100
0010
0001
2000
0000
0000
0000
3002
0000
0000
0000
,
1003
0100
0001
0100
1000
0100
0001
0100
,
1000
0100
0001
0100
1000
0100
1100
0101
,
0001
0100
1000
0100
0001
0100
1000
0100
,
0001
0100
1000
0100
0001
0100
1001
0000
,
1000
0010
0001
0010
1000
0010
0001
0010
,
1000
0010
0001
0010
1000
0010
1010
0011
,
0001
0010
1000
0010
0001
0010
1000
0010
,
0110
0000
0110
1001
,
1000
0100
0000
0010
0001
0000
1000
0100
0000
0010
0001
0000
1000
0100
0010
0000
,
0001
0100
0000
0010
1000
0000
0001
0100
0000
0010
1000
0000
0001
0100
0010
0000
,
1000
0001
0000
0010
0100
0000
1000
0001
0000
0010
0100
0000
1000
0001
0010
0000
,
0100
0010
0000
0100
0010
0000
0001
0000
1000
0000
0001
0000
1001
0000
0000
0000
,
1000
0010
0000
0100
0010
0000
1000
0010
0000
0100
0010
0000
1000
0000
1000
0000
,
0001
0010
0000
0100
0010
0000
0001
0010
0100
0000
1000
0000
0001
0000
0100
0000
,
0001
0010
0000
0001
0100
0000
0010
1000
0000
0100
1000
0000
0001
0000
0100
0000
,
1000
0100
0002
0000
1003
0100
1000
1000
,
1100
0011
1100
0011
,
0001
0100
1000
0100
0001
0100
1000
0100
,
1010
0101
1010
0101
,
1000
0100
0001
0100
1000
0100
0001
0100
,
0011
0101
1010
1100
,
0001
0010
1000
0010
0001
0010
1000
0010
,
0101
0011
1100
1010
,
0010
0000
0000
0100
0000
0000
0001
0000
1000
0000
0001
0000
2000
0000
0000
0000
0000
0000
3002
0000
0000
0000
0000
0000
,
1003
0000
0100
0010
0000
0001
0000
1000
0000
0001
0000
0100
0010
1000
0010
0000
,
1000
0000
0010
0100
0000
0001
0000
1000
0000
0100
0000
0010
0001
1000
0001
0000
,
1000
0000
0010
0100
0000
0010
0000
1000
0000
0001
0000
0010
0100
1000
0100
0000
,
1000
0000
0001
0100
0000
0010
0000
1000
0000
0100
0010
0000
0001
1000
0001
1000
,
0001
0000
0100
0010
0000
1000
0000
0001
0000
1000
0000
0100
0010
0001
0010
0000
,
0001
0000
0010
0100
0000
1000
0000
0001
0000
0100
0000
0010
1000
0001
1000
0000
,
0001
0000
0010
0100
0000
0010
0000
0001
0000
1000
0000
0010
0100
0001
0100
0000
,
0001
0000
1000
0100
0010
0001
0010
0001
2000
0000
0000
0000
3001
0000
0000
0000
,
0001
0000
0100
0010
1000
0010
0000
0100
0000
0001
0000
0010
0001
0010
0100
0000
,
1000
0000
0001
0100
0001
1000
0000
0100
0000
0010
0000
0001
1000
0001
1000
0000
,
0010
0000
0100
0001
1000
0001
0000
0010
0000
0100
0000
0010
0001
1000
0010
0000
,
0100
0001
0100
0000
0010
1000
0000
0010
0000
1000
0100
1000
0200
0000
0000
0000
,
1300
0000
0010
0100
0001
0100
0000
0010
0000
1000
0000
0100
1000
0100
0010
0000
,
0001
0000
1000
0010
1000
0001
0000
0010
0000
0100
0000
1000
0001
1000
0001
0000
,
0100
0000
0010
1000
0001
1000
0000
0100
0000
0010
0000
0100
1000
0001
0100
0000
,
0010
1000
0010
0000
0100
0001
0100
0001
2000
0000
0000
0000
3001
0000
0000
0000
,
0101
1010
0101
1010
,
1000
0100
0001
0100
1000
0100
0001
0100
,
0011
1100
0011
1100
,
0001
0100
1000
0100
0001
0100
1000
0100
,
1010
1100
0011
0101
,
1000
0010
0001
0010
1000
0010
0001
0010
,
1100
1010
0101
0011
,
0010
0000
0000
0100
0000
0000
1000
0000
0001
0000
1000
0000
0002
0000
0000
0000
0000
0000
2003
0000
0000
0000
0000
0000
,
3001
0000
0000
0000
,
0000
0000
0000
0000
;
#NOTES:
     dance-single:
     :
     Challenge:
     17:
     :
0000
0000
0000
0000
,
0000
0000
0000
0000
,
0000
0000
0000
0000
,
0000
0000
0000
0000
,
0000
0000
0000
0000
,
0001
0000
1000
0100
1000
0000
0001
0100
0001
0000
1000
0100
1000
0000
0001
0100
,
0010
0000
1000
0010
1000
0000
0001
0010
0001
0000
1000
0010
1000
0000
0001
0010
,
0001
0000
0010
0100
1000
0000
0010
0100
0001
0000
0010
0100
1000
0000
0010
0100
,
0001
0000
0010
0100
2000
0000
0000
0000
3001
0000
0100
0000
0010
0100
0010
0100
,
0001
0100
0010
1000
0100
0100
0010
0010
,
0001
0010
1000
0010
0002
0000
0013
0010
,
0000
0010
0100
1000
0002
1000
1000
1003
,
0001
0100
0010
1000
0110
0000
MMMM
0000
,
1000
0100
1000
0100
0010
0001
0100
0010
1000
0000
0001
0100
0010
0000
0100
0000
,
0001
0100
0001
0100
0010
1000
0100
0010
0001
0000
1000
0100
0010
0000
0100
0000
,
1000
0010
1000
0010
0100
0001
0010
0100
1000
0000
0001
0010
0100
0000
0010
0000
,
0001
0010
0001
0010
0100
1000
0010
0100
0001
0000
1000
0010
0100
0000
0000
0000
,
0001
0100
0010
1000
0001
0100
0010
1000
0001
0010
0100
1000
0001
0010
0100
1000
,
0001
0100
0010
1000
0001
0100
0010
1000
0001
0010
0100
1000
0001
0010
0100
1000
,
0001
MMMM
0011
MMMM
0110
MMMM
1100
MMMM
,
0100
0000
0010
0000
0001
1000
0001
1000
0002
0000
0000
0000
1003
0000
0000
0000
,
MMMM
0011
MMMM
1100
MMMM
1010
MMMM
0101
,
MMMM
0011
MMMM
1100
1000
0100
0001
0100
,
MMMM
1100
MMMM
0011
MMMM
0101
MMMM
1010
,
MMMM
1100
1000
MMMM
0010
0100
1001
0000
,
MMMM
1010
MMMM
0011
MMMM
0101
MMMM
1100
,
MMMM
1010
MMMM
0011
0001
0100
1000
0100
,
MMMM
0101
MMMM
0011
MMMM
1010
MMMM
1100
,
MMMM
0101
0001
MMMM
0010
0100
MMMM
0000
,
1000
0100
0000
0010
0100
0000
0001
0100
0000
0010
0100
1000
0001
1000
0001
1000
,
0001
0100
0000
0010
0100
0000
1000
0100
0000
0010
0100
0001
1000
0001
1000
0001
,
1000
0010
0000
0100
0010
0000
0001
0010
0000
0100
0010
1000
0001
1000
0001
1000
,
0001
0010
0000
0100
0010
0000
1000
0010
0000
0100
0010
0001
1000
0001
1000
0001
,
0100
0010
0000
0010
0100
0000
0010
0100
0000
0100
0010
0000
MMMM
0000
MMMM
0000
,
1000
0001
0000
0100
0010
0000
1000
0001
0000
0100
0010
1000
0001
0100
0010
0000
,
1000
0001
0000
0010
0100
0000
1000
0001
0000
0010
0100
1000
0001
0010
0100
0000
,
1000
0100
0000
0001
0100
0000
1000
0100
0010
0000
0010
0000
0001
0000
0001
0000
,
0011
MMMM
1100
MMMM
0011
MMMM
1100
MMMM
,
0100
1000
0010
0000
0100
0001
0010
0000
0100
1000
0010
0000
0100
0001
0010
0000
,
0101
MMMM
1010
MMMM
0101
MMMM
1010
MMMM
,
0010
1000
0100
0000
0010
0001
0100
0000
0010
1000
0100
0000
0010
0001
0100
0000
,
0101
MMMM
0011
MMMM
1100
MMMM
1010
MMMM
,
1000
0100
0001
0000
1000
0010
0001
0000
1000
0100
0001
0000
1000
0010
0001
0000
,
0011
MMMM
0101
MMMM
1010
MMMM
1100
MMMM
,
1000
0000
0000
0010
0000
0000
0001
0000
0000
0000
0000
0000
1000
0000
0000
0000
0100
0000
0000
0000
0001
0000
0000
0000
2000
0000
0000
0000
0000
0000
0000
0000
0000
0000
0000
0000
3001
0000
0000
0000
0000
0000
0000
0000
0000
0000
0000
0000
,
1000
0000
0100
0010
0001
0010
0001
0010
0000
0001
1000
0001
0100
0010
0100
0010
,
1000
0000
0010
0100
0010
1000
0010
1000
0000
0010
0100
0010
1000
0001
1000
0000
,
0001
0000
0100
0010
1000
0010
1000
0010
0000
1000
0001
1000
0100
0010
0100
0010
,
0001
0000
0010
0100
0010
0001
0010
0001
0000
0010
0100
0010
0001
1000
0001
0000
,
1000
0000
0100
0010
0001
1000
0001
0010
0000
0001
0100
0010
1000
0001
0100
0010
,
1000
0000
0010
0100
0001
1000
0001
0010
0000
0001
1000
0100
0010
0001
0010
0100
,
1000
0000
0001
0100
0010
1000
0001
0100
0000
0010
0100
0010
1000
0100
0010
0001
,
1000
0000
0100
0010
0001
1000
0010
0100
0002
0000
0000
0000
1003
0000
0000
0000
,
0001
0000
1000
0010
0100
0001
0100
0010
0000
0001
0010
0100
0001
1000
0100
0010
,
0001
0000
1000
0100
0010
0001
0010
0100
0000
0001
0100
0010
0001
1000
0100
1000
,
0001
0000
0100
0010
1000
0100
0010
0001
0000
0010
1000
0010
0100
1000
0100
0010
,
0001
0000
0010
0100
1000
0010
0100
0001
0000
0100
1000
0100
0020
0000
0000
0000
,
1030
0000
0001
0010
0100
1000
0010
0100
0000
1000
0100
0010
0100
0001
1000
0100
,
1000
0000
0001
0100
0010
1000
0100
0010
0000
1000
0010
0100
0010
0001
1000
0100
,
0010
0000
0001
0100
0010
1000
0100
0010
0000
0001
0010
0100
1000
0001
0100
0001
,
1000
0100
1000
0100
0010
0001
0010
0001
2000
0000
0000
0000
3000
0000
0000
0000
,
1100
MMMM
0011
MMMM
1100
MMMM
0011
MMMM
,
0010
0001
0100
0000
0010
1000
0100
0000
0010
0001
0100
0000
0010
1000
0100
0000
,
1010
MMMM
0101
MMMM
1010
MMMM
0101
MMMM
,
0100
0001
0010
0000
0100
1000
0010
0000
0100
0001
0010
0000
0100
1000
0010
0000
,
1010
MMMM
1100
MMMM
0011
MMMM
0101
MMMM
,
0001
0010
1000
0000
0001
0100
1000
0000
0001
0010
1000
0000
0001
0100
1000
0000
,
1100
MMMM
1010
MMMM
0101
MMMM
0011
MMMM
,
0001
0010
0200
0000
0001
0000
1300
0000
,
1001
0000
0000
0000
,
0000
0000
0000
0000
;
#NOTES:
     dance-double:
     :
     Easy:
     4:
     :
00000000
00000000
00000000
00000000
,
00000000
00000000
00000000
00000000
,
00000000
00000000
00000000
00000000
,
00000000
00000000
00000000
00000000
,
00000000
00000000
00000000
00000000
,
00001000
00000000
00010000
00000000
,
00001000
00010000
00001000
00000000
,
00010000
00000000
00100000
00000000
,
01000000
00100000
01000000
00000000
,
01100000
00000000
00000000
00000000
,
10010000
00000000
00000000
00000000
,
10000000
00000000
01000000
00000000
,
00010000
00000000
00001000
00000000
,
00020000
00000000
00000000
00030000
,
00000200
00000000
00000000
00000300
,
00002000
00000000
00000000
00003000
,
00000002
00000000
00000000
00000003
,
00000001
00000100
00000010
00000000
,
00001000
00000000
00001000
00000000
,
00000010
00010000
00001000
00000000
,
00010000
00000000
00001000
00001000
,
00010000
00000000
00001000
00000000
,
00010000
00001000
01000000
00000000
,
00010000
00000000
01000000
00000000
,
00010000
01000000
00100000
00000000
,
10000000
00000000
01000000
00000000
,
10000000
01000000
00100000
00000000
,
00010000
00000000
00100000
00000000
,
00001000
00010000
00001000
00000000
,
00020000
00000000
00000000
00030000
,
00000200
00000000
00000000
00000300
,
00002000
00000000
00000000
00003000
,
00000020
00000000
00000000
00000030
,
00000110
00000000
00000000
00000000
,
00001001
00000000
00000000
00000000
,
00000001
00000000
00000100
00000000
,
00000010
00001000
00000010
00000000
,
00001000
00000000
00000100
00000000
,
00010000
00010000
00010000
00000000
,
00001000
00000000
00100000
00000000
,
00010000
00010000
00010000
00000000
,
10000000
00000000
01000000
00000000
,
00200000
00000000
00000000
00300000
,
00100000
00000000
00001000
00000000
,
00010000
00000000
00011000
00000000
,
00010000
00000000
00001000
00000000
,
00000010
00000001
00000010
00000000
,
00000001
00000000
00001000
00000000
,
00000001
00000000
00000000
00000000
,
00000001
00000000
00000100
00000000
,
00000010
00001000
00000010
00000000
,
00010000
00000000
00001000
00000000
,
00011000
00000000
00000000
00000000
,
00001000
00000000
00010000
00000000
,
00100000
10000000
00100000
00000000
,
10000000
00000000
00010000
00000000
,
10000000
00000000
00000000
00000000
,
10000000
00000000
01000000
00000000
,
00100000
00010000
00100000
00000000
,
00001000
00000000
00010000
00000000
,
00011000
00000000
00000000
00000000
,
00001000
00000000
00010000
00000000
,
00000100
00001000
00000100
00000000
,
00000010
00000000
00000100
00000000
,
00010000
00000100
00010000
00000000
,
00001000
00000000
00100000
00000000
,
00010000
01000000
00010000
00000000
,
00200000
00000000
00000000
00300000
,
00002000
00000000
00000000
00003000
,
00011000
00000000
00000000
00000000
,
00000000
00000000
00000000
00000000
;
#NOTES:
     dance-double:
     :
     Medium:
     11:
     :
00000000
00000000
00000000
00000000
,
00000000
00000000
00000000
00000000
,
00000000
00000000
00000000
00000000
,
00000000
00000000
00000000
00000000
,
00000000
00000000
00000000
00000000
,
00001000
00010000
00001000
00000000
00010000
00000000
00100000
00000000
,
10000000
00010000
10000000
00000000
01000000
00000000
00100000
00000000
,
01000000
00100000
00010000
00000000
00100000
00001000
00010000
00000000
,
00001000
00002000
00010000
00013000
,
00001000
00010000
00000100
00000000
,
00000100
00001000
00000001
00000000
,
00000001
00000100
00001000
00000000
,
00001000
00010000
00001000
00000000
,
00001000
00100000
00001000
00100000
,
00010000
00100000
00010000
00000000
,
10000000
00100000
10000000
00100000
,
01000000
00100000
01000000
00000000
,
00010000
10000000
00010000
00000000
10000000
00000000
01000000
00000000
,
00100000
00010000
00100000
00000000
00001000
00000000
00010000
00000000
,
00001000
00010000
00000100
00000000
00001000
00000100
00000010
00000000
,
00000001
00000000
00001000
00000001
00002000
00000000
00003002
00000000
,
00001003
00000100
00000001
00000000
00000100
00000000
00001000
00000000
,
00000010
00000100
00001000
00010000
,
00010000
00100000
10000000
00000000
00100000
00000000
00010000
00000000
,
00100000
00000000
01000000
00000000
00010000
10000000
00010000
00000000
,
00010000
01000000
10000000
00000000
01000000
00000000
00010000
00000000
,
00100000
01000000
00010000
00001000
,
00001000
00000010
00000001
00000000
00000010
00000000
00001000
00000000
,
00000010
00000000
00000100
00000000
00001000
00000001
00001000
00000000
,
00000001
00000101
00000100
00000010
,
00001000
00001010
00000010
00010000
,
00001000
00011000
00010000
00001000
,
00100000
00110000
00010000
00100000
,
01000000
00000000
00000000
01100000
00000000
00000000
00000000
00000000
,
10000000
10010000
00010000
00100000
,
01000000
01100000
00100000
00001000
,
00010000
00001000
00010000
00000000
00001000
00000000
00000000
00000000
,
00011000
00000000
00011000
00000000
,
00010000
00000010
00001000
00000000
00000001
00000000
00000000
00000000
,
00001001
00000000
00001001
00000000
,
00001000
00000100
00010000
00000000
00001000
00000000
00000000
00000000
,
00011000
00000000
00011000
00000000
,
00001000
00100000
00010000
00000000
10000000
00000000
00000000
00000000
,
10010000
00000000
10010000
00000000
,
10000000
00000000
01000000
00010000
00002000
00000000
00023000
00000000
,
00031000
00000000
00010000
00000100
00001000
00000010
00000100
00000001
,
00000010
00000000
00000001
00000100
00000010
00001000
00000100
00010000
,
00001000
00000000
00010000
00001000
00100000
00010000
01000000
00100000
,
10000000
00000000
01000000
00010000
01000000
00000000
10000000
00010000
,
10000000
00000000
00100000
01000000
00010000
00100000
00001000
00010000
,
00000100
00000000
00001000
00000010
00000100
00000001
00000010
00000100
,
00001000
00000000
00000001
00000010
00000100
00010000
00001000
00100000
,
00010000
00000000
01000000
00100000
20000000
00000000
30010000
00000000
,
10010000
00000000
10000000
01000000
00010000
01000000
00100000
00001000
,
00010000
00000000
00001000
00010000
00000010
00001000
00000100
00000001
,
00000100
00000000
00001000
00000001
00000100
00000010
00001000
00000100
,
00000010
00000000
00000100
00010000
00001000
00100000
00001000
00000000
,
00011000
00000000
00010000
00001000
00100000
00010000
01000000
00100000
,
00010000
00000000
00100000
10000000
00100000
01000000
00010000
00100000
,
00010000
00000000
00100000
00001000
00010000
00001000
00000010
00000001
,
00000100
00000010
00000100
00000000
00002000
00000000
00013000
00000000
,
00011000
00000000
00011000
00000000
,
00001000
01000000
00010000
00000000
10000000
00000000
00000000
00000000
,
10010000
00000000
10010000
00000000
,
00010000
00100000
00001000
00000000
00010000
00000000
00000000
00000000
,
00011000
00000000
00011000
00000000
,
00010000
00000100
00001000
00000000
00000001
00000000
00000000
00000000
,
00001001
00000000
00001001
00000000
,
00000001
00000000
00000010
00001000
00020000
00000000
00032000
00000000
,
00013000
00000000
00000000
00000000
,
00000000
00000000
00000000
00000000
;
#NOTES:
     dance-double:
     :
     Hard:
     15:
     :
00000000
00000000
00000000
00000000
,
00000000
00000000
00000000
00000000
,
00000000
00000000
00000000
00000000
,
00000000
00000000
00000000
00000000
,
00000000
00000000
00000000
00000000
,
00001000
00010000
00001000
00010000
00100000
01000000
00100000
00000000
,
01000000
00100000
01000000
00100000
10000000
00010000
10000000
00000000
,
00010000
00100000
01000000
00100000
00001000
00010000
00001000
00000000
,
00010000
00000000
00000100
00000000
00001000
00000000
00000100
00000000
00000010
00000000
00000001
00000000
00001000
00000001
00001000
00000001
,
00001000
00000100
00000010
00000001
00001000
00001000
00000100
00000100
,
00010000
00001000
00010000
00001000
00200000
00000000
00310000
10000000
,
00000000
10000000
00100000
01000000
00010000
00100000
00010000
00100000
,
00001000
00010000
00000000
00010000
00001000
00000000
00011000
00000000
,
00001000
00010000
00001000
00000000
00010000
00000010
00010000
00000000
00000010
00000000
00001000
00000001
00000100
00000000
00000001
00000000
,
00000010
00000100
00000010
00000000
00000001
00000100
00000010
00000000
00001000
00000000
00000001
00000000
00001000
00000000
00000000
00000000
,
00000001
00000010
00000100
00000000
00001000
00000100
00010000
00000000
00001000
00010000
00001000
00000000
00100000
00010000
00100000
00000000
,
01000000
10000000
00010000
00000000
01000000
00100000
01000000
00000000
00010000
10000000
00010000
10000000
00010000
00000000
00000000
00000000
,
10000000
00000000
01000000
00000000
00010000
01000000
00010000
00000000
00001000
00000000
00000010
00000000
00000001
00001000
00000001
00000000
,
00000100
00000000
00001000
00000000
00010000
00001000
00010000
00000000
00100000
00000000
10000000
00000000
00010000
10000000
00010000
00000000
,
10000000
01000000
00100000
00010000
00001000
00000100
00000010
00000001
,
00000001
00000000
00000100
00000000
00000010
00001000
00000010
00010000
00002000
00000000
00000000
00000000
00023000
00000000
00000000
00000000
,
00031000
00010000
00100000
00010000
00001000
00010000
00100000
00010000
,
00001000
00010000
01000000
00010000
00001000
00010000
01000000
00010000
,
00001000
00000010
00001000
00010000
00001000
00000010
00001000
00010000
,
00001000
00000100
00001000
00010000
00001000
00000100
00001000
00000000
,
00010000
01000000
00010000
00001000
00010000
01000000
00010000
00001000
,
00010000
00100000
00010000
00001000
00010000
00100000
00010000
00001000
,
00000100
00001000
00010000
00001000
00000100
00001000
00010000
00001000
,
00011000
00000000
00011000
00000000
,
00010000
00001000
00000000
00010000
00001000
00000000
00010000
00000100
00000000
00010000
00000100
00000000
00001000
00000100
00000010
00000000
,
00000001
00000100
00000000
00000010
00001000
00000000
00000001
00000100
00000000
00000010
00001000
00000000
00000001
00001000
00000001
00000000
,
00000010
00000100
00000000
00000010
00000100
00000000
00001000
00000100
00000000
00001000
00000100
00000000
00010000
00000100
00010000
00000000
,
00001000
00100000
00000000
00010000
00100000
00000000
01000000
00000000
10000000
00000000
00010000
00000000
10010000
00000000
00000000
00000000
,
10000000
00010000
00000000
01000000
00100000
00000000
10000000
00010000
00000000
01000000
00100000
00000000
10000000
00000000
10000000
00000000
,
01000000
00100000
00000000
00010000
00100000
00000000
00001000
00010000
00001000
00000000
00010000
00000000
00000010
00000000
00001000
00000000
,
00000100
00000010
00000000
00000001
00000100
00000000
00000010
00001000
00000000
00000100
00010000
00000000
00001000
00000000
00100000
00000000
,
00010000
01000000
00200000
00000000
10300000
01000000
10000000
10000000
,
11000000
00110000
00001100
00000011
,
00000001
00000100
00001000
00000100
00000001
00000100
00001000
00000100
,
00000101
00001010
01010000
10100000
,
10000000
00100000
00010000
00100000
10000000
00100000
00010000
00100000
,
10100000
01010000
00001010
00000101
,
00000001
00000010
00001000
00000010
00000001
00000010
00001000
00000010
,
00000011
00001100
00110000
11000000
,
10000000
00000000
00000000
01000000
00000000
00000000
00100000
00000000
00001000
00000000
00100000
00000000
00002000
00000000
00000000
00000000
00000000
00000000
00023000
00000000
00000000
00000000
00000000
00000000
,
00031000
00000000
00010000
00000100
00000000
00001000
00000000
00000100
00000000
00000010
00000000
00000001
00001000
00000001
00001000
00000000
,
00000010
00000000
00000100
00001000
00000000
00010000
00000000
00000100
00000000
00010000
00000000
00001000
00010000
00001000
00010000
00000000
,
00100000
00000000
01000000
00010000
00000000
01000000
00000000
00001000
00000000
00100000
00000000
00010000
01000000
00010000
01000000
00000000
,
00010000
00000000
00100000
01000000
00000000
10000000
00000000
00010000
00000000
01000000
00100000
00000000
10000000
00010000
10000000
00000000
,
01000000
00000000
00100000
00010000
00000000
01000000
00000000
00010000
00000000
00100000
00000000
00001000
00010000
00001000
00010000
00000000
,
00000100
00000000
00001000
00000010
00000000
00000100
00000000
00000010
00000000
00010000
00000000
00000100
00001000
00000100
00001000
00000000
,
00000010
00000000
00000100
00000001
00000000
00001000
00000000
00000100
00000000
00000010
00000000
00000001
00001000
00000001
00001000
00000000
,
00000010
00000000
00000100
00000001
00000010
00000000
00000100
00001000
00000020
00000000
00000000
00000000
00000130
00000000
00000000
00000000
,
00000001
00000000
00000100
00000010
00001000
00000010
00000000
00000100
00000000
00001000
00000000
00010000
00001000
00010000
00001000
00000000
,
00100000
00000000
01000000
10000000
00010000
10000000
00000000
01000000
00000000
00100000
00000000
00010000
10000000
00010000
10000000
00000000
,
00100000
00000000
01000000
00010000
01000000
00001000
00000000
00010000
00000000
00000100
00000000
00001000
00000100
00010000
00000100
00000000
,
00001000
00000010
00001000
00000000
00000100
00000010
00000000
00000001
00000000
00001000
00000010
00001000
00000002
00000000
00000000
00000000
,
00000103
00000000
00000001
00000010
00000100
00001000
00000000
00000100
00000000
00010000
00000000
00001000
00010000
00001000
00010000
00000000
,
00100000
00000000
01000000
00010000
10000000
00010000
00000000
00100000
00000000
01000000
00000000
00100000
00001000
00100000
00001000
00000000
,
00010000
00000000
01000000
10000000
01000000
00100000
00000000
00001000
00000000
00010000
00000000
00000100
00001000
00000100
00000010
00000000
,
00000001
00000100
00000010
00000000
00001000
00000010
00001000
00000010
00020000
00000000
00000000
00000000
00031000
00000000
00000000
00000000
,
00101000
00010010
00101000
00010010
,
00010000
00001000
00000010
00001000
00010000
00100000
00010000
00001000
,
00010100
01001000
00010100
01001000
,
00001000
00010000
00100000
00010000
00001000
00000010
00001000
00010000
,
00010100
01001000
00010100
01001000
,
00001000
00010000
01000000
00010000
00001000
00000100
00001000
00010000
,
00101000
00010010
00101000
00010010
,
00010000
00000000
00000000
00001000
00000000
00000000
00000100
00000000
00000010
00000000
00000100
00000000
00000002
00000000
00000000
00000000
00000000
00000000
00002003
00000000
00000000
00000000
00000000
00000000
,
00003001
00000000
00000000
00000000
,
00000000
00000000
00000000
00000000
;
#NOTES:
     dance-double:
     :
     Challenge:
     17:
     :
00000000
00000000
00000000
00000000
,
00000000
00000000
00000000
00000000
,
00000000
00000000
00000000
00000000
,
00000000
00000000
00000000
00000000
,
00000000
00000000
00000000
00000000
,
00001000
00000000
00100000
00010000
00100000
00000000
00001000
01000000
00001000
00000000
00100000
00010000
00100000
00000000
00001000
01000000
,
00001000
00000000
00100000
00010000
00100000
00000000
00001000
01000000
00001000
00000000
00100000
00001000
00010000
00000000
00000010
00001000
,
00000010
00000000
00010000
00000100
00010000
00000000
00000010
00001000
00000010
00000000
00010000
00000100
00010000
00000000
00000010
00001000
,
00000010
00000000
00010000
00001000
00020000
00000000
00000000
00000000
00031000
00000000
00100000
00000000
00010000
00100000
00010000
00100000
,
01000000
10000000
01000000
00100000
00001000
00001000
00010000
00010000
,
00000100
00001000
00000010
00000100
00000002
00000000
00001003
00001000
,
00000000
00001000
00000001
00000010
00000100
00000010
00000100
00000010
,
00001000
00010000
01000000
00010000
00001000
00000000
MMMMMMMM
00000000
,
00001000
00010000
00001000
00010000
00001000
01000000
00001000
01000000
00010000
00000000
01000000
00100000
01000000
00000000
00100000
00000000
,
10000000
00010000
10000000
00010000
00100000
00010000
00100000
00010000
00100000
00000000
00001000
00100000
00001000
00000000
00010000
00000000
,
00001000
00010000
00001000
00010000
00000100
00010000
00000100
00010000
00000100
00000000
00001000
00000100
00000010
00000000
00000001
00000000
,
00000010
00000100
00000010
00000100
00001000
00000001
00001000
00000001
00001000
00000000
00000100
00000010
00000001
00000000
00000000
00000000
,
00000010
00000001
00000010
00000000
00000100
00001000
00000100
00000000
00001000
00000010
00001000
00000000
00000010
00010000
00000010
00000000
,
00010000
00001000
00010000
00000000
00001000
01000000
00001000
00000000
01000000
00010000
01000000
00000000
00100000
10000000
00100000
00000000
,
10000000
01000000
00010000
00000000
MMMM1000
00000000
00000010
00000000
00000001
00000100
00001000
00000000
0001MMMM
00000000
00100000
00000000
,
10000000
01000000
00010000
00000000
00001000
00010000
00001000
00010000
00002000
00000000
00000000
00000000
00013000
00000000
00000000
00000000
,
MMMM1000
00000010
00000001
00000000
00000100
00000000
00001000
00000000
0001MMMM
00100000
10000000
00000000
01000000
00000000
00010000
00000000
,
MMMM1000
00000010
00000001
00000000
00000100
00000000
00001000
00000000
00011000
00000000
MMMMMMMM
00000000
00011000
00000000
MMMMMMMM
00000000
,
0001MMMM
01000000
10000000
00000000
00100000
00000000
00010000
00000000
MMMM1000
00000100
00000001
00000000
00000010
00000000
00001000
00000000
,
0001MMMM
01000000
10000000
00000000
00100000
00000000
00010000
00000000
00011000
00000000
MMMMMMMM
00000000
00011000
00000000
MMMMMMMM
00000000
,
00001000
00010000
00100000
00000000
0100MMMM
00000000
00100000
00000000
00010000
00001000
00000010
00000000
MMMM0100
00000000
00000010
00000000
,
00001000
00010000
00100000
00000000
0100MMMM
00000000
00100000
00000000
00010000
00000000
MMMMMMMM
00000000
00011000
00000000
MMMMMMMM
00000000
,
00001000
00010000
01000000
00000000
0010MMMM
00000000
01000000
00000000
00010000
00001000
00000100
00000000
MMMM0010
00000000
00000100
00000000
,
00001000
00010000
01000000
00000000
0010MMMM
00000000
01000000
00000000
00010000
00000000
MMMMMMMM
00000000
00011000
00000000
MMMMMMMM
00000000
,
00010000
00001000
00000000
00001000
00000010
00000000
00000010
00000001
00000000
00000001
00001000
00000001
00000100
00000010
00000100
00000000
,
00000001
00000100
00000000
00000100
00001000
00000000
00001000
00010000
00000000
00010000
00100000
01000000
00010000
10000000
00010000
00000000
,
10000000
01000000
00000000
01000000
00010000
00000000
00010000
00001000
00000000
00001000
00100000
00001000
00010000
00000100
00010000
00000000
,
00001000
00010000
00000000
00010000
00001000
00000000
00001000
00000100
00000000
00000100
00000001
00001000
00000001
00000100
00000010
00000000
,
00000100
00001000
00000000
00001000
00010000
00000000
00010000
00001000
00000000
00001000
00010000
00000000
MMMM1000
00000000
0001MMMM
00000000
,
00001000
00100000
00000000
00010000
01000000
00000000
00001000
00100000
00000000
00010000
01000000
00010000
00100000
00001000
00100000
00001000
,
00010000
00000010
00000000
00001000
00000100
00000000
00010000
00000010
00000000
00001000
00000100
00001000
00000010
00010000
00000010
00010000
,
00001000
00010000
00000000
00010000
00100000
00000000
10000000
00010000
10000000
00000000
10000000
00000000
00010000
00000000
10000000
00000000
,
11000000
MMMMMMMM
00110000
MMMMMMMM
00001100
MMMMMMMM
00000011
MMMMMMMM
,
00000001
00001000
00000100
00000000
00001000
00000001
00000100
00000000
00000001
00001000
00000010
00000000
00001000
00000001
00000010
00000000
,
00000101
MMMMMMMM
00001010
MMMMMMMM
01010000
MMMMMMMM
10100000
MMMMMMMM
,
10000000
00010000
01000000
00000000
00010000
10000000
01000000
00000000
10000000
00010000
00100000
00000000
00010000
00100000
00001000
00000000
,
00101000
MMMMMMMM
00010010
MMMMMMMM
00101000
MMMMMMMM
00010010
MMMMMMMM
,
00010000
00001000
01000000
00000000
00100000
00010000
00001000
00000000
00010000
00000010
00000100
00000000
00001000
00010000
00000100
00000000
,
00010100
MMMMMMMM
01001000
MMMMMMMM
00010100
MMMMMMMM
01001000
MMMMMMMM
,
00001000
00000000
00000000
00010000
00000000
00000000
01000000
00000000
00100000
00000000
01000000
00000000
20000000
00000000
00000000
00000000
00000000
00000000
30010000
00000000
00000000
00000000
00000000
00000000
,
10000000
00000000
01000000
00100000
01000000
10000000
01000000
10000000
00000000
00100000
10000000
00100000
01000000
00100000
01000000
00000000
,
00010000
00000000
01000000
00010000
01000000
00001000
01000000
00001000
00000000
00100000
00001000
00100000
00001000
00010000
00001000
00000000
,
00010000
00000000
00000100
00010000
00001000
00010000
00001000
00010000
00000000
00000100
00001000
00000100
00000010
00000100
00000010
00000000
,
00000001
00000000
00001000
00000010
00000100
00000010
00001000
00000001
00000000
00000010
00000100
00000010
00000001
00000000
00001000
00000000
,
00000001
00000000
00000100
00000010
00000100
00000001
00000100
00000001
00000000
00000010
00000001
00000010
00000100
00000010
00000100
00000000
,
00001000
00000000
00000100
00001000
00000100
00010000
00000100
00010000
00000000
00000010
00010000
00000010
00010000
00001000
00010000
00000000
,
00001000
00000000
01000000
00001000
00010000
00001000
00010000
00001000
00000000
01000000
00010000
01000000
00100000
01000000
00100000
00000000
,
10000000
00000000
00010000
00100000
01000000
00100000
00010000
10000000
00020000
00000000
00000000
00000000
10030000
00000000
00000000
00000000
,
00010000
00000000
10000000
01000000
00100000
00010000
01000000
00100000
00000000
10000000
00010000
01000000
00010000
00100000
00001000
00010000
,
00001000
00000000
00010000
00000100
00001000
00000100
00001000
00000010
00000000
00000100
00000010
00001000
00000001
00000010
00000100
00001000
,
00000001
00000000
00000100
00001000
00000100
00000001
00001000
00000010
00000000
00001000
00000010
00010000
00001000
01000000
00010000
01000000
,
00100000
00000000
10000000
00010000
01000000
00010000
10000000
01000000
00000000
00100000
00010000
00100000
00020000
00000000
00000000
00000000
,
10030000
00000000
01000000
00100000
01000000
00010000
01000000
00100000
00000000
00001000
00100000
00001000
00010000
00001000
00010000
00000100
,
00001000
00000000
00000010
00001000
00000100
00000010
00000100
00001000
00000000
00000001
00000100
00000001
00001000
00000010
00001000
00000100
,
00010000
00000000
00001000
00010000
00001000
01000000
00010000
01000000
00000000
00001000
00100000
00001000
00100000
00010000
00100000
01000000
,
10000000
00000000
00100000
10000000
01000000
00100000
01000000
00100000
00020000
00000000
00000000
00000000
00030000
00000000
00000000
00000000
,
10100000
MMMMMMMM
01010000
MMMMMMMM
00001010
MMMMMMMM
00000101
MMMMMMMM
,
00000001
00000100
00001000
00000000
00010000
00000000
00100000
00000000
10000000
01000000
00010000
00000000
00001000
00000000
00000010
00000000
,
00000011
MMMMMMMM
00001100
MMMMMMMM
00110000
MMMMMMMM
11000000
MMMMMMMM
,
10000000
00100000
00010000
00000000
00001000
00000000
00000100
00000000
00000001
00000010
00001000
00000000
00010000
00001000
01000000
00000000
,
01001000
MMMMMMMM
00010100
MMMMMMMM
00101000
MMMMMMMM
00010010
MMMMMMMM
,
00000010
00000100
00000010
00000000
00010000
00001000
00010000
00000000
00100000
01000000
00100000
00000000
00001000
00010000
00001000
00000000
,
00010010
MMMMMMMM
01001000
MMMMMMMM
00101000
MMMMMMMM
00010100
MMMMMMMM
,
00011000
00021000
00100000
00030010
,
00011000
00000000
00000000
00000000
,
00000000
00000000
00000000
00000000
;
