
//----- song ID: cove -----//
#TITLE:COSMIC V3LOCITY;
#ARTIST:BEMANI Sound Team "Coyaan & KE!JU & ZAQUVA";
#TITLETRANSLIT:COSMIC VELOCITY;
#BANNER:COSMIC V3LOCITY.png;
#BACKGROUND:COSMIC V3LOCITY-bg.png;
#CDTITLE:./CDTitles/DDR WORLD.png;
#MUSIC:COSMIC V3LOCITY.ogg;
#SAMPLESTART:69.297;
#SAMPLELENGTH:15;
#BPMS:0=200;
#NOTES:
     dance-single:
     :
     Beginner:
     3:
     :
0000
0000
0000
0000
,
0000
0000
0000
0000
,
0000
0000
0000
0000
,
0000
0000
0000
0000
,
0000
0000
0000
0000
,
0000
0000
0000
0000
,
0001
0000
0000
0000
,
1000
0000
0000
0000
,
0010
0000
0000
0010
,
0000
0000
0010
0000
,
1000
0000
0000
0000
,
1000
0000
0000
0000
,
0001
0000
0000
0000
,
0001
0000
0000
0000
,
0100
0000
0000
0000
,
0010
0000
0000
0000
,
1000
0000
0000
1000
,
0000
0000
1000
0000
,
0001
0000
0000
0000
,
0010
0000
0000
0000
,
0100
0000
0000
0000
,
1000
0000
0000
0000
,
0010
0000
0000
0000
,
0100
0000
0000
0000
,
0001
0000
0000
0000
,
0000
0000
0000
0000
,
1000
0000
0000
0000
,
1000
0000
0000
0000
,
0001
0000
0000
0000
,
0001
0000
0000
0000
,
0100
0000
0000
0000
,
0100
0000
0000
0000
,
0010
0000
0000
0000
,
0010
0000
0000
0000
,
1000
0000
1000
0000
,
0001
0000
0000
0000
,
0100
0000
0100
0000
,
0010
0000
0000
0000
,
1000
0000
1000
0000
,
0001
0000
0000
0000
,
0000
0000
0000
0000
,
0000
0000
0000
0000
,
2000
0000
0000
0000
,
3000
0000
0000
0000
,
0002
0000
0000
0000
,
0003
0000
0000
0000
,
0200
0000
0000
0000
,
0300
0000
0000
0000
,
0020
0000
0000
0000
,
0030
0000
0000
0000
,
1000
0000
1000
0000
,
1000
0000
0000
0000
,
0001
0000
0001
0000
,
0001
0000
0000
0000
,
0100
0000
0100
0000
,
0100
0000
0000
0000
,
0010
0000
0010
0000
,
1001
0000
0000
0000
,
1000
0000
0000
0000
,
0010
0000
0000
0000
,
0100
0000
0000
0000
,
0001
0000
0000
0000
,
1000
0000
0000
0000
,
0001
0000
0000
0000
,
1000
0000
0000
0000
,
0010
0000
0000
0000
,
1000
0000
1000
0000
,
1000
0000
0000
0000
,
0001
0000
0001
0000
,
0001
0000
0000
0000
,
0100
0000
0000
0000
,
0100
0000
0000
0000
,
0010
0000
0000
0000
,
0110
0000
0000
0000
,
1001
0000
0000
0000
,
1000
0000
0000
0000
,
0001
0000
0000
0000
,
1000
0000
0000
0000
,
0010
0000
0000
0000
,
0100
0000
0000
0000
,
0100
0000
0100
0000
,
0100
0000
0000
0000
,
0001
0000
0001
0000
,
0001
0000
0000
0000
,
1000
0000
1000
0000
,
1000
0000
0000
0000
,
0010
0000
0010
0000
,
0010
0000
0000
0000
,
0200
0300
0010
0000
,
2002
0000
0000
0000
,
3003
0000
0000
0000
,
0200
0000
0000
0000
,
0000
0000
0000
0000
,
0000
0000
0000
0000
,
0000
0000
0000
0000
,
0300
0000
0000
0000
,
0000
0000
0000
0000
;
#NOTES:
     dance-single:
     :
     Easy:
     8:
     :
0000
0000
0000
0000
,
0000
0000
0000
0000
,
0000
0000
0000
0000
,
0000
0000
0000
0000
,
0000
0000
0000
0000
,
0000
0000
0000
0000
,
0001
0100
0001
0010
,
0100
1000
0001
0100
,
0010
0000
0000
2002
0000
3003
0100
0000
,
0000
2002
0000
3003
0110
0000
0000
0000
,
0001
1000
0010
0001
,
0010
1000
0001
0010
,
0001
1000
0010
0001
,
0020
0000
0230
0000
0300
1001
0000
0000
,
1000
0001
0010
1000
,
0010
0001
1000
0010
,
0100
0000
0000
0001
0000
0000
0010
0000
,
0000
0100
0000
0000
1001
0000
0000
0000
,
1000
1000
0010
0010
,
0100
0100
0001
0001
,
1010
1010
0100
0100
,
1010
1010
0001
0001
,
2100
3001
2100
3001
,
0102
1003
0102
1003
,
0001
0000
0100
0000
0010
0000
0000
1000
,
0000
1000
0000
1000
0000
0000
0000
0000
,
0001
0000
1000
0000
,
0010
0000
0100
0000
,
0001
0000
0010
0000
,
0100
0000
1000
0000
,
0001
0000
0000
0000
0100
0000
0000
0010
,
0000
0000
0000
1000
0000
1000
0000
1000
,
0000
0000
0000
0000
,
0010
0100
0001
1001
,
1000
0010
0100
0001
,
1000
0100
1000
0010
,
0100
0000
0001
0000
0010
0000
0001
1000
,
0000
0010
0100
0001
,
1000
1000
0100
0010
,
0001
0000
0000
0100
0000
0100
0000
0100
,
0000
0000
0001
0000
1000
0000
0010
0100
,
0000
0000
0001
0001
,
2000
0000
3200
0000
,
0320
0000
0032
0000
,
0203
0000
2300
0000
,
3200
0000
0302
0000
,
0023
0000
0230
0000
,
2300
0000
3020
0000
,
0032
0000
0023
0000
,
0200
0000
0330
1001
,
0001
0010
0100
1000
,
0001
0100
0001
0010
,
0001
1000
0100
1000
,
1020
1030
0201
0301
,
0001
0010
0100
1000
,
0001
0100
0010
1000
,
0001
0000
0010
0000
0100
0000
1000
0010
,
0000
0100
0001
0000
1001
0000
0000
0000
,
1000
0000
0100
0000
1000
0000
0010
0100
,
0000
0000
0001
0000
1000
0000
0100
0010
,
0000
0000
0100
0000
1000
0000
0001
0100
,
0000
0010
0100
0001
,
1000
0000
0100
0000
0010
0000
0001
1000
,
0000
0000
0000
0010
0000
0010
0000
0010
,
0000
0000
1000
0000
0001
0000
0000
0100
,
0000
0001
0000
0010
0000
0000
0000
0000
,
0100
0000
1001
0000
0001
0000
0100
0010
,
0000
0000
1000
0000
0001
0000
0010
0100
,
0000
0000
1000
0000
0001
0000
0100
0010
,
0000
1000
0001
0100
,
0002
0023
0230
2300
,
3020
0032
0023
2030
,
3200
0320
0032
0203
,
2300
3200
0020
0330
,
0100
0000
0001
0000
0010
0000
0001
1000
,
0000
0100
0010
0110
,
0001
0000
1000
0000
0010
0000
0100
0001
,
0000
0010
0100
1000
,
0001
0000
0100
0000
0010
0000
1000
0001
,
0000
0010
0100
1000
,
0010
0001
0010
0100
,
0001
0010
1000
0010
,
0001
0000
1000
0000
1100
0000
0001
0010
,
0000
0000
0001
0000
0101
0000
1000
0010
,
0000
0000
1000
0000
1100
0000
0001
0010
,
0000
0100
1000
0001
,
0101
0000
0101
0000
0010
0000
1000
0001
,
0000
1100
1100
0001
,
0100
0000
0000
0110
0000
0000
1001
0000
,
0001
0000
0000
0010
0000
0000
0100
0000
0000
1000
0000
0000
0010
0000
0100
0000
,
0000
0000
0000
0000
,
0002
0000
0000
0000
,
0000
0000
0000
0000
0000
0000
0000
0003
,
0000
2000
0000
0000
0000
0000
0000
0000
,
0000
0000
0000
0000
,
3000
0000
0000
0000
,
0000
0000
0000
0000
;
#NOTES:
     dance-single:
     :
     Medium:
     15:
     :
0000
0000
0000
0000
,
0000
0000
0000
0000
,
0000
0000
0000
0000
,
0000
0000
0000
0000
,
0000
0000
0000
0000
,
0000
0000
0000
0000
,
0002
0000
2003
0000
3001
0010
0100
1000
,
0020
0000
0230
0000
0301
1000
0001
0100
,
0010
0010
0000
2002
0000
3003
0100
0100
,
0000
2002
0000
3003
0010
0000
1001
0000
,
1000
0000
0000
0000
1100
0000
0000
0000
0100
0000
0000
0010
0000
0000
0001
0000
,
1000
0000
0010
0000
0001
0000
0010
0000
1000
0000
0000
0100
0000
0000
0010
0000
,
0001
0000
0000
0000
0101
0000
0000
0000
0100
0000
0000
0010
0000
0000
0001
0000
,
0010
1000
0100
0001
0100
2000
0000
0000
,
3010
0000
0000
0000
1001
0000
0000
0000
1000
0000
0000
0010
0000
0000
0100
0000
,
1000
0000
0100
0000
0001
0000
0010
0000
0100
0000
0000
1000
0000
0000
0010
0000
,
0100
0100
0000
0001
0001
0000
1000
1000
,
0000
0010
0010
0000
0110
0000
1001
0000
,
1100
0000
0000
0000
0011
0000
0000
0000
1001
0000
0000
1000
0100
0000
0010
0000
,
0011
0000
0000
0000
1001
0000
0000
0000
1100
0000
0000
0001
0100
0000
0010
0000
,
0100
0000
0100
0000
0100
0000
0000
0000
0110
0000
0000
0001
1000
0000
0010
0000
,
1010
0000
0101
0000
0001
0001
1000
1000
,
0001
1000
0001
0000
0100
0000
0001
1000
0001
0000
0010
0000
0200
0000
1300
0000
,
1000
0000
0010
0000
0010
0000
0100
0000
0001
0000
0000
1000
0100
0000
1000
0000
,
0010
0010
0100
0001
1000
0100
0000
0110
,
0000
1001
0000
0220
0000
0330
0000
0000
,
1001
0000
0001
0100
0001
1000
0100
0020
,
0000
0030
0001
0000
1000
0010
0100
0020
,
0000
0030
1000
0000
0001
0010
0100
2000
,
0000
3001
1000
0010
0100
0010
0010
0000
,
1000
0000
0001
0010
0100
1000
0010
0002
,
0000
1003
0100
0010
0000
1000
0000
1001
,
0000
0000
0001
0000
1000
0000
0010
0200
,
0000
0301
0010
0100
0000
0000
1001
0000
,
1000
0010
1000
0100
0010
0001
0100
1000
,
0100
1000
0100
0001
0010
0100
1000
0010
,
0001
0010
1000
0100
0010
0001
1000
1010
,
0000
0000
0010
0100
0010
0000
0100
0000
0001
0000
1000
0000
0100
0000
0000
0000
,
0010
1000
0010
0100
0010
0001
0010
0100
,
0010
1000
0010
0001
0000
1100
0000
1001
,
0000
0001
0001
0100
0010
1000
0001
0020
,
0000
0030
0100
2000
0001
0000
3001
0000
,
0000
0000
0000
0002
0000
0000
0013
0000
0100
0000
1000
0000
,
0020
0000
0230
0302
,
2003
0000
0000
3002
0000
0000
0023
0000
,
0000
0000
0030
0000
,
0000
0000
0000
0200
0000
0000
1300
0000
0100
0000
0010
0000
,
0002
0000
0203
0320
,
2030
0000
0000
3002
0000
0000
0203
0000
,
0020
0000
0330
1001
,
1000
0000
0010
0000
0100
0000
0001
0000
0010
0000
0001
0010
0001
0000
0010
0000
,
0100
1000
0001
0100
0010
1000
0001
0010
,
0100
1000
1000
0001
1000
1000
0010
1000
,
1000
0001
1000
0100
1000
0010
1000
0100
,
1000
0000
0001
0200
0010
0000
0001
0000
,
0010
0000
0000
0000
0301
0000
0000
0000
0001
0000
0000
0010
0000
0000
0100
0000
,
2000
0000
0010
0000
3001
1000
0001
1000
,
0000
0100
0010
0000
2002
0000
3003
0000
,
0001
0000
0100
0001
0100
0000
0001
0000
0100
0000
0010
0000
1000
0000
0200
0000
,
0000
0000
1300
0100
1000
0000
0100
0000
0010
0000
0001
0000
1000
0000
0020
0000
,
0000
0000
0130
0010
0100
0000
0001
0000
0010
0000
0100
0000
1000
0000
0020
0000
,
0000
0130
0001
1000
0001
0010
0100
0000
,
1000
1000
0001
1000
0010
0100
0001
2000
,
0000
3100
0010
0001
0000
1000
0000
1001
,
0000
0001
0010
0100
1000
0100
0010
0002
,
0000
1003
0010
0200
0000
0300
0000
0000
,
0010
0000
1001
1000
0100
0010
0001
2000
,
0000
0000
3010
1000
0010
0000
1000
0000
0001
0000
0010
0000
0100
0000
2000
0000
,
0000
0000
3001
1000
0001
0000
0010
0000
0100
0000
1000
0000
0001
0000
0200
0000
,
0000
0000
0310
0100
0010
0000
1000
0000
0001
0000
0010
0000
0100
0000
1000
0000
,
0001
0100
1000
0100
0001
0100
1000
0100
,
0001
0010
1000
0010
0001
0010
1000
0010
,
0001
0100
1000
0100
0001
0010
1000
0010
,
0001
0000
1000
0100
0000
0010
0001
0000
0200
0000
0000
0000
0300
0000
0000
0000
,
0001
0001
1000
1000
0001
0010
0100
1000
,
0010
0010
0100
0100
0001
1000
1001
0000
,
0001
0001
0100
0100
0001
0010
0100
0001
,
0000
0001
0100
1000
0010
0100
0001
1000
,
0100
1000
0010
0100
0001
0010
0001
0200
,
0000
0000
0000
0000
0000
0000
0000
0000
0000
0000
0000
0000
0000
0000
0000
0000
0000
0000
0000
0000
0000
0000
0000
0300
0001
0000
0000
0000
0000
0000
0000
0000
0000
0000
0000
0000
0000
0000
0000
0000
0000
0000
0000
0000
0000
0000
0000
0000
0010
0000
0000
0000
0000
0000
0000
0000
0000
0000
0000
0000
0000
0000
0000
0000
0000
0000
0000
0000
0000
0000
0000
0000
0100
0000
0000
0000
0000
0000
0000
0000
0000
0000
0000
0000
0000
0000
0000
0000
0000
0000
0000
0000
0000
0000
0000
0000
1000
0000
0000
0000
0000
0000
0000
0000
0000
0000
0000
0000
0000
0000
0000
0000
0000
0000
0000
0000
0000
0000
0000
0000
0010
0000
0000
0000
0000
0000
0000
0000
0000
0000
0000
0000
0000
0000
0000
0000
0000
0000
0000
0000
0000
0000
0000
0000
0100
0000
0000
0000
0000
0000
0000
0000
0000
0000
0000
0000
0000
0000
0000
0000
0000
0000
0000
0000
0000
0000
0000
0000
0010
0000
0000
0000
0000
0000
0000
0000
0000
0000
0000
0000
0000
0000
0000
0000
0000
0000
0000
0000
0000
0000
0000
0000
,
1000
0100
0010
0001
0100
0010
1000
0100
,
0010
0001
0100
0010
1000
0100
0010
0001
,
1000
0010
0100
0001
0010
0001
0100
2000
,
0000
3100
0001
0010
0100
1000
0010
0002
,
0000
0013
1000
0100
0010
0001
0100
2000
,
0000
3100
0001
0010
1000
0010
0001
0100
,
0010
0001
0010
1000
0100
0010
1000
0002
,
0000
0103
1000
0010
0001
0010
1000
0100
,
0010
0001
0001
1000
0010
0010
0100
0001
,
1000
0100
0000
0010
0001
0000
1000
0100
0000
0010
0001
0000
0100
0000
0020
0000
,
0000
0000
0000
0000
,
0030
1000
0001
0100
0010
0100
0002
0000
,
0000
0000
0000
0000
0000
0000
0000
0003
,
0000
1000
0100
0010
0001
1000
0020
0000
,
0000
0000
0000
0000
,
0030
0000
0000
0000
,
0000
0000
0000
0000
;
#NOTES:
     dance-single:
     :
     Hard:
     18:
     :
0000
0000
0000
0000
,
0000
0000
0000
0000
,
0000
0000
0000
0000
,
0000
0000
0000
0000
,
0000
0000
0000
0000
,
0000
0000
0000
0000
,
0001
1000
0001
1000
0100
0010
0001
1000
0010
0000
0100
0001
1000
0000
0010
1000
,
0001
1000
0100
0010
0001
1000
0010
0100
0001
0000
1000
0001
0010
0100
1000
0000
,
0001
0000
0201
0000
0300
0000
0001
1000
0100
0010
0001
0000
1000
0000
1020
0000
,
0030
0000
1000
0001
0010
0100
1000
0001
0100
0000
0000
0000
0110
0000
0000
0000
,
0001
0000
0000
0000
1000
0000
0000
0000
1010
0000
0000
1001
0000
0000
0101
0000
,
1000
0000
0100
0000
0010
0000
0001
0000
2000
0000
0000
0010
0000
0000
0001
0000
,
3100
0000
0000
0000
0010
0000
0000
0000
1001
0000
0000
0110
0000
0000
1001
0000
,
1000
0001
0100
0010
1000
0001
0010
0001
1000
0000
2002
0000
3003
0000
0000
0000
,
1000
0000
0000
0000
0001
0000
0000
0000
0011
0000
0000
1001
0000
0000
1100
0000
,
0001
0000
0100
0000
0010
0000
1000
0000
0002
0000
0000
0010
0000
0000
1000
0000
,
0103
1001
0000
0001
1100
0000
1000
0101
,
0000
0010
1001
0000
0110
0000
1001
0000
,
0011
0000
0000
0000
1010
0000
0000
0000
0011
0000
0000
1000
0010
0000
1000
0000
,
1100
0000
0000
0000
0101
0000
0000
0000
1100
0000
0001
1000
0010
0000
1000
0000
,
0001
0000
0001
0000
1001
0000
0000
0000
1100
0000
0000
0001
0010
0000
0001
0000
,
0101
0000
1010
0000
0011
1000
1100
0001
,
1000
0100
1000
0100
1000
0000
0001
0100
0001
0100
0001
0000
1000
0000
0100
1000
,
0001
0000
0100
0000
0010
1000
0001
0000
0010
0000
0000
0100
1000
0000
0001
0000
,
1000
0000
1000
0001
0100
0000
0010
0000
1000
0001
0010
0001
1000
0000
0100
0000
,
0000
0000
0100
0000
0000
0000
0110
0000
0000
0000
0001
1000
0100
0010
0001
1000
,
0010
0000
0100
0001
0010
0001
1000
0200
,
0000
0300
0010
0001
1000
0100
1000
0020
,
0000
0030
0100
0001
0010
0001
1000
0020
,
0000
0000
0130
0000
0001
0000
1000
0000
0001
0000
0010
0100
1000
0000
0000
0000
,
1001
0000
1000
1000
0100
0010
0001
2000
,
0000
3010
0100
0101
0000
0011
0000
2200
,
0000
3300
1000
0010
0100
0001
1000
0200
,
0000
0310
0100
1000
0001
0000
1001
0000
,
1000
0000
0001
0100
0010
0000
1000
0001
0100
0000
0001
1000
0100
0000
0010
0001
,
0010
0000
0100
1000
0001
0000
1000
0001
0100
0000
0010
1000
0010
0000
1000
0001
,
0010
0000
0100
1000
0001
0000
1000
0010
0100
0000
0001
0010
0100
0000
2000
0000
,
0000
0000
3010
0100
0001
0000
1000
0100
0010
0000
0001
0100
0010
0000
1000
0000
,
0200
0000
0310
0001
1000
0010
0100
0002
,
0000
0013
0100
1100
0000
1010
0000
0202
,
0000
0303
0001
0010
0100
1000
0001
0200
,
0000
0000
0000
0310
0000
0000
0100
0000
0000
0001
0000
0000
0010
0000
0000
0000
0001
0000
1000
0000
0000
0000
0001
0000
,
0100
0000
0000
0020
0000
0000
2030
0000
3200
0000
0320
0000
,
0032
0000
2003
3020
,
0230
0000
0000
0302
0000
0000
2000
0000
,
0000
0000
3003
0000
,
0000
0000
0000
2000
0000
0000
3002
0000
0203
0000
0320
0000
,
2030
0000
3002
0023
,
0230
0000
0000
0320
0000
0000
0032
0000
,
2000
0000
3003
1001
,
0001
0000
1000
0000
0100
0000
1000
0000
0001
0000
0100
0010
0000
1000
0001
0000
,
1000
0000
0010
0100
0001
0000
0010
0000
0001
0100
0010
0000
1000
0000
0000
0000
,
0001
0000
0010
0100
1000
0000
0010
0000
1000
0100
0010
0000
0001
0000
1000
0000
,
0001
0000
0100
0001
1000
0000
1000
0001
0010
0000
0100
1000
0001
0000
0001
1000
,
0010
0000
0000
0000
0100
0000
1001
0000
0000
0000
1000
0001
1000
0010
0100
0001
,
1000
0001
0010
0100
1000
0001
0100
0010
1000
0000
0100
0010
0000
0001
1000
0000
,
0020
0000
0100
0000
1030
0000
0001
1001
,
0000
0000
0011
0000
1100
0000
0000
0000
1001
0000
0000
0000
1000
0000
0001
1000
,
0001
0000
1000
0001
1000
0010
0100
0001
1000
0000
0001
0000
0010
0000
0200
0000
,
0300
0000
1000
0001
0100
0010
1000
0001
0010
0000
0001
0000
1000
0000
0020
0000
,
0030
0000
0100
0001
1000
0000
0100
0000
0010
0000
0001
1000
0010
0000
0200
0000
,
0300
0000
0001
1000
0100
0000
0010
0000
0001
1000
0001
1000
0010
0100
0001
0000
,
1000
0000
0100
0010
0002
0000
1000
0000
0103
0000
0001
1000
0010
1000
0001
0000
,
0000
1000
0001
0101
1000
1100
0001
1001
,
0000
0000
1000
0001
0010
0001
1000
0010
0100
0001
1000
0000
0100
0000
0020
0000
,
0000
0000
0100
0000
0100
0000
0130
0000
0000
0000
0000
0000
0001
0000
1000
0001
,
1000
0000
0001
1000
0001
0010
0100
1000
0001
0000
1000
0000
0010
0000
0200
0000
,
0300
0000
0001
1000
0100
0010
0001
1000
0010
0000
1000
0000
0001
0000
0020
0000
,
0030
0000
0100
1000
0001
0000
0100
0000
0010
0000
1000
0001
0010
0000
0200
0000
,
0300
0000
1000
0001
0100
0000
0010
0000
1000
0001
1000
0001
0010
0100
1000
0000
,
0001
0100
0010
1000
0001
1000
0100
0010
0001
1000
0010
1000
0001
0010
0100
1000
,
0001
0100
0010
0100
0001
1000
0100
0010
0001
1000
0010
0100
0001
1000
0100
1000
,
0001
0000
0001
0000
1000
0001
0100
0010
1000
0000
1000
0000
0001
0010
0100
1000
,
0001
0000
1000
0010
0000
0100
0001
0000
0022
0000
0033
0000
2200
0000
3300
0000
,
1001
0000
0000
0001
0000
1000
0100
0000
1000
0000
0000
0001
0100
0000
0001
0000
,
1000
0100
1000
0000
0001
0000
1000
0010
0100
0000
0001
0010
0200
0000
0300
0000
,
0010
0000
0001
1000
0010
0000
0100
0000
0001
0000
1000
0001
0010
0000
0200
0000
,
0300
0000
1000
0001
0100
0000
0010
0000
0100
0001
1000
0001
0010
0100
1000
0000
,
0001
1000
0010
1000
0001
0010
0001
1000
0010
0100
0001
1000
0100
0010
0002
0000
,
0003
0000
0010
0100
1000
0001
1000
0010
0100
0001
1000
0001
0010
0100
1000
0001
,
0100
0001
1000
0001
0010
0100
1000
0001
0100
0001
1000
0100
1000
0001
0010
0001
,
1000
0010
1000
0001
1000
0100
0010
0001
1000
0010
0100
0001
1000
0001
0010
0100
,
1000
0000
0001
1000
0010
0000
0100
0001
1000
0000
0100
0000
0010
0000
0012
0000
,
0003
0000
1000
0001
0010
0000
0100
1000
0001
0000
0100
0000
0010
0000
2010
0000
,
3000
0000
0001
1000
0010
0000
0100
0000
0001
0000
1000
0001
0010
0000
2001
0000
,
3000
0000
0001
1000
0100
0000
0010
0000
0100
1000
0001
1000
0010
0100
0001
0000
,
1000
0001
0010
0001
1000
0010
1000
0001
0010
0100
1000
0001
0100
0010
2000
0000
,
3000
0000
0010
0100
0001
1000
0100
0010
0001
1000
0010
0100
0001
1000
0100
1000
,
0001
0100
0001
0100
0010
1000
0001
0010
0001
0010
0100
1000
0001
1000
0010
0100
,
0001
0010
0000
0100
1000
0000
0010
0100
0000
0001
0010
0000
0100
1000
0001
0200
,
0000
0000
0000
0000
,
0300
0001
1000
0100
0010
0001
0200
0000
,
0000
0000
0000
0000
0000
0000
0000
0300
,
0000
0001
1000
0010
0100
0001
0020
0000
,
0000
0000
0000
0000
,
0030
0000
0000
0000
,
0000
0000
0000
0000
;
#NOTES:
     dance-double:
     :
     Easy:
     8:
     :
00000000
00000000
00000000
00000000
,
00000000
00000000
00000000
00000000
,
00000000
00000000
00000000
00000000
,
00000000
00000000
00000000
00000000
,
00000000
00000000
00000000
00000000
,
00000000
00000000
00000000
00000000
,
00010000
00001000
00000010
00000100
,
00010000
00001000
00010000
00100000
,
01000000
00000000
00000000
20020000
00000000
30030000
00100000
00000000
,
00000000
20020000
00000000
30030000
01100000
00000000
00000000
00000000
,
10000000
01000000
00010000
00001000
,
00000010
00001000
00010000
01000000
,
10000000
01000000
00010000
00001000
,
00000020
00000000
00000230
00000000
00000300
00001001
00000000
00000000
,
00000001
00000100
00001000
00010000
,
00100000
00010000
00001000
00000100
,
00000001
00000000
00000000
00000010
00000000
00000000
00000100
00000000
,
00000000
00001000
00000000
00000000
00001001
00000000
00000000
00000000
,
00000001
00000001
00001000
00001000
,
00000010
00000010
00010000
00010000
,
00101000
00101000
00010000
00010000
,
00101000
00101000
00010000
00010000
,
00021000
00030010
00021000
00030010
,
00012000
00103000
00012000
00103000
,
00001000
00000000
00010000
00000000
01000000
00000000
00000000
00100000
,
00000000
00100000
00000000
00100000
00000000
00000000
00000000
00000000
,
00010000
00000000
10000000
00000000
,
01000000
00000000
00100000
00000000
,
00001000
00000000
00010000
00000000
,
00001000
00000000
00000100
00000000
,
00000010
00000000
00000000
00000000
00001000
00000000
00000000
00000001
,
00000000
00000000
00000000
00000100
00000000
00000100
00000000
00000100
,
00000000
00000000
00000000
00000000
00000000
00000000
00000000
00000010
,
00000000
00000000
00001000
00001001
,
00000001
00000100
00001000
00010000
,
00100000
01000000
00010000
10000000
,
00100000
00000000
10000000
00000000
01000000
00000000
10000000
00010000
,
00000000
01000000
00100000
00010000
,
00001000
00001000
00010000
00000100
,
00001000
00000000
00000000
00000001
00000000
00000001
00000000
00000001
,
00000000
00000000
00001000
00000000
00000010
00000000
00010000
00001000
,
00000000
00000000
00001000
00010000
,
00002000
00000000
00023000
00000000
,
02030000
00000000
23000000
00000000
,
30200000
00000000
00320000
00000000
,
00032000
00000000
00003200
00000000
,
00000302
00000000
00000023
00000000
,
00002030
00000000
00023000
00000000
,
02030000
00000000
23000000
00000000
,
30200000
00000000
00300000
01100000
,
01000000
00010000
00100000
00001000
,
00010000
00000100
00001000
00000010
,
00001000
00000001
00000100
00000001
,
00000021
00000031
00001200
00001300
,
00010000
00001000
01000000
00010000
,
00100000
01000000
10000000
00100000
,
01000000
00000000
00010000
00000000
10000000
00000000
00010000
00100000
,
00000000
01000000
10000000
00000000
10010000
00000000
00000000
00000000
,
10000000
00000000
01000000
00000000
00100000
00000000
00001000
00010000
,
00000000
00000000
00000100
00000000
00000010
00000000
00000001
00001000
,
00000000
00000000
00000010
00000000
00000100
00000000
00000001
00000010
,
00000000
00000100
00001000
00000010
,
00010000
00000000
00001000
00000000
01000000
00000000
00010000
00100000
,
00000000
00000000
00000000
00001000
00000000
00001000
00000000
00001000
,
00000000
00000000
00010000
00000000
00000010
00000000
00000000
00001000
,
00000000
00000100
00000000
00000010
00000000
00000000
00000000
00000000
,
00000010
00000000
00001001
00000000
00000001
00000000
00000100
00000010
,
00000000
00000000
00001000
00000000
00000100
00000000
00010000
00001000
,
00000000
00000000
00100000
00000000
00010000
00000000
01000000
00100000
,
00000000
10000000
00010000
00000000
,
00020000
20030000
32000000
03020000
,
00032000
00003020
00000032
00002003
,
00003002
00000203
00002300
00023000
,
00230000
00320000
00002000
00033000
,
00001000
00000000
00010000
00000000
00001000
00000000
01000000
00010000
,
00000000
00100000
00002000
00003000
,
00010000
00000000
00001000
00000000
00010000
00000000
00000100
00001000
,
00000000
00000010
00010000
00001000
,
00100000
00000000
00010000
00000000
01000000
00000000
00100000
10000000
,
00000000
10000000
01000000
00010000
,
00001000
00000010
00000001
00000100
,
00000010
00001000
00000100
00010000
,
00001000
00000000
00100000
00000000
00110000
00000000
00001000
00010000
,
00000000
00000000
00000010
00000000
00001010
00000000
00010000
00001000
,
00000000
00000000
00100000
00000000
00110000
00000000
00001000
00010000
,
00000000
00000100
00001000
00000010
,
00010000
00000000
00010000
00000000
00001000
00000000
00001000
00100000
,
00000000
00010000
00010000
10000000
,
00100000
00000000
00000000
01100000
00000000
00000000
10010000
00000000
,
00010000
00000000
00000000
00100000
00000000
00000000
01000000
00000000
00000000
10000000
00000000
00000000
00010000
00000000
01000000
00000000
,
00000000
00000000
00000000
00000000
,
00002000
00000000
00000000
00000000
,
00000000
00000000
00000000
00000000
00000000
00000000
00000000
00003000
,
00000000
00020000
00000000
00000000
00000000
00000000
00000000
00000000
,
00000000
00000000
00000000
00000000
,
00030000
00000000
00000000
00000000
,
00000000
00000000
00000000
00000000
;
#NOTES:
     dance-double:
     :
     Medium:
     14:
     :
00000000
00000000
00000000
00000000
,
00000000
00000000
00000000
00000000
,
00000000
00000000
00000000
00000000
,
00000000
00000000
00000000
00000000
,
00000000
00000000
00000000
00000000
,
00000000
00000000
00000000
00000000
,
00002000
00000000
00023000
00000000
00031000
01000000
00010000
00100000
,
00002000
00000000
00023000
00000000
00030100
00001000
00000010
00010000
,
00001000
00001000
00000000
00020020
00000000
00030030
00010000
00010000
,
00000000
00202000
00000000
00303000
00001000
00000000
00011000
00000000
,
00010000
00000000
00000000
00000000
00010100
00000000
00000000
00000000
00000100
00000000
00000000
00000010
00000000
00000000
00000001
00000000
,
00001000
00000000
00000010
00000000
00000001
00000000
00000010
00000000
00001000
00000000
00000000
00000100
00000000
00000000
00010000
00000000
,
00001000
00000000
00000000
00000000
01001000
00000000
00000000
00000000
01000000
00000000
00000000
00100000
00000000
00000000
00010000
00000000
,
00100000
10000000
01000000
00010000
01000000
20000000
00000000
00000000
,
30100000
00000000
00000000
00000000
10010000
00000000
00000000
00000000
10000000
00000000
00000000
00100000
00000000
00000000
00010000
00000000
,
00002000
00000000
00000000
00000000
00003010
00000000
00001000
00000000
00010000
00000000
00000000
00000010
00000000
00000000
00001000
00000000
,
00000001
00000010
00000000
00001000
00010000
00000000
01000000
10000000
,
00000000
10000000
00100000
00000000
01000000
00000000
01010000
00000000
,
00110000
00000000
00000000
00000000
11000000
00000000
00000000
00000000
10100000
00000000
00000000
00010000
01000000
00000000
00000000
00000000
,
10010000
00000000
00000000
00000000
00110000
00000000
00000000
00000000
00101000
00000000
00000000
00001000
00010000
00000000
00000000
00000000
,
00001000
00000000
00001000
00000000
00001000
00000000
00000000
00000000
00011000
00000000
00000000
00000010
00001000
00000000
00000000
00000000
,
00000011
00000000
00001100
00000000
00000002
00000003
00002000
00003000
,
00000001
00000100
00000010
00000010
00000100
00000001
00002000
00003000
,
00000100
00000000
00000100
00000000
00010000
00000000
00001000
00000000
00100000
00000000
00000000
00010000
00000000
00000000
01000000
00000000
,
00010000
00010000
10000000
02000000
03000000
00100000
00001000
00010000
,
00000000
00001000
00000000
00022000
00000000
00033000
00000000
00000000
,
00010000
00000000
00000100
00010000
00001000
00000010
00000001
00002000
,
00000000
00003000
00000010
00001000
00000001
00000100
00001000
00020000
,
00000000
00030000
00100000
10000000
00010000
10000000
01000000
00200000
,
00000000
00301000
00010000
00001000
00000100
00000010
00000010
00000000
,
00001000
00000000
00000001
00000010
00000100
00001000
00000001
00000200
,
00000000
00001300
00000100
00000010
00000000
00001010
00000000
00010010
,
00000000
00000000
00000010
00010000
00001000
00010000
00100000
02000000
,
00000000
03100000
10000000
00010000
00100000
00000000
10010000
00000000
,
10000000
01000000
10000000
01000000
00100000
00010000
10000000
00100000
,
00010000
00001000
00010000
00000010
00000100
00000001
00001000
00000100
,
00000010
00000001
00001000
00000001
00000100
00000010
00001000
00001000
,
00000000
00000100
00000010
00000001
00001000
00000100
00010000
00000000
,
00002000
00000000
00013000
00001000
01000000
00100000
10000000
02000000
,
00000000
03010000
01000000
00100000
00000000
00110000
00000000
00101000
,
00000000
00000000
00100000
00001000
00010000
00001000
00000100
00000020
,
00000000
00001030
00000001
00000020
00000000
00000000
00000000
00000000
,
00000030
00000000
00000000
00000002
00000000
00000000
00000013
00000000
00000100
00000000
00010000
00000000
,
00002000
00000000
02003000
03200000
,
20300000
00000000
00000000
30020000
00000000
00000000
02000000
00000000
,
00000000
00000000
03030000
00000000
,
00000000
00000000
00000000
20000000
00000000
00000000
30100000
00000000
01000000
00000000
00001000
00000000
,
00020000
00000000
00030200
00000320
,
00000032
00000000
00000000
00002003
00000000
00000000
00000100
00000000
,
00000020
00000000
00003030
00000000
,
00000001
00000000
00000010
00000100
00001000
00000010
00010000
00001000
,
01000000
00000000
00001000
00010000
00100000
00000000
10100000
00000000
,
00010000
01100000
00001000
00110000
,
00100000
00100000
00001000
00001000
00010000
00010000
00000100
00000100
,
00000010
00000000
00000002
00000200
00000000
00000000
00000000
00000000
,
00000000
00000000
00000000
00000000
00000303
00000000
00000000
00000000
00000001
00000000
00000000
00000100
00000000
00000000
00001000
00000000
,
00020000
00000000
01030000
00000000
10000000
00010000
10000000
00010000
,
00000000
01000000
01100000
00000000
10010000
00000000
00000000
00000000
,
10000000
00100000
01000000
00010000
10000000
01000000
00010000
00001000
,
00010000
00000010
00000100
00000001
00001000
00000100
00000010
00000001
,
00000100
00001000
00010000
00001000
00100000
01000000
10000000
00020000
,
00000000
01030000
00100000
10000000
01000000
00100000
00010000
00000000
,
10000000
01000000
00010000
00000000
10000000
00100000
00001000
00020000
,
00000000
00030010
00001000
00000100
00000000
00000110
00000000
00000011
,
00000000
00000001
00001000
00000010
00000100
00000001
00000010
00000200
,
00000000
00001300
00000001
00002002
00000000
00003003
00000000
00000000
,
00000001
00000100
00000010
00001000
00000001
00000100
00001000
00020000
,
00000000
00130000
10000000
00010000
10000000
01000000
00010000
00002000
,
00000000
00003010
00000001
00001000
00000001
00000100
00001000
00020000
,
00000000
00130000
10000000
00010000
10000000
01000000
00100000
00000000
,
00001000
00010000
00000100
00001000
00000010
00000100
00000001
00000010
,
00000001
00000100
00000010
00001000
00000100
00010000
00001000
00100000
,
00010000
01000000
00100000
10000000
01000000
10000000
00100000
01000000
,
00001000
00000000
00000000
00010000
00000000
00000000
00001000
00000000
00022000
00000000
00000000
00000000
00033000
00000000
00000000
00000000
,
00001000
00000000
00000000
00010000
00000000
00000000
00100000
00000000
10000000
00000000
00000000
00000000
01000000
00000000
00000000
00000000
,
10000000
00010000
10000000
00010000
00100000
00000000
01100000
00000000
,
01000000
00010000
00001000
00000100
00000010
00001000
00000001
00000010
,
00000000
00000100
00001000
00000001
00000010
00000001
00001000
00000000
,
00000001
00000100
00000001
00001000
00000001
00000010
00002000
00010000
,
00000000
01003000
00100000
10000000
00010000
10000000
00100000
00010000
,
00000000
00001000
00000000
00000000
00010000
00000000
01000000
00000000
10000000
00000000
00010000
00000000
01000000
00000000
00100000
00000000
,
10000000
00010000
00100000
00001000
00010000
00000100
00000010
00000000
,
00000001
00001000
00000001
00000100
00001000
00000001
00000010
00020000
,
00000000
00031000
00010000
01000000
10000000
00100000
00010000
00002000
,
00000000
00003100
00000001
00001000
00000001
00000010
00001000
00020000
,
00000000
01030000
10000000
00010000
10000000
00100000
01000000
00000000
,
00001000
00010000
01000000
10000000
00010000
00100000
01000000
20000000
,
00000000
30010000
01000000
00100000
10000000
00010000
00100000
00010000
,
10000000
01000000
00010000
10000000
00100000
00001000
00010000
01000000
,
10000000
01000000
00000000
00100000
00001000
00000000
00010000
00000100
00000000
00000010
00000001
00000000
00001000
00000000
00000002
00000000
,
00000000
00000000
00000000
00000000
,
00000003
00000010
00000100
00001000
00000010
00000100
00002000
00000000
,
00000000
00000000
00000000
00000000
00000000
00000000
00000000
00003000
,
00000000
00010000
00100000
01000000
00010000
00100000
02000000
00000000
,
00000000
00000000
00000000
00000000
,
03000000
00000000
00000000
00000000
,
00000000
00000000
00000000
00000000
;
#NOTES:
     dance-double:
     :
     Hard:
     18:
     :
00000000
00000000
00000000
00000000
,
00000000
00000000
00000000
00000000
,
00000000
00000000
00000000
00000000
,
00000000
00000000
00000000
00000000
,
00000000
00000000
00000000
00000000
,
00000000
00000000
00000000
00000000
,
00001000
00010000
00001000
00010000
00000100
00001000
00000100
00000010
00000001
00000000
00001000
00000010
00000100
00000000
00000001
00000100
,
00000010
00000000
00001000
00000010
00010000
00000000
00001000
00000000
00010000
00001000
01000000
00010000
01000000
00100000
10000000
00010000
,
10000000
00000000
02000000
00000000
03000000
00000000
10000000
01000000
00100000
00010000
00100000
00001000
00010000
00000000
00002000
00000000
,
00003000
00000000
00010000
00000100
00001000
00000100
00000010
00000001
00001000
00000000
00000000
00000000
00001010
00000000
00000000
00000000
,
00010010
00000000
00000000
00000000
00010000
00000000
00000000
00000000
00001000
00000000
00000000
00000100
00000000
00000000
00000010
00000000
,
00001000
00000000
00000010
00000000
00010000
00000000
00001000
00000000
00010000
00000000
00000000
01000000
00000000
00000000
00100000
00000000
,
00001000
00000000
00000000
00000000
00001000
00000000
00010000
00000000
00001000
00000000
00000000
00000100
00000000
00000000
00000010
00000000
,
00001000
00000001
00001000
00000100
00000010
00000100
00001000
00000001
00001000
00000000
00000020
00000000
00000030
00000000
00000000
00000000
,
00010000
00000000
00000000
00000000
00001000
00000000
00000000
00000000
01001000
00000000
00000000
01100000
00000000
00000000
10100000
00000000
,
00100000
00000000
00010000
00000000
00001000
00000000
00010000
00000000
00010100
00000000
00000000
00000110
00000000
00000000
00000011
00000000
,
00001000
00001100
00000000
00010000
00011000
00000000
00011000
00000010
,
00000000
00011000
01000000
00000000
01100000
00000000
10010000
00000000
,
11000000
00000000
00000000
00000000
01010000
00000000
00000000
00000000
00011000
00000000
00000000
00010000
00000100
00000000
00000010
00000000
,
00000011
00000000
00000000
00000000
00000101
00000000
00000000
00000000
00000011
00000000
00000010
00000100
00001000
00000000
00000010
00000000
,
00010000
00000000
00010000
00000000
00011000
00000000
00000000
00000000
01001000
00000000
00000000
01000000
00010000
00000000
00100000
00000000
,
00110000
00000000
11000000
00000000
02000000
03200000
00302000
00013000
,
00001000
00010000
00001000
00010000
00001000
00000000
00010000
00000100
00010000
00000100
00010000
00000000
00001000
00000010
00000001
00000010
,
00000100
00000000
00001000
00000000
00000001
00001000
00000010
00000000
00000100
00000000
00000000
00000001
00000100
00000000
00001000
00000000
,
00010000
00000000
00001000
00010000
00100000
00000000
01000000
00000000
00010000
10000000
01000000
10000000
00010000
00000000
01000000
00000000
,
00000000
00000000
00100000
00000000
00000000
00000000
01100000
00000000
00000000
00000000
01000000
00000000
00010000
10000000
00010000
00100000
,
01000000
00000000
10000000
00010000
00100000
01000000
00010000
00002000
,
00000000
00003000
00000100
00000001
00000010
00000100
00001000
00000020
,
00000000
00000030
00010000
00001000
00000100
00001000
00010000
02000000
,
00000000
00000000
03100000
00000000
00010000
00000000
01000000
00000000
00100000
00000000
00010000
00001000
00010000
00000000
00000000
00000000
,
00000100
00000000
00000010
00000010
00001000
00010000
01000000
00200000
,
00000000
00310000
01000000
00100000
00000000
01010000
00000000
02002000
,
00000000
03003000
00001000
00010000
01000000
00010000
00001000
00000020
,
00000000
00000031
00000010
00000200
00000000
00000300
00001001
00000000
,
00001000
00000000
00000001
00000100
00001000
00000000
00010000
00000000
00001000
01000000
00010000
00000000
00100000
00000000
01000000
00000000
,
00000000
00000000
10000000
01000000
00010000
00000000
00001000
00000000
00010000
00000100
00001000
00000000
00000010
00000000
00000100
00000000
,
00000000
00000000
00000001
00000100
00001000
00000000
00010000
00000000
00001000
01000000
00010000
00000000
00100000
00000000
02000000
00000000
,
00000000
00000000
03010000
10000000
00100000
00000000
00010000
00100000
01000000
00000000
10000000
01000000
00100000
00000000
00000000
00000000
,
00002000
00000000
00013000
00001000
00000100
00000001
00000010
00000200
,
00000000
00001300
00000010
00010010
00000000
00011000
00000000
02002000
,
00000000
03003000
01000000
00100000
00010000
00001000
00001000
00200000
,
00000000
00000000
00000000
00300000
00000000
00000000
01000000
00000000
00000000
10000000
00000000
00000000
00100000
00000000
00000000
00000000
10000000
00000000
00010000
00000000
00000000
00000000
10000000
00000000
,
01000000
00000000
00000000
20000000
00000000
00000000
30200000
00000000
00320000
00000000
00032000
00000000
,
00023000
00000000
00030200
00000320
,
00002030
00000000
00000000
00003002
00000000
00000000
00000203
00000000
,
00000000
00000000
00000300
00000000
,
00010000
00000000
00000000
00002000
00000000
00000000
00023000
00000000
00230000
00000000
02300000
00000000
,
23000000
00000000
32000000
03020000
,
00230000
00000000
00000000
02300000
00000000
00000000
03020000
00000000
,
00002000
00000000
00033000
00011000
,
00010000
00000000
00001000
00000000
00100000
00000000
00000000
00010000
01000000
00000000
00100000
10000000
00000000
01000000
00010000
00000000
,
00001000
00000000
00100000
00001000
00010000
00001000
00010000
00000100
00001000
00000000
00000100
00010000
00001000
00000000
00000010
00000001
,
00001000
00000000
00000010
00000100
00000010
00000000
00000001
00000000
00000010
00000100
00000010
00000000
00001000
00000000
00000010
00000100
,
00000010
00000000
00001000
00000010
00010000
00000000
00001000
00010000
00100000
00000000
00010000
00001000
00100000
00000000
00001000
00010000
,
00100000
00000000
00010000
00001000
01000000
00000000
00010000
00000000
00100000
00000000
01000000
00000000
10000000
00000000
00100000
00000000
,
00010000
00000000
00001000
00000000
00010000
00000000
00000100
00000000
00000010
00000000
00000001
00000100
00000000
00001000
00010000
00000000
,
00200000
00000000
01000000
00000000
10300000
00010000
00100000
01100000
,
00000000
00010000
00110000
00000000
00101000
00000000
00000000
00000000
,
00001000
00000000
00010000
00000100
00001000
00000100
00000010
00000001
00001000
00000000
00000001
00000000
00000100
00000000
00001000
00000000
,
00010000
00000000
00001000
01000000
00010000
01000000
00100000
10000000
00010000
00000000
10000000
00000000
01000000
00000000
00010000
00000000
,
00001000
00000000
00010000
00000100
00000010
00000000
00000001
00000000
00001000
00000000
00000001
00000100
00000010
00000000
00020000
00000000
,
00030000
00000000
00001000
01000000
00010000
00000000
00100000
00000000
01000000
10000000
00010000
10000000
00010000
01000000
00100000
00000000
,
10000000
10000000
01000000
00100000
00001000
00010000
00000010
00020000
,
00000000
00031000
00010000
00000100
00000000
00001100
00000000
00010100
,
00000000
00000000
00000100
00000000
00001000
00000100
00001000
00000010
00010000
00001000
00010000
00000010
00001000
00000000
00000200
00000000
,
00000000
00000010
00000010
00000310
00000000
00000010
00001000
00010000
,
00001000
00000000
00010000
00001000
01000000
00010000
01000000
00100000
10000000
00000000
01000000
00000000
00010000
00000000
00011000
00000000
,
00000000
00000000
00001000
00010000
00000100
00001000
00000100
00000010
00000001
00000000
00000100
00000000
00001000
00000000
00011000
00000000
,
00000000
00000000
00010000
00001000
01000000
00000000
00100000
00000000
10000000
00000000
01000000
00000000
00010000
00000000
00011000
00000000
,
00000000
00000000
00001000
00010000
00000100
00000000
00001000
00000000
00000010
00000100
00000001
00000000
00000010
00000100
00001000
00000000
,
00000010
00001000
00000010
00001000
00000010
00010000
00000010
00010000
00001000
00010000
00001000
00010000
00001000
01000000
00001000
01000000
,
00010000
01000000
00010000
01000000
00010000
00100000
00010000
00100000
00001000
00100000
00001000
00100000
00001000
00010000
00001000
00010000
,
00000100
00000000
00000100
00000000
00001000
00000010
00001000
00000010
00000100
00000000
00000100
00000000
00000001
00000010
00000001
00000010
,
00000100
00000000
00010000
00001000
00000000
01000000
00100000
00000000
02200000
00000000
00000000
00000000
03300000
00000000
00000000
00000000
,
00001000
00000000
00010000
00001000
00010000
00000100
00001000
00000100
00000010
00000000
00000001
00000000
00000010
00000000
00001000
00000000
,
00010000
00001000
01000000
00010000
01000000
00100000
10000000
00010000
10000000
00000000
01000000
00000000
20020000
00000000
30030000
00000000
,
10000000
00000000
00100000
00000000
00010000
00000000
00001000
00000000
00010000
00000000
00001000
00000010
00000001
00000000
00002000
00000000
,
00003000
00000000
00000001
00000100
00000010
00000000
00010000
00000000
00001000
00100000
00010000
00000000
10000000
00100000
01000000
00010000
,
10000000
01000000
10000000
01000000
00100000
01000000
00100000
01000000
00100000
00010000
00100000
00010000
00100000
00001000
00020000
00000000
,
00030000
00000000
00001000
00010000
00000100
00001000
00000100
00000010
00000001
00001000
00000001
00001000
00000001
00000100
00000010
00002000
,
00000000
00003001
00000100
00000010
00001000
00000010
00001000
00000010
00010000
00000010
00010000
00000010
00010000
00001000
00010000
00001000
,
01000000
00001000
01000000
00001000
01000000
00010000
01000000
00010000
10000000
00010000
10000000
00010000
00100000
01000000
10000000
00000000
,
00010000
00000000
10000000
01000000
00010000
00000000
00001000
00000000
00010000
00000100
00000010
00000000
00000001
00000000
00002001
00000000
,
00003000
00000000
00000001
00000100
00001000
00000000
00010000
00000000
00001000
00000000
01000000
00000000
00100000
00000000
10200000
00000000
,
00300000
00000000
10000000
01000000
00010000
00000000
00001000
00000000
00000010
00000000
00000001
00001000
00000010
00000000
00000210
00000000
,
00000300
00000000
00000010
00001000
00000010
00010000
00001000
00010000
00000100
00001000
00000100
00010000
00001000
00010000
00000010
00001000
,
00000010
00000000
00001000
00000001
00001000
00000001
00000100
00000010
00001000
00000010
00010000
00001000
00010000
00001000
00200000
00000000
,
00300000
00000000
00010000
00100000
00010000
10000000
00100000
01000000
00100000
10000000
00010000
00100000
01000000
10000000
00010000
00000000
,
01000000
00010000
10000000
01000000
00100000
00000000
00010000
00100000
00001000
00010000
00000100
00000000
00001000
00000100
00000010
00000000
,
00000001
00000100
00000000
00001000
00010000
00000000
00100000
10000000
00000000
10000000
01000000
00000000
00010000
00001000
00010000
00002000
,
00000000
00000000
00000000
00000000
,
00003000
00010000
00001000
00000100
00000001
00000010
00000200
00000000
,
00000000
00000000
00000000
00000000
00000000
00000000
00000000
00000300
,
00000000
00010000
00001000
00010000
01000000
10000000
00200000
00000000
,
00000000
00000000
00000000
00000000
,
00300000
00000000
00000000
00000000
,
00000000
00000000
00000000
00000000
;
