
//----- song ID: cobu -----//
#TITLE:COLOR BURST;
#ARTIST:Rainy。;
#BANNER:COLOR BURST.png;
#BACKGROUND:COLOR BURST-bg.png;
#CDTITLE:./CDTitles/bm IIDX 33 Sparkle Shower.png;
#MUSIC:COLOR BURST.ogg;
#SAMPLESTART:22.042;
#SAMPLELENGTH:15;
#BPMS:0=170;
#BGSTAGE:1;
#NOTES:
     dance-single:
     :
     Beginner:
     2:
     :
0000
0000
0000
0000
,
0000
0000
0000
0000
,
0000
0000
0000
0000
,
0000
0000
0000
0000
,
0000
0000
0000
0000
,
0000
0000
0000
0000
,
0000
0000
0000
0000
,
0000
0000
0000
0000
,
0000
0000
0000
0000
,
0000
0000
0000
0000
,
0001
0000
0000
0000
,
0001
0000
0000
0000
,
0010
0000
0000
0000
,
0000
0000
0000
0000
,
0010
0000
0000
0000
,
0010
0000
0000
0000
,
1000
0000
0000
0000
,
0000
0000
0000
0000
,
1000
0000
0000
0000
,
0010
0000
0000
0000
,
1000
0000
0000
0000
,
0000
0000
0000
0000
,
1000
0000
0000
0000
,
1000
0000
0000
0000
,
0010
0000
0000
0000
,
0000
0000
0000
0000
,
0010
0000
0000
0000
,
0010
0000
0000
0000
,
0010
0000
0000
0000
,
0000
0000
0000
0000
,
0010
0000
0000
0000
,
0010
0000
0000
0000
,
0001
0000
0000
0000
,
0000
0000
0000
0000
,
0001
0000
0000
0000
,
0001
0000
0000
0000
,
0010
0000
0000
0000
,
0000
0000
0000
0000
,
0001
0000
0000
0000
,
0010
0000
0000
0000
,
0001
0000
0000
0000
,
0000
0000
0000
0000
,
0002
0000
0000
0000
,
0003
0000
0000
0000
,
0001
0000
0000
0000
,
0001
0000
0000
0000
,
0020
0000
0000
0000
,
0030
0000
0000
0000
,
0010
0000
0000
0000
,
0010
0000
0000
0000
,
2000
0000
0000
0000
,
3000
0000
0000
0000
,
1000
0000
0000
0000
,
1000
0000
0000
0000
,
0020
0000
0000
0000
,
0030
0000
0000
0000
,
0020
0000
0000
0000
,
0030
0000
0000
0000
,
0010
0000
0000
0000
,
0000
0000
0000
0000
,
0010
0000
0000
0000
,
0010
0000
0000
0000
,
0001
0000
0000
0000
,
0000
0000
0000
0000
,
0010
0000
0000
0000
,
0010
0000
0000
0000
,
1000
0000
0000
0000
,
0000
0000
0000
0000
,
1000
0000
0000
0000
,
0000
0000
0000
0000
,
0001
0000
0000
0000
,
0000
0000
0000
0000
,
0001
0000
0000
0000
,
0000
0000
0000
0000
,
0001
0000
0000
0000
,
0001
0000
0000
0000
,
0010
0000
0000
0000
,
0000
0000
0000
0000
,
0010
0000
0000
0000
,
0010
0000
0000
0000
,
1000
0000
0000
0000
,
0000
0000
0000
1000
,
0000
0000
0000
0000
;
#NOTES:
     dance-single:
     :
     Easy:
     5:
     :
0000
0000
0000
0000
,
0000
0000
0000
0000
,
0000
0000
0000
0000
,
0000
0000
0000
0000
,
0000
0000
0000
0000
,
0000
0000
0000
0000
,
0000
0000
0000
0000
,
0000
0000
0000
0000
,
0000
0000
0000
0000
,
0000
0000
0000
0000
,
0001
1000
0001
0000
,
1000
0001
1000
0000
,
0001
0100
0010
1000
,
0001
0000
0000
0000
,
1000
0001
1000
0000
,
0001
1000
0001
0000
,
1000
0100
0010
0001
,
1000
0000
0000
0000
,
0001
0001
0010
0000
,
0001
1000
0001
0000
,
1000
1000
0010
0000
,
1000
0001
1000
0000
,
0001
0010
0001
0000
,
1000
0001
1000
0000
,
1000
0010
1000
0000
,
0001
1000
0001
0000
,
1001
0000
0000
0000
,
1000
0100
0010
0000
,
1001
0000
0000
0000
,
0001
0100
0010
0000
,
2000
0000
0000
3000
,
0002
0000
0000
0003
,
1000
0000
0001
0000
,
1001
0000
0000
0000
,
0001
0010
0001
0010
,
0001
0000
0000
0000
,
1000
0010
1000
0010
,
1000
0000
0000
0000
,
0001
0100
0001
0100
,
0001
0000
0000
0000
,
1000
0100
1000
0100
,
1000
0000
0000
0000
,
1001
0000
0000
0000
,
0110
0000
0000
0000
,
1001
0000
0000
0000
,
0110
0000
0000
0000
,
0002
0000
0000
0003
,
0020
0000
0000
0030
,
0200
0000
0000
0300
,
2000
0000
0000
3000
,
1000
0100
0001
0000
,
0001
0100
1000
0000
,
0001
0100
1000
0000
,
1000
0100
0001
0000
,
1000
0100
0010
0001
,
1000
0100
0010
0000
,
0001
0100
0010
1000
,
0001
0100
0010
0000
,
1001
0000
0000
0000
,
0000
0000
0000
0000
,
1000
0000
0010
0000
,
0001
0000
0000
0000
,
0000
0000
0000
0000
,
0000
0000
0000
0000
,
0001
0000
0010
0000
,
1000
0000
0000
0000
,
1001
0000
0000
0000
,
0110
0000
0000
0000
,
1001
0000
0000
0000
,
0000
0000
0000
0000
,
1000
0100
0010
0000
,
0100
0010
0001
0000
,
0001
0100
0010
0000
,
0100
0010
1000
0000
,
0001
1000
0001
0010
,
0001
1000
0001
0000
,
1000
0001
1000
0010
,
1000
0001
1000
0000
,
0001
0010
0100
1000
,
0100
0010
0001
0000
,
1000
0010
0100
0001
,
0100
0010
1000
0001
,
0000
0000
0000
0000
;
#NOTES:
     dance-single:
     :
     Medium:
     10:
     :
0000
0000
0000
0000
,
0000
0000
0000
0000
,
0000
0000
0000
0000
,
0000
0000
0000
0000
,
0000
0000
0000
0000
,
0000
0000
0000
0000
,
0000
0000
0000
0000
,
0000
0000
0000
0000
,
0000
0000
0000
0000
,
0000
0000
0000
0000
,
1000
0000
0001
0100
0001
0000
1000
0100
,
1000
0000
0000
0001
1000
0001
1000
0000
,
0001
0000
0010
0100
0010
0000
0001
1000
,
0001
0010
1000
0010
,
0001
0000
1000
0100
0010
0000
0100
0010
,
0001
0000
1000
0000
0010
0100
0010
0000
,
1000
0000
0002
0000
0000
0000
0003
1001
,
0000
0001
0010
0100
,
1000
0001
1000
0001
0100
0010
0100
0000
,
0001
0100
0010
0000
1000
0000
0001
0000
,
0010
0001
0010
0001
1000
0100
1000
0000
,
0010
0100
0010
0000
1000
0001
1000
0000
,
0001
1000
0001
1000
0100
0010
0100
0000
,
1000
0100
0010
0000
0001
0000
1000
0000
,
0010
1000
0010
1000
0001
0100
0001
0000
,
0010
0100
0010
0000
0001
1000
0001
0000
,
1000
0000
0100
1000
0010
0100
0001
0000
,
0010
0000
0001
0000
0100
0010
0100
0000
,
0001
0000
0010
0001
0100
0000
0010
1000
,
0000
0000
0010
0000
0100
0010
0100
0000
,
0001
0000
0100
1000
0000
0100
0000
0001
,
0000
1000
0100
0001
0100
0000
1000
0001
,
0000
0010
0100
0010
0100
0000
1000
0100
,
0010
0000
0011
0000
0001
1000
0001
0000
,
1000
0010
1000
1010
,
0001
0010
0001
0011
,
1000
0100
1000
1100
,
0001
0100
0001
0101
,
1000
0100
0001
0000
0100
0000
1000
0000
,
0001
0100
1000
0000
0100
0000
0001
0000
,
1000
0010
0001
0000
0001
0010
1000
0000
,
2002
0000
0000
3003
,
0000
1010
0000
0101
,
0000
0011
0000
1100
,
0000
0110
0000
1001
,
0000
0110
0000
1001
,
1000
0100
1000
0000
0100
0010
0001
0000
,
0001
0100
0001
0000
0100
0010
1000
0000
,
0001
1000
0110
1001
,
1000
0001
0110
1001
,
1000
0100
1000
0100
1000
0100
1000
0000
,
0100
0010
0100
0010
0100
0010
0100
0000
,
0010
0001
0010
0001
0010
0001
0010
0000
,
0001
1000
0001
1000
0001
1000
0001
0000
,
1000
1000
1100
0110
,
0001
0001
0101
0110
,
1000
0010
1000
0010
0100
0001
0100
0001
,
1000
0001
1000
0001
1000
0000
0000
0000
,
0002
0000
0000
0000
,
0000
0000
0000
0000
,
2003
0000
0000
0000
,
0000
0000
0000
0000
,
3020
0000
0000
0000
,
0000
0000
0000
0000
,
0230
0000
0000
0000
,
0000
0000
0000
0000
,
0301
0000
0010
0000
,
0001
0000
0011
0000
,
1000
0000
0100
0000
,
1000
0000
1100
0000
,
0001
0100
0001
0000
,
0001
0010
0001
0000
,
1000
0000
0010
0000
1000
0001
1000
0000
,
0002
0000
0000
0003
,
0001
0010
0100
1000
0010
0100
0001
0000
,
0001
0100
0010
0000
0010
0100
0001
0000
,
1000
0100
0010
0001
0100
0010
1000
0000
,
1000
0100
0010
0000
0010
0100
1000
0000
,
0001
0010
1000
0010
0001
1000
0100
0000
,
0010
0001
0100
0000
0100
0001
0010
0000
,
0001
0100
1000
0100
0001
0010
0100
0000
,
1000
0100
0010
0001
0100
0010
1000
0000
,
0000
0000
0000
0000
;
#NOTES:
     dance-single:
     :
     Hard:
     13:
     :
0000
0000
0000
0000
,
0000
0000
0000
0000
,
0000
0000
0000
0000
,
0000
0000
0000
0000
,
0000
0000
0000
0000
,
0000
0000
0000
0000
,
0000
0000
0000
0000
,
0000
0000
0000
0000
,
0000
0000
0000
0000
,
0000
0000
0000
0000
,
1000
0000
0100
0010
0001
0000
0100
0010
,
1000
0000
0001
0100
1000
0100
0001
1000
,
0100
0000
0010
0001
0100
0000
0010
1000
,
0100
0010
0110
1001
,
0001
0000
1000
0010
0100
0000
0010
1000
,
0001
0000
0010
0000
0100
0001
0100
1000
,
0100
0000
0020
0000
0000
0000
0030
0110
,
0000
0002
2003
3002
,
1003
0010
0100
0010
1000
0100
0010
0001
,
1000
0000
0100
0000
0010
0000
0000
0000
0011
0000
0000
0000
1001
0000
0001
1000
,
0001
0000
0100
0000
0010
0000
0100
0000
0001
0000
0010
0000
0100
0000
1000
0001
,
1000
0010
0001
0010
1000
0100
0010
0000
,
0001
0010
0100
0010
0001
0100
0010
1000
,
0001
0000
0100
0000
0010
0000
0000
0000
1010
0000
0000
0000
1001
0000
1000
0001
,
1000
0000
0100
0000
0010
0000
0100
0000
1000
0000
0010
0000
0100
0000
0001
1000
,
0001
0010
1000
0010
0001
0100
0010
1000
,
0001
0000
1000
0010
0001
0010
1000
0100
,
1100
0000
1001
0000
0001
0010
0100
0000
,
1000
0000
0001
0010
1000
0010
0001
0100
,
0000
0100
0010
0000
1000
0001
1000
0000
,
1001
0001
0100
0010
0000
0010
0100
0010
,
0000
1000
0010
0001
0010
0000
1000
0001
,
0000
0001
0100
0001
0010
0000
0010
0001
,
0011
0000
1100
0000
1001
0001
1000
0000
,
0001
0010
0100
0010
0001
0100
0010
0100
,
0000
0100
1000
0100
0001
0100
0010
0100
,
0000
0100
1000
0100
0010
1000
0100
0010
,
0001
0010
1000
0010
0001
1000
0100
0010
,
0000
0001
0100
0000
1010
0000
1000
0100
,
0000
0011
0000
0000
0110
0000
1001
0000
,
2000
3100
0022
0033
,
0002
0000
0103
0000
1010
1000
0010
0000
,
0010
0100
1001
0000
0001
0100
1010
0000
,
0100
0010
1001
0000
1000
0100
0011
0000
,
1000
0100
1000
0100
0001
0100
0001
0100
,
1000
0000
0010
0000
0001
0000
0010
0000
1000
0000
0010
0100
0010
0000
0100
0000
,
0001
0100
0002
0000
1003
0100
1000
1000
,
0010
0000
0100
0000
0010
0000
0010
0000
0110
0000
0000
0000
1000
0010
0000
0000
,
0100
0001
0000
0010
0002
0000
0000
0000
1003
0000
0000
0000
0010
0100
0000
0000
,
0001
0010
0000
0001
0200
0000
0000
0000
0301
0000
0000
0000
1001
0000
0000
0000
,
1000
0010
0001
0010
1000
0100
0010
0001
,
1000
0100
0010
0100
0001
0100
1000
0001
,
0100
0010
0001
0010
0100
0001
0010
0100
,
0001
0100
1000
0100
0001
0100
1000
0000
,
0001
0100
1000
0100
0001
0010
0100
0001
,
1000
0010
0100
1000
0100
0010
1000
0001
,
0100
0010
0001
0100
0010
1000
0100
0010
,
0001
0010
0001
0000
1000
0010
1000
0000
0020
0000
0000
0000
0130
0000
0000
0000
,
2002
0000
0000
0000
,
3003
0000
0000
1000
0100
0010
0001
0100
,
0010
0000
0000
0010
1000
0000
0000
1000
,
0001
0100
0000
0000
0000
0000
0010
0000
,
0110
0000
0000
0001
0100
0000
0000
1000
,
0100
0000
0001
0000
0000
0001
0010
0100
,
1000
0000
0000
1010
0000
0000
1001
0000
,
0000
0002
2003
3002
,
1003
0000
1000
0000
,
1100
0000
1001
0000
,
0001
0000
0001
0000
,
0011
0000
1001
0000
,
0001
0100
0010
0100
0001
0010
1000
0010
,
0001
0100
0010
0100
0001
0010
1000
0010
,
0001
0100
0001
0000
1000
0100
1000
0000
0001
0010
0001
0000
1000
0010
1000
0000
,
0002
0000
0000
0003
,
0001
0000
0100
0010
1000
0000
0001
0000
1000
0000
0100
0010
0001
0000
1000
0000
,
0100
0000
0010
0000
1001
0000
0000
0000
0010
0000
0100
0000
1001
0000
0001
1000
,
0001
0000
0100
0000
0010
0000
1000
0000
0100
0000
1000
0010
0100
0000
0001
1000
,
0001
0100
1000
0100
0001
0010
0001
0000
,
1000
0000
0010
0100
0001
0000
1000
0000
0001
0000
0010
0100
1000
0000
0001
0000
,
0010
0000
0100
0000
1001
0000
0000
0000
0100
0000
0010
0000
1001
0000
1000
0001
,
1000
0000
0010
0000
0100
0000
0001
0000
0010
0000
0001
0100
0010
0000
1000
0001
,
1000
0000
0010
0000
0001
0000
0010
0000
1000
0100
1000
0100
0010
0000
0000
0000
,
0000
0000
0000
0000
;
#NOTES:
     dance-double:
     :
     Easy:
     6:
     :
00000000
00000000
00000000
00000000
,
00000000
00000000
00000000
00000000
,
00000000
00000000
00000000
00000000
,
00000000
00000000
00000000
00000000
,
00000000
00000000
00000000
00000000
,
00000000
00000000
00000000
00000000
,
00000000
00000000
00000000
00000000
,
00000000
00000000
00000000
00000000
,
00000000
00000000
00000000
00000000
,
00000000
00000000
00000000
00000000
,
00001000
00010000
00001000
00000000
,
00010000
00001000
00010000
00000000
,
00001000
00010000
00000010
00001000
,
00000001
00000000
00000000
00000000
,
00000001
00001000
00000001
00000000
,
00001000
00000001
00001000
00000000
,
00000001
00000010
00000100
00010000
,
00001000
00000000
00000000
00000000
,
00010000
00010000
00001000
00000000
,
00001000
00100000
00010000
00000000
,
00100000
00100000
01000000
00000000
,
10000000
00010000
10000000
00000000
,
10000000
01000000
00100000
00000000
,
00010000
00100000
00001000
00000000
,
00010000
00001000
00010000
00000000
,
00001000
00010000
00000100
00000000
,
00001000
00000000
00000100
00000000
,
00000010
00000001
00000010
00000000
,
00000001
00000000
00000100
00000000
,
00000010
00001000
00000010
00000000
,
00020000
00000000
00000000
00030000
,
00002000
00000000
00000000
00003000
,
00010000
00000000
00001000
00000000
,
00011000
00000000
00000000
00000000
,
00001000
00000000
00010000
00000000
,
00100000
00000000
00000000
00000000
,
10000000
00000000
01000000
00000000
,
00010000
00000000
00000000
00000000
,
00001000
00000000
00000010
00000000
,
00000001
00000000
00000000
00000000
,
00000100
00000000
00001000
00000000
,
00010000
00000000
00000000
00000000
,
00011000
00000000
00001000
00000000
,
00100000
00000000
00010000
00000000
,
10000000
00000000
01000000
00000000
,
00100000
00000000
00000000
00000000
,
00020000
00000000
00000000
00030000
,
00200000
00000000
00000000
00300000
,
00002000
00000000
00000000
00003000
,
00020000
00000000
00000000
00030000
,
00001000
00010000
00001000
00000000
,
00010000
00000000
00000100
00000000
,
00001000
00000010
00001000
00000000
,
00000001
00000000
00000010
00000000
,
00000001
00000100
00000010
00001000
,
00000100
00010000
00001000
00000000
,
00100000
00010000
01000000
00100000
,
10000000
00000000
00010000
00000000
,
10010000
00000000
00000000
00000000
,
00000000
00000000
00000000
00000000
,
10000000
00000000
01000000
00000000
,
00010000
00000000
00000000
00000000
,
00000000
00000000
00000000
00000000
,
00000000
00000000
00000000
00000000
,
00001000
00000000
00000010
00000000
,
00000001
00000000
00000000
00000000
,
00001001
00000000
00000000
00000000
,
00000110
00000000
00000000
00000000
,
00000001
00000000
00001000
00000000
,
00000100
00000000
00010000
00000000
,
00001000
01000000
00001000
00000000
,
01000000
00010000
01000000
00000000
,
00010000
00100000
01000000
00000000
,
00100000
01000000
10000000
00000000
,
00010000
10000000
00010000
00100000
,
00010000
01000000
00010000
00000000
,
00100000
00010000
00100000
00001000
,
00010000
00001000
00010000
00000000
,
00001000
00010000
00000100
00001000
,
00000100
00000010
00000001
00000000
,
00001000
00000001
00000100
00000010
,
00001000
00000010
00010000
00001000
,
00000000
00000000
00000000
00000000
;
#NOTES:
     dance-double:
     :
     Medium:
     10:
     :
00000000
00000000
00000000
00000000
,
00000000
00000000
00000000
00000000
,
00000000
00000000
00000000
00000000
,
00000000
00000000
00000000
00000000
,
00000000
00000000
00000000
00000000
,
00000000
00000000
00000000
00000000
,
00000000
00000000
00000000
00000000
,
00000000
00000000
00000000
00000000
,
00000000
00000000
00000000
00000000
,
00000000
00000000
00000000
00000000
,
00001000
00000000
00010000
00001000
00010000
00000000
00001000
00010000
,
00001000
00000000
00000000
00010000
00001000
01000000
00010000
00000000
,
01000000
00000000
00100000
01000000
00100000
00000000
10000000
00010000
,
10000000
01000000
00010000
00001000
,
00000010
00000000
00000001
00000010
00000100
00000000
00001000
00000010
,
00000100
00000000
00000001
00000000
00001000
00000001
00001000
00000000
,
00000100
00000000
00000020
00000000
00000000
00000000
00000030
00001001
,
00000000
00000001
00000010
00000100
,
00001000
00000100
00001000
00000100
00010000
00000100
00010000
00000000
,
00001000
00010000
00001000
00000000
00010000
00000000
00011000
00000000
,
00001000
01000000
00001000
01000000
00010000
01000000
00010000
00000000
,
01000000
00100000
01000000
00000000
00010000
10000000
00010000
00000000
,
10000000
00100000
10000000
00100000
01000000
00010000
01000000
00000000
,
00010000
10000000
00010000
00000000
00100000
00000000
01100000
00000000
,
01000000
10000000
01000000
10000000
00010000
01000000
00010000
00000000
,
01000000
00001000
01000000
00000000
00001000
00010000
00001000
00000000
,
00010000
00000000
00001000
00010000
00000100
00001000
00000010
00000000
,
00000100
00000000
00001000
00000000
00000100
00000001
00000100
00000000
,
00000001
00000000
00000010
00000100
00001000
00000000
00000100
00010000
,
00000000
00000000
00001000
00000000
00010000
00001000
00010000
00000000
,
00001000
00000000
01000000
00010000
00000000
00100000
00000000
00010000
,
00000000
10000000
01000000
00000000
00010000
00000000
01000000
10000000
,
00000000
00010000
10000000
00010000
10000000
00000000
01000000
00100000
,
00010000
00000000
00110000
00000000
00100000
00001000
00010000
00000000
,
00001000
00010000
00000100
00001100
,
00001000
00000100
00000010
00000011
,
00000001
00001000
00000010
00001010
,
00001000
00000100
00010000
00011000
,
00001000
01000000
00010000
01010000
,
01000000
00100000
10000000
10010000
,
10000000
01000000
00100000
00000000
00010000
00100000
00001000
00000000
,
00022000
00000000
00000000
00033000
,
00000000
00010100
00000000
00001010
,
00000000
00000101
00000000
00001001
,
00000000
00001100
00000000
00010100
,
00000000
00011000
00000000
01001000
,
01000000
00010000
01000000
00000000
00010000
00100000
00010000
00000000
,
10000000
01000000
10000000
00000000
00100000
10000000
00100000
00000000
,
10000000
00000000
01000000
00000000
00100000
00001000
00010000
00000000
,
00001000
00000000
00010000
00000000
00000010
00001000
00000001
00000000
,
00001000
00000100
00001000
00000100
00001000
00000100
00001000
00000000
,
00000100
00010000
00000100
00010000
00000100
00010000
00000100
00000000
,
00010000
00001000
00010000
00001000
00010000
00001000
00010000
00000000
,
00000010
00010000
00000010
00010000
00000010
00010000
00000010
00000000
,
00001000
00001000
00000001
00000001
,
00000010
00000010
00000100
00000100
,
00010000
00001000
00010000
00001000
01000000
00010000
01000000
00010000
,
10000000
00010000
10000000
00010000
10000000
00000000
00000000
00000000
,
00020000
00000000
00000000
00000000
,
00000000
00000000
00000000
00000000
,
20030000
00000000
00000000
00000000
,
00000000
00000000
00000000
00000000
,
30200000
00000000
00000000
00000000
,
00000000
00000000
00000000
00000000
,
00320000
00000000
00000000
00000000
,
00000000
00000000
00000000
00000000
,
00031000
00000000
00010000
00000000
,
00001000
00000000
00001000
00000000
,
00010000
00000000
00000010
00000000
,
00001000
00000000
00001000
00000000
,
00000001
00000010
00000100
00000000
,
00000100
00010000
00001000
00000000
,
00001000
00100000
00010000
01000000
,
00200000
00000000
00000000
00300000
,
10000000
00100000
01000000
00010000
00100000
01000000
10000000
00000000
,
01000000
00100000
00010000
00000000
00100000
00001000
00010000
00000000
,
00001000
00010000
00000100
00001000
00000010
00000100
00000001
00000000
,
00000010
00000100
00001000
00000000
00000010
00000100
00000001
00000000
,
00001000
00000001
00000100
00000010
00001000
00000001
00000010
00000000
,
00000100
00010000
00001000
00000000
00010000
00001000
00100000
00000000
,
00010000
00100000
01000000
10000000
00010000
01000000
00100000
00000000
,
10000000
01000000
00100000
01000000
00010000
00001000
00010000
00000000
,
00000000
00000000
00000000
00000000
;
#NOTES:
     dance-double:
     :
     Hard:
     14:
     :
00000000
00000000
00000000
00000000
,
00000000
00000000
00000000
00000000
,
00000000
00000000
00000000
00000000
,
00000000
00000000
00000000
00000000
,
00000000
00000000
00000000
00000000
,
00000000
00000000
00000000
00000000
,
00000000
00000000
00000000
00000000
,
00000000
00000000
00000000
00000000
,
00000000
00000000
00000000
00000000
,
00000000
00000000
00000000
00000000
,
00001000
00000000
00010000
01000000
10000000
00000000
01000000
00010000
,
00001000
00000000
00010000
00001000
00010000
00000100
00001000
00000010
,
00000100
00000000
00000001
00000010
00000100
00000000
00001000
00000010
,
00000100
00001000
00010000
00011000
,
00001000
00000000
00010000
00001000
00000100
00000000
00000001
00000100
,
00001000
00000000
00010000
00000000
00001000
00100000
00001000
01000000
,
00001000
00000000
00020000
00000000
00000000
00000000
00030000
00011000
,
00000000
00002000
00023000
00230000
,
10300000
00010000
01000000
00100000
10000000
01000000
00100000
00010000
,
10000000
00000000
01000000
00000000
00100000
00000000
00000000
00000000
00110000
00000000
00000000
00000000
00101000
00000000
00001000
00010000
,
00001000
00000000
00010000
00000000
00000100
00000000
00001000
00000000
00000010
00000000
00000100
00000000
00000010
00000000
00001000
00000001
,
00001000
00000100
00000001
00000100
00001000
00000100
00000010
00000000
,
00000001
00001000
00000100
00000010
00000001
00000100
00000010
00001000
,
00000001
00000000
00000100
00000000
00000010
00000000
00000000
00000000
00001010
00000000
00000000
00000000
00010010
00000000
00010000
00001000
,
00010000
00000000
00001000
00000000
01000000
00000000
00010000
00000000
00100000
00000000
01000000
00000000
00100000
00000000
00010000
10000000
,
00010000
01000000
10000000
01000000
00010000
01000000
00100000
10000000
,
00010000
00000000
10000000
01000000
00010000
01000000
00010000
00001000
,
00010000
00000000
00011000
00000000
00010000
00001000
00000010
00000000
,
00000110
00000000
00000001
00000100
00001000
00000100
00001000
00010000
,
00000000
00010000
00001000
00000000
00001000
00010000
00100000
00000000
,
10000000
00100000
00010000
00100000
00000000
00100000
01000000
00100000
,
00000000
00100000
10000000
00010000
00100000
00001000
00010000
00001000
,
00000000
00001000
00010000
00000100
00010000
00000000
00000100
00001000
,
00000100
00000000
00001100
00000000
00001000
00000100
00000010
00000000
,
00000001
00000010
00000001
00000100
00000001
00000010
00000100
00001000
,
00000000
00001000
00000100
00010000
00001000
00010000
00001000
00010000
,
00000000
00010000
00001000
00010000
01000000
00100000
00001000
00010000
,
00000000
00011000
00000000
00001000
00010000
00100000
10000000
00010000
,
00000000
00010000
01000000
00000000
10100000
00000000
10000000
01000000
,
00000000
00110000
00000000
00000000
00101000
00000000
00011000
00000000
,
00020000
00032000
00003020
00000030
,
00000002
00000000
00000203
00000000
00000310
00001000
00001010
00000000
,
00000010
00010000
00011000
00000000
00001000
01000000
01001000
00000000
,
00001000
00100000
00101000
00000000
00100000
00001000
00011000
00000000
,
00010000
00001000
00010000
00001000
00000010
00001000
00000010
00001000
,
00010000
00001000
00010000
00100000
00010000
00100000
00010000
00001000
,
00010000
00000000
00022000
00000000
00033000
00010000
00001000
00000100
,
00000001
00000000
00000010
00000000
00000100
00000000
00000010
00000000
00000110
00000000
00000000
00000000
00000001
00000010
00000000
00000000
,
00000100
00001000
00000000
00000100
00020000
00000000
00000000
00000000
00031000
00000000
00000000
00000000
00010000
00001000
00000000
00000000
,
00100000
00010000
00000000
01000000
00020000
00000000
00000000
00000000
10030000
00000000
00000000
00000000
10010000
00000000
00000000
00000000
,
10000000
00100000
00010000
00001000
00010000
01000000
00100000
00001000
,
00010000
00000010
00001000
00000100
00010000
00001000
00000100
00000010
,
00001000
00000100
00000001
00001000
00000010
00000001
00000100
00001000
,
00000100
00000010
00010000
00001000
01000000
00010000
10000000
00000000
,
00010000
00100000
10000000
00100000
00010000
01000000
00001000
00010000
,
01000000
00100000
00001000
00010000
00000010
00000100
00000001
00001000
,
00000100
00000001
00001000
00000010
00000100
00001000
00000010
00000100
,
00000010
00001000
00000010
00000000
00010000
00001000
00010000
00000000
00002000
00000000
00000000
00000000
00013000
00000000
00000000
00000000
,
00022000
00000000
00000000
00000000
,
00033000
00000000
00000000
00001000
00010000
00100000
10000000
00010000
,
01000000
00000000
00000000
00100000
10000000
00000000
00000000
00010000
,
10000000
01000000
00000000
00000000
00000000
00000000
00100000
00000000
,
01100000
00000000
00000000
10000000
01000000
00000000
00000000
00100000
,
00010000
00000000
10000000
00000000
00000000
00010000
01000000
00001000
,
00010000
00000000
00000000
00011000
00000000
00000000
00010010
00000000
,
00000000
00000020
00002030
00003200
,
00000310
00000000
00000010
00000000
,
00000011
00000000
00001001
00000000
,
00001000
00000000
00001000
00000000
,
00001100
00000000
00010100
00000000
,
00010000
00001000
01000000
00100000
00010000
00001000
01000000
00100000
,
00010000
00001000
00000100
00000010
00010000
00001000
00000100
00000010
,
00001000
00000010
00001000
00000000
00000100
00010000
00000100
00000000
00010000
00001000
00010000
00000000
00001000
01000000
00001000
00000000
,
00200000
00000000
00000000
00300000
,
00010000
00000000
00100000
01000000
10000000
00000000
00100000
00000000
01000000
00000000
00010000
00100000
00001000
00000000
00010000
00000000
,
00000100
00000000
00000010
00000000
00000110
00000000
00000000
00000000
00000001
00000000
00001000
00000000
00001001
00000000
00000001
00001000
,
00000001
00000000
00000010
00000000
00000100
00000000
00001000
00000000
00000010
00000000
00000100
00000010
00001000
00000000
00000100
00000000
,
00010000
00001000
00010000
01000000
00100000
00010000
01000000
00000000
,
00010000
00000000
01000000
00100000
10000000
00000000
01000000
00000000
00100000
00000000
00010000
00100000
00001000
00000000
00010000
00000000
,
00001000
00000000
00100000
00000000
00011000
00000000
00000000
00000000
00010000
00000000
00001000
00000000
00011000
00000000
00010000
00001000
,
00010000
00000000
00000100
00000000
00001000
00000000
00000010
00000000
00000100
00000000
00000001
00000100
00000010
00000000
00001000
00000010
,
00001000
00000000
00000100
00000000
00010000
00000000
00001000
00000000
00010000
00001000
00010000
00001000
00010000
00000000
00000000
00000000
,
00000000
00000000
00000000
00000000
;
