
//----- song ID: byon -----//
#TITLE:Bye or not;
#ARTIST:PSYQUI feat. mikanzil;
#BANNER:Bye or not.png;
#BACKGROUND:Bye or not-bg.png;
#CDTITLE:./CDTitles/SDVX VIVID WAVE.png;
#MUSIC:Bye or not.ogg;
#SAMPLESTART:22.587;
#SAMPLELENGTH:15;
#BPMS:0=170;
#NOTES:
     dance-single:
     :
     Beginner:
     4:
     :
0000
0000
0000
0000
,
0000
0000
0000
0000
,
0000
0000
0000
0000
,
0000
0000
0000
0000
,
0000
0000
0000
0000
,
1000
0000
0000
0000
,
1000
0000
0000
0000
,
0010
0000
0000
0000
,
0000
0000
0000
0000
,
0010
0000
0000
0000
,
0001
0000
0000
0000
,
0010
0000
0000
0000
,
0000
0000
0000
0000
,
0001
0000
0000
0000
,
0001
0000
0000
0000
,
0010
0000
0000
0000
,
0000
0000
0000
0000
,
1001
0000
0000
0000
,
0001
0000
0001
0000
,
0010
0000
0000
0000
,
0010
0000
0001
0000
,
0010
0000
0000
0000
,
0010
0000
0010
0000
,
1000
0000
0000
0000
,
1000
0000
0010
0000
,
1000
0000
0000
0000
,
1000
0000
1000
0000
,
0100
0000
0010
0000
,
0010
0000
0000
0000
,
0000
0000
0000
0000
,
0001
0000
0001
0000
,
0100
0000
0010
0000
,
0010
0000
0000
0000
,
0000
0000
0000
0000
,
1000
0000
1000
0000
,
0010
0000
0000
0000
,
0010
0000
0010
0000
,
0001
0000
0000
0000
,
0001
0000
0001
0000
,
0010
0000
0000
0000
,
0010
0000
0010
0000
,
1000
0000
0000
0000
,
2000
0000
0000
0000
,
3000
0000
0000
0000
,
0020
0000
0000
0000
,
0030
0000
0000
0000
,
0200
0000
0000
0000
,
0300
0000
0000
0000
,
0002
0000
0000
0000
,
0003
0000
0000
0000
,
0001
0000
0001
0000
,
0010
0000
0010
0000
,
0001
0000
0010
0000
,
1000
0000
0000
0000
,
1000
0000
1000
0000
,
0010
0000
0010
0000
,
1000
0000
0000
0000
,
1001
0000
0000
0000
,
1000
1000
0100
0000
,
1000
0000
1000
0000
,
1000
0010
1000
0000
,
0010
0000
0000
0000
,
0001
0001
0100
0000
,
0001
0000
0001
0000
,
0001
0010
0001
0000
,
0001
0000
0000
0000
,
0001
0000
0100
0000
,
1000
0000
1000
0000
,
1001
0000
0000
0000
,
1001
0000
0000
0000
,
1000
0000
0010
0000
,
0001
0000
0001
0000
,
1001
0000
0000
0000
,
1001
0000
0000
0000
,
0002
0000
0000
0000
,
0003
0000
0000
0000
,
2000
0000
0000
0000
,
3000
0000
0000
0000
,
0020
0000
0000
0000
,
0030
0000
0000
0000
,
0200
0000
0000
0000
,
0000
0000
0000
0300
,
0000
0000
0000
0000
;
#NOTES:
     dance-single:
     :
     Easy:
     8:
     :
0000
0000
0000
0000
,
0000
0000
0000
0000
,
0000
0000
0000
0000
,
0000
0000
0000
0000
,
0000
0000
0000
0000
,
0001
0000
0000
0000
,
1000
0000
0000
0000
,
0100
0000
0000
0000
,
0010
0000
0000
0000
,
0001
0010
0001
0100
,
0001
0010
0100
0000
,
1000
0010
1000
0100
,
1000
0010
0100
0000
,
0001
0100
0010
1000
,
0001
0010
0100
1000
,
0001
1000
0001
0000
1000
0000
0001
0000
,
1000
0000
0000
0000
,
1001
0000
0000
0000
,
0010
0000
0010
0000
,
0110
0000
1001
0000
,
1000
0100
0010
0000
,
0001
0100
0010
1000
,
0001
0000
0110
0000
,
1000
0010
0100
0001
,
0010
0010
0100
0000
,
1000
1000
0001
0000
,
1000
0100
1000
0100
,
0001
0100
1000
1000
,
0001
0100
0001
0100
,
1000
0100
0001
0001
,
1000
0010
1000
0010
,
0001
0010
1000
0000
,
0110
0000
1001
0000
,
1000
0100
0010
0001
,
1000
0000
0100
0000
0010
0001
1000
0000
,
0001
0000
0100
0000
0010
1000
0001
0000
,
1000
0100
0001
0100
,
1000
0000
0010
0000
0100
0010
0100
0000
,
0001
0000
0010
0000
0100
1000
0001
0000
,
1000
0000
0010
0000
0100
0001
1000
0000
,
0001
0010
1000
0010
,
0001
0000
0100
0000
0010
0100
0010
0000
,
1000
0000
0010
0000
,
0100
0001
0100
0000
,
0001
1000
0001
1000
,
0001
1000
0001
0000
,
1000
0000
0100
0000
,
0010
0001
0010
0000
,
0001
1000
0001
1000
,
0001
1000
0001
0000
,
1000
0000
0010
0000
0100
0001
1000
0000
,
0100
0000
0010
0000
0001
1000
0010
0000
,
0100
0001
0100
1000
,
0100
0000
0010
0000
0100
0010
0100
0000
,
0001
0000
0100
0000
0010
1000
0001
0000
,
0010
0000
0100
0000
1000
0001
0100
0000
,
0010
1000
0100
0000
0010
0000
0001
0000
,
1001
0000
0000
0000
,
1000
0000
0100
0000
1000
0000
0010
0100
,
0010
0000
1000
0000
0001
0010
0001
0000
,
0100
0000
0010
0000
1000
0000
0001
0100
,
0001
0000
0010
0000
0100
1000
0100
0000
,
1000
0000
0100
0000
0001
0000
0100
0010
,
0100
0000
0010
0000
0001
1000
0001
0000
,
0100
0000
0010
0000
1000
0001
1000
0000
,
0100
0100
0100
0000
,
1000
0000
0100
0000
0010
0000
0001
0100
,
0010
0000
1000
0000
0010
0100
0001
0000
,
0100
0000
0010
0000
1000
0000
0100
0010
,
0100
0000
0010
0000
0001
1000
0100
0000
,
1000
0000
0010
0000
0001
0000
0010
1000
,
0001
0000
0100
0000
0010
1000
0001
0000
,
0010
0000
0100
0000
1000
0001
0100
0000
,
0010
0010
0010
0000
,
2000
0000
0000
0000
,
0000
0000
0000
3000
,
0002
0000
0000
0000
,
0000
0000
0000
0003
,
0020
0000
0000
0000
,
0000
0000
0000
0030
,
0200
0000
0000
0000
,
0000
0000
0300
0110
,
0000
0000
0000
0000
;
#NOTES:
     dance-single:
     :
     Medium:
     12:
     :
0000
0000
0000
0000
,
0000
0000
0000
0000
,
0000
0000
0000
0000
,
0000
0000
0000
0000
,
0000
0000
0000
0000
,
0002
0000
0000
0003
,
2000
0000
0000
3000
,
0200
0000
0000
0300
,
0020
0000
0000
0030
,
0001
0010
0001
0000
0100
0001
0100
0000
,
0010
1000
0010
0000
1000
0100
1000
0000
,
0001
1000
0010
0000
1000
0001
0010
0000
,
0001
1000
0100
0000
1000
0001
0100
0000
,
0001
0100
0010
1000
0001
0100
0010
0000
,
1000
0100
0010
0001
1000
0100
0010
0000
,
0001
0100
0010
1000
0010
0100
0010
0000
,
1001
0000
0000
0000
,
0200
0000
0000
0300
,
0110
0000
0000
0000
0000
0000
0000
0000
1000
0000
0000
0001
0000
0000
1000
0000
,
0100
0000
0010
0000
0001
0000
0000
0000
1000
0000
0000
0010
0000
0000
0100
0000
,
0001
0000
0000
0000
1001
0000
0000
0000
1000
0000
0000
0100
0000
0000
1000
0000
,
0010
0000
0100
0000
0001
0000
1000
0000
0010
0000
0000
0100
0000
0000
0010
0000
,
0100
0000
0000
0000
0110
0000
0000
0000
0001
0000
0000
1000
0000
0000
0001
0000
,
0010
0000
0100
0000
1000
0000
0000
0000
0010
0000
0000
0100
0000
0000
0001
0000
,
1000
0000
0000
0000
1001
0000
0000
0000
0001
0000
0000
0100
0000
0000
0010
0000
,
1000
0000
0100
0000
0010
0000
0000
0000
0001
0000
0000
0010
0000
0000
0100
0000
,
1000
0000
0000
0000
0110
0000
0000
0000
0001
0000
0000
0010
0000
0000
1000
0000
,
0010
0000
0001
0000
1000
0000
0000
0000
0001
0000
0000
0100
0000
0000
0010
0000
,
1000
0000
0000
0000
1001
0000
0000
0000
1000
0000
0000
0010
0000
0000
0001
0000
,
0010
1000
0010
0000
0100
0001
0100
0000
,
0001
0000
0000
0000
0110
0000
0000
0000
1000
0000
0000
0100
0000
0000
0001
0000
,
0100
0000
1000
0000
0100
0000
0000
0000
1000
0000
0000
0100
0000
0000
0010
0000
,
0002
0000
0000
0000
0003
0000
0000
1000
0000
0000
1000
0000
0001
0000
0000
0000
,
1000
0000
0001
0000
0100
0000
0001
0000
1000
0000
0000
0001
0000
0000
1000
0000
,
0001
0000
1001
0000
1000
0010
0100
0010
,
1000
0100
0010
0001
0010
1000
0010
0001
,
1000
0100
0010
0001
1000
0001
0010
0100
,
1000
0010
0100
0001
,
1000
0000
1001
0000
0001
0100
0010
0100
,
0001
0010
0100
1000
0100
0001
0100
1000
,
0000
0001
0000
0000
1000
0000
0000
0000
0001
0000
1000
0000
0100
0000
0010
0000
,
0000
0011
0001
1001
,
2000
3000
0020
0030
,
0200
0300
0002
0003
,
1000
0010
1000
0100
1000
0010
1000
0000
,
0001
0010
0001
0100
0001
0010
0001
0000
,
0002
0003
0020
0030
,
0200
0300
2000
3000
,
0001
0010
0001
0100
0001
0010
0001
0000
,
1000
0010
1000
0100
1000
0010
1000
0000
,
0001
0100
0001
0001
,
1000
0100
1000
1000
,
0001
0010
0001
0001
,
1000
0010
1000
1000
,
0001
0100
1000
0000
1000
0100
0001
0000
,
1000
0100
0001
0000
0001
0100
1000
0000
,
0001
0010
1000
0010
0001
0000
1000
0000
,
1001
0000
0000
0000
,
1000
0010
0100
0001
1000
0100
0010
0000
,
0001
0000
0100
0000
1000
0000
0100
0000
0001
0000
0000
1000
0000
0000
0001
0000
,
0010
0000
0001
0000
0100
0000
0010
0000
1000
0000
0000
0100
0000
0000
0010
0000
,
0001
0000
0010
0000
1000
0000
0010
0000
0001
0000
0000
1000
0000
0000
0001
0000
,
1000
0100
0010
0001
0100
0001
0010
0000
,
0001
0000
0010
0000
1000
0000
0010
0000
0001
0000
0000
1000
0000
0000
0010
0000
,
0100
0000
0001
0000
0010
0000
0100
0000
0001
0000
0000
0100
0000
0000
1000
0000
,
0001
0100
1000
0100
0001
1000
0001
0000
,
2000
0000
3100
0010
0100
0010
0001
1000
,
0000
0000
1000
0000
0010
0000
0100
0000
0010
0000
0000
1000
0000
0000
0001
0000
,
0100
0000
0010
0000
1000
0000
0001
0000
0100
0000
0000
0010
0000
0000
0100
0000
,
1000
0000
0100
0000
0001
0000
0000
0000
1000
0000
0000
0100
0000
0000
0010
0000
,
0001
1000
0100
0010
1000
0010
0001
1000
,
0000
0000
1000
0000
0010
0000
0100
0000
0001
0000
0000
0010
0000
0000
0001
0000
,
0100
0000
0010
0000
1000
0000
0100
0000
0001
0000
0000
0100
0000
0000
1000
0000
,
0001
0010
0100
1000
0010
0100
0010
0000
,
2000
0000
0000
3000
,
0002
0000
0000
0003
,
0020
0000
0000
0030
,
0200
0000
0000
0300
,
2000
0000
0000
3000
,
0020
0000
0000
0030
,
0002
0000
0000
0003
,
0020
0000
0000
0000
0030
1000
0001
1000
,
0000
0000
0000
0000
;
#NOTES:
     dance-single:
     :
     Hard:
     14:
     :
0000
0000
0000
0000
,
0000
0000
0000
0000
,
0000
0000
0000
0000
,
0000
0000
0000
0000
,
0000
0000
0000
0000
,
0002
0000
0000
0000
,
2003
0000
0000
0000
,
3200
0000
0000
0000
,
0320
0000
0000
0000
,
0031
0000
0100
0000
0010
0000
1000
0000
0001
0000
0000
0100
0010
0000
1000
0000
,
0000
1000
0100
0000
0001
0100
1000
0000
,
1000
0000
0100
0000
0010
0000
0001
0000
1000
0000
0000
0100
0010
0000
0001
0000
,
0000
0001
0100
0000
1000
0100
0001
0000
,
1000
0100
1000
0010
1000
0100
0010
0001
,
0100
0001
0010
0001
0100
0001
0010
0100
,
1000
0100
1000
0000
0010
0000
0100
0000
0001
0010
0001
0000
0100
0000
0010
0000
,
1001
0000
0001
0010
1000
0001
0100
0000
,
2000
0000
0000
3000
,
1001
0000
0000
0000
0000
0000
0000
0000
0101
0000
0000
1100
0000
0000
0101
0000
,
0001
0000
0100
0000
0010
0000
1000
0000
0001
0000
0000
0001
1000
0000
0100
0010
,
0100
0000
0000
0000
1100
0000
0000
0000
1010
0000
0000
1100
0000
0000
0100
0000
,
1000
0000
0001
0010
0001
0000
1000
0000
0100
0000
0010
0100
0000
0010
0100
0000
,
1000
0000
0000
0000
1001
0000
0000
0000
0011
0000
0000
0101
0000
0000
0011
0000
,
0010
0001
0010
0000
0100
0000
1000
0001
1000
0000
0000
0010
0000
0000
1000
0000
,
0100
0000
0110
0000
0011
0001
1000
0001
,
1000
0010
0100
0000
0001
0000
0010
0100
1000
0000
0000
0001
0000
0000
1000
0000
,
0001
0000
0100
0000
0110
0000
0000
0000
1010
0000
1000
0010
0000
1000
0010
0000
,
0100
0000
0001
0000
0010
0000
0001
0000
0100
0000
0001
0010
0000
0001
0010
0000
,
0001
0000
0101
0000
0110
0010
1010
1000
,
0001
0100
0010
0000
1000
0000
0001
0000
1000
0000
0100
1000
0000
0001
0100
0000
,
0010
0000
0000
0000
1010
0000
0000
0000
1001
0000
0000
0011
0000
0000
0110
0000
,
0100
1000
0001
0000
0100
0000
0001
1000
0010
0000
0000
0110
0000
0000
0101
0000
,
0002
0000
0000
0000
0003
0000
0000
1100
0000
0000
1100
0000
0002
0000
0000
0000
,
1003
0010
0100
0000
0001
0000
0010
0000
0100
0000
1000
0001
0000
1000
0001
0000
,
1000
0000
0010
0000
0001
0000
0010
1000
0010
0000
0100
0000
0010
0000
0100
0000
,
0001
0000
0100
0000
1000
0000
0100
0000
0001
0010
0001
0000
1000
0000
0010
0000
,
0100
0000
0001
0000
0010
0000
0001
0000
1000
0100
1000
0000
0001
0000
0010
0000
,
0011
0101
1100
1010
,
0011
0000
0001
0000
0100
0000
0010
0000
1000
0001
0100
0000
0001
0000
0010
0000
,
0100
0000
0001
0000
0100
0000
1000
0001
1000
0000
0100
0000
0010
0000
0001
0000
,
0000
0011
0000
0000
1000
0000
0100
1000
0100
0000
0010
0001
0010
0000
0100
0000
,
1000
0001
0100
0010
1000
0001
0010
0001
,
0200
0010
0302
0010
,
2003
0000
3020
0000
0230
0000
0301
1000
,
0010
0001
0010
1000
0100
0001
0100
1000
,
0010
0100
1000
0100
0010
0100
0001
1000
,
0020
0100
2030
0100
,
3002
0000
0203
0000
0320
0000
1030
0001
,
0100
1000
0100
0001
0010
1000
0010
0001
,
0100
0010
0001
0010
0100
0010
1000
0000
,
1010
0000
0000
1000
0100
0000
0010
0000
0011
0000
0000
0001
0100
0000
0010
0000
,
0110
0000
0100
0000
0001
0000
0010
0000
0110
0000
0000
0100
1000
0000
0010
0000
,
1010
0000
0000
1000
0001
0000
0100
0000
0101
0000
0000
0001
0010
0000
0100
0000
,
1100
0000
1000
0000
0001
0000
0100
0000
0110
0000
0000
0010
0100
0000
0010
0000
,
1000
0100
1000
0100
0001
0100
0001
0100
,
1000
0010
1000
0010
0001
0010
0001
0010
,
1000
0100
0010
0000
0001
0000
1000
0000
0010
0100
0001
0000
0010
0000
0100
0000
,
1001
0000
1000
0010
0001
1000
0100
0000
,
0001
0000
1000
0100
1000
0000
0001
0000
0100
0000
0010
1000
0010
0000
1000
0000
,
0100
0010
0100
0000
0010
0000
0001
1000
0001
0000
0100
0001
0000
0100
0001
0000
,
1000
0000
0001
0010
0001
0000
1000
0000
0010
0000
0100
0001
0000
0100
0001
0000
,
0010
0100
0010
0000
0100
0000
1000
0000
0001
0000
1000
0010
0000
1000
0010
0000
,
1000
0000
0001
0100
0001
0000
1000
0000
0100
0000
0010
0001
0010
0000
0001
0000
,
0100
0010
0100
0000
0010
0000
1000
0001
1000
0000
0100
1000
0000
0100
1000
0000
,
0001
0000
1000
0010
1000
0000
0001
0000
0010
0000
0100
1000
0000
0100
1000
0000
,
0010
0100
0010
0000
0100
0000
0001
0000
1000
0000
0001
0000
0010
0000
0100
0000
,
2000
0000
0000
0000
3001
0000
0100
0000
0010
0000
1000
0001
1000
0000
0100
0000
,
0010
0001
0010
0000
0001
0000
0100
0000
1000
0000
0100
0010
0000
0100
0010
0000
,
1000
0000
0001
0100
0001
0000
0010
0000
0100
0000
0010
0001
0000
0010
0001
0000
,
1000
0000
0010
0100
0010
0000
1000
0000
0001
0000
0010
0100
0000
0010
0100
0000
,
1000
0000
0001
0100
0001
0000
1000
0000
0100
0000
0010
0001
1000
0000
0010
0000
,
0100
0000
0010
1000
0001
0000
0100
0000
0010
0000
1000
0001
0000
1000
0001
0000
,
1000
0000
0100
0010
0001
0000
0100
0000
0010
0000
0100
0001
0000
0100
0001
0000
,
1000
0010
0001
0010
1000
0100
0010
0000
,
0002
0000
0000
0000
,
2003
0000
0000
0000
,
3020
0000
0000
0000
,
0230
0000
0000
0000
,
0302
0000
0000
0000
,
0023
0000
0000
0000
,
0230
0000
0000
0000
,
2300
0000
0000
0000
3000
0001
1000
1001
,
0000
0000
0000
0000
;
#NOTES:
     dance-double:
     :
     Easy:
     8:
     :
00000000
00000000
00000000
00000000
,
00000000
00000000
00000000
00000000
,
00000000
00000000
00000000
00000000
,
00000000
00000000
00000000
00000000
,
00000000
00000000
00000000
00000000
,
00000001
00000000
00000010
00000000
,
00000100
00000000
00001000
00000000
,
00000100
00000000
00010000
00000000
,
00001000
00000000
00100000
00000000
,
00010000
01000000
00010000
00000000
,
10000000
01000000
10000000
00000000
,
00100000
01000000
00100000
00000000
,
01000000
00001000
00010000
00000000
,
00001000
00010000
00001000
00010000
,
00000010
00001000
00000001
00000000
,
00001000
00000001
00001000
00000000
00000100
00000000
00000010
00000000
,
00000001
00000000
00000000
00000000
,
00001001
00000000
00000000
00000000
,
00000001
00000000
00000100
00000000
,
00000001
00000010
00000001
00000000
,
00001000
00000100
00001000
00000000
,
00000100
00010000
00001000
00000000
,
00010000
00001000
01000000
00010000
,
00100000
00010000
00100000
00000000
,
00010000
10000000
00100000
00000000
,
10000000
00010000
01000000
00000000
,
00010000
10000000
00010000
10000000
,
01000000
00100000
01000000
00000000
,
00100000
00010000
00100000
00001000
,
00010000
00001000
00010000
00000000
,
00001000
00010000
00000100
00001000
,
00000010
00000100
00000001
00000000
,
00000110
00000000
00001001
00000000
,
00000001
00000100
00001000
00000000
,
00010000
00000000
00001000
00000000
00100000
00010000
00100000
00000000
,
00010000
00000000
01000000
00000000
00100000
10000000
00100000
00000000
,
10000000
01000000
00010000
00001000
,
00010000
00000000
00000100
00000000
00010000
00001000
00010000
00000000
,
00001000
00000000
00010000
00000000
00000010
00001000
00000010
00000000
,
00001000
00000000
00000100
00000000
00000010
00000001
00000010
00000000
,
00000001
00000100
00001000
00010000
,
00001000
00000000
01000000
00000000
00001000
00010000
00001000
00000000
,
00010000
00000000
00001000
00000000
,
01000000
00010000
01000000
00000000
,
00100000
01000000
00100000
01000000
,
00100000
01000000
00100000
00000000
,
10000000
00000000
01000000
00000000
,
00100000
00001000
00010000
00000000
,
00001000
00010000
00001000
00010000
,
00001000
00010000
00001000
00000000
,
00010000
00000000
00000010
00000000
00001000
00000100
00001000
00000000
,
00000100
00000000
00000010
00000000
00000001
00001000
00000001
00000000
,
00000100
00000010
00000100
00001000
,
00010000
00100000
01000000
01000000
,
00010000
01000000
00100000
00000000
10000000
00000000
00000000
00000000
,
10000000
01000000
00100000
00000000
00010000
00000000
00000000
00000000
,
00100000
00001000
00010000
00000000
00001000
00000000
00010000
00000000
,
00011000
00000000
00000000
00000000
,
00001000
00000000
00010000
00000000
00001000
00000000
00000010
00000001
,
00000010
00000000
00000001
00000000
00001000
00000100
00001000
00000000
,
00000010
00000000
00000100
00000000
00001000
00000000
00010000
00001000
,
00010000
00000000
00001000
00000000
00100000
00010000
00100000
00000000
,
00010000
00000000
00100000
00000000
10000000
00000000
00100000
01000000
,
00100000
00000000
00010000
00000000
10000000
01000000
10000000
00000000
,
00100000
00000000
01000000
00000000
00010000
00100000
00010000
00000000
,
00100000
00001000
00010000
00000000
,
00001000
00000000
00010000
00000000
00000100
00000000
00001000
00000010
,
00000100
00000000
00000001
00000000
00001000
00000100
00001000
00000000
,
00000100
00000000
00010000
00000000
00001000
00000000
00100000
00001000
,
00010000
00000000
00001000
00000000
01000000
00010000
00100000
00000000
,
00010000
00000000
01000000
00000000
00100000
00000000
10000000
00010000
,
00100000
00000000
01000000
00000000
00100000
00010000
00100000
00000000
,
00001000
00000000
00010000
00000000
00000010
00001000
00000010
00000000
,
00000100
00000001
00001000
00000000
,
00000002
00000000
00000000
00000000
,
00000000
00000000
00000000
00000003
,
00002000
00000000
00000000
00000000
,
00000000
00000000
00000000
00003000
,
00000020
00000000
00000000
00000000
,
00000000
00000000
00000000
00000030
,
00020000
00000000
00000000
00000000
,
00000000
00000000
00030000
00011000
,
00000000
00000000
00000000
00000000
;
#NOTES:
     dance-double:
     :
     Medium:
     12:
     :
00000000
00000000
00000000
00000000
,
00000000
00000000
00000000
00000000
,
00000000
00000000
00000000
00000000
,
00000000
00000000
00000000
00000000
,
00000000
00000000
00000000
00000000
,
00000002
00000000
00000000
00000003
,
00002000
00000000
00000000
00003000
,
00000200
00000000
00000000
00000300
,
00020000
00000000
00000000
00030000
,
00001000
00010000
00001000
00000000
01000000
00010000
01000000
00000000
,
00010000
00100000
00010000
00000000
10000000
01000000
10000000
00000000
,
01000000
00100000
01000000
00000000
00100000
00001000
00010000
00000000
,
00001000
00010000
00000100
00000000
00000010
00000100
00000010
00000000
,
00000001
00000010
00000100
00001000
00000100
00000010
00000001
00000000
,
00000010
00000100
00001000
00000100
00010000
00001000
00010000
00000000
,
00001000
00100000
00010000
00100000
01000000
10000000
00010000
00000000
,
10010000
00000000
00000000
00000000
,
02000000
00000000
00000000
03000000
,
01100000
00000000
00000000
00000000
00000000
00000000
00000000
00000000
10000000
00000000
00000000
00010000
00000000
00000000
10000000
00000000
,
00100000
00000000
01000000
00000000
00010000
00000000
00000000
00000000
01000000
00000000
00000000
00001000
00000000
00000000
00010000
00000000
,
00001000
00000000
00000000
00000000
00010000
00000000
00000000
00000000
00001000
00000000
00000000
00000010
00000000
00000000
00000001
00000000
,
00001000
00000000
00000000
00000000
00000100
00000000
00000000
00000000
00000001
00000000
00000000
00000100
00000000
00000000
00001000
00000000
,
00000001
00000000
00000000
00000000
00000100
00000000
00000000
00000000
00000010
00000000
00000000
00001000
00000000
00000000
00000010
00000000
,
00000100
00000000
00000001
00000000
00001000
00000000
00000000
00000000
00000100
00000000
00000000
00010000
00000000
00000000
00001000
00000000
,
00010000
00000000
00000000
00000000
00001000
00000000
00000000
00000000
01000000
00000000
00000000
00010000
00000000
00000000
00100000
00000000
,
00010000
00000000
01000000
00000000
00100000
00000000
00000000
00000000
10000000
00000000
00000000
01000000
00000000
00000000
00100000
00000000
,
00010000
00000000
00000000
00000000
01100000
00000000
00000000
00000000
10000000
00000000
00000000
01000000
00000000
00000000
00010000
00000000
,
01000000
00000000
00100000
00000000
00010000
00000000
00000000
00000000
00100000
00000000
00000000
00001000
00000000
00000000
00010000
00000000
,
00001000
00000000
00000000
00000000
00010000
00000000
00000000
00000000
00000010
00000000
00000000
00001000
00000000
00000000
00000010
00000000
,
00000100
00000000
00000001
00000000
00000010
00000000
00000000
00000000
00000100
00000000
00000000
00001000
00000000
00000000
00000100
00000000
,
00001000
00000000
00000000
00000000
00000010
00000000
00000000
00000000
00010000
00000000
00000000
00001000
00000000
00000000
00010000
00000000
,
00001000
00000000
00100000
00000000
00001000
00000000
00000000
00000000
00100000
00000000
00000000
00010000
00000000
00000000
01000000
00000000
,
00200000
00000000
00000000
00000000
00300000
00000000
00000000
10000000
00000000
00000000
10000000
00000000
00100000
00000000
00000000
00000000
,
10000000
01000000
00100000
00000000
00010000
01000000
00100000
00000000
,
10000000
00000000
10010000
00000000
00010000
00100000
01000000
00100000
,
00010000
01000000
00001000
00010000
00001000
00100000
00001000
00010000
,
00000010
00010000
00000100
00001000
00000010
00001000
00000100
00000010
,
00000001
00000001
00001000
00001000
,
00000001
00000000
00001001
00000000
00001000
00000100
00000010
00000100
,
00001000
00000010
00010000
00001000
00010000
00000100
00010000
00001000
,
00000000
01000000
00000000
00000000
00010000
00000000
00000000
00000000
00100000
00000000
00010000
00000000
00100000
00000000
01000000
00000000
,
00000000
10000000
00100000
01000000
,
00020000
00030000
00200000
00300000
,
00002000
00003000
00020000
00030000
,
00001000
00010000
00000010
00001000
00000010
00010000
00001000
00000000
,
00010000
00001000
00100000
00010000
00100000
00001000
00010000
00000000
,
00002000
00003000
00000020
00000030
,
00002000
00003000
00020000
00030000
,
00010000
00001000
01000000
00010000
01000000
00001000
00010000
00000000
,
00001000
00010000
00000100
00001000
00000100
00010000
00001000
00000000
,
00010000
00001000
01000000
01000000
,
00010000
00100000
01000000
01000000
,
10000000
01000000
00100000
00100000
,
00010000
00100000
00001000
00001000
,
00010000
00000100
00000110
00000011
,
00000001
00001000
00001100
00010100
,
00010000
00001000
01000000
00000000
00010000
10000000
01000000
00000000
,
01100000
00000000
00000000
00000000
,
10000000
01000000
00100000
00010000
10000000
00100000
00010000
00100000
,
10000000
00000000
00010000
00000000
00100000
00000000
00001000
00000000
00010000
00000000
00000000
00001000
00000000
00000000
00000010
00000000
,
00000001
00000000
00001000
00000000
00000100
00000000
00000001
00000000
00000100
00000000
00000000
00001000
00000000
00000000
00000001
00000000
,
00000010
00000000
00000001
00000000
00001000
00000000
00000010
00000000
00010000
00000000
00000000
00001000
00000000
00000000
00100000
00000000
,
00010000
01000000
00100000
01000000
10000000
01000000
00010000
00100000
,
01000000
00000000
00010000
00000000
00001000
00000000
00010000
00000000
00001000
00000000
00000000
00000100
00000000
00000000
00000001
00000000
,
00000010
00000000
00000100
00000000
00001000
00000000
00000010
00000000
00000100
00000000
00000000
00001000
00000000
00000000
00010000
00000000
,
00001000
00000000
00011000
00000000
00010000
00001000
00010000
00000000
,
00002000
00000000
00013000
00000000
00001000
01000000
00010000
00100000
,
01000000
00000000
10000000
00000000
00100000
00000000
10000000
00000000
01000000
00000000
00000000
00100000
00000000
00000000
00010000
00000000
,
01000000
00000000
00100000
00000000
00010000
00000000
00100000
00000000
00010000
00000000
00000000
00001000
00000000
00000000
00000100
00000000
,
00000010
00000000
00001000
00000000
00000010
00000000
00000100
00000000
00000001
00000000
00000000
00001000
00000000
00000000
00000001
00000000
,
00000010
00000100
00001000
00000100
00000001
00000100
00001000
00000010
,
00010000
00000000
00001000
00000000
01000000
00000000
00010000
00000000
00100000
00000000
00000000
00010000
00000000
00000000
01000000
00000000
,
00010000
00000000
00100000
00000000
01000000
00000000
10000000
00000000
00010000
00000000
00000000
00100000
00000000
00000000
00010000
00000000
,
01000000
00000000
00001000
00000000
00010000
00001000
00010000
00000000
,
00002000
00000000
00000000
00003000
,
00000200
00000000
00000000
00000300
,
00002000
00000000
00000000
00003000
,
00020000
00000000
00000000
00030000
,
00002000
00000000
00000000
00003000
,
00020000
00000000
00000000
00030000
,
02000000
00000000
00000000
03000000
,
00020000
00000000
00000000
00000000
00030000
00001000
00010000
00001000
,
00000000
00000000
00000000
00000000
;
#NOTES:
     dance-double:
     :
     Hard:
     15:
     :
00000000
00000000
00000000
00000000
,
00000000
00000000
00000000
00000000
,
00000000
00000000
00000000
00000000
,
00000000
00000000
00000000
00000000
,
00000000
00000000
00000000
00000000
,
00000002
00000000
00000000
00000000
,
00000203
00000000
00000000
00000000
,
00002300
00000000
00000000
00000000
,
00023000
00000000
00000000
00000000
,
00130000
00000000
10000000
00000000
00010000
00000000
01000000
00000000
00100000
00000000
00000000
10000000
00010000
00000000
10000000
00000000
,
00000000
10000000
01000000
00000000
00100000
00001000
00010000
00000000
,
00001000
00000000
00010000
00000000
00000100
00000000
00001000
00000000
00000010
00000000
00000000
00000100
00000010
00000000
00000100
00000000
,
00000000
00000100
00000001
00000000
00001000
00000001
00001000
00000000
,
00000001
00000100
00000001
00000100
00000010
00001000
00000010
00001000
,
00010000
01000000
00010000
01000000
00100000
10000000
00100000
10000000
,
00010000
10000000
00010000
00000000
10000000
00000000
01000000
00000000
00100000
01000000
00100000
00000000
00010000
00000000
00100000
00000000
,
00001000
00000000
00001000
00010000
00000100
00001000
00000010
00000000
,
00000200
00000000
00000000
00000300
,
00000110
00000000
00000000
00000000
00000000
00000000
00000000
00000000
00000101
00000000
00000000
00001100
00000000
00000000
00000101
00000000
,
00000001
00000000
00000010
00000000
00000100
00000000
00001000
00000000
00000100
00000000
00000000
00000100
00010000
00000000
00001000
00010000
,
00001000
00000000
00000000
00000000
00011000
00000000
00000000
00000000
00101000
00000000
00000000
00110000
00000000
00000000
00100000
00000000
,
01000000
00000000
10000000
00010000
10000000
00000000
00100000
00000000
01000000
00000000
00010000
01000000
00000000
00100000
10000000
00000000
,
00010000
00000000
00000000
00000000
10010000
00000000
00000000
00000000
11000000
00000000
00000000
01010000
00000000
00000000
11000000
00000000
,
10000000
01000000
10000000
00000000
00100000
00000000
01000000
00010000
01000000
00000000
00000000
00001000
00000000
00000000
00010000
00000000
,
00001000
00000000
00011000
00000000
00010000
00001000
00000010
00000001
,
00001000
00000100
00000010
00000000
00000001
00000000
00001000
00000000
00000010
00000000
00000100
00000000
00001000
00000000
00000000
00000000
,
00011000
00000000
00000000
00000000
00011000
00000000
00000000
00000000
01001000
00000000
00001000
01000000
00000000
00010000
01000000
00000000
,
00100000
00000000
10000000
00000000
01000000
00000000
10000000
00000000
00100000
00000000
01000000
00010000
00000000
10000000
00010000
00000000
,
00100000
00000000
00101000
00000000
00011000
00010000
00010100
00000100
,
00001000
00000000
00000010
00000100
00000001
00000000
00000010
00000000
00000100
00000000
00000010
00000100
00000000
00000010
00000100
00000000
,
00001000
00000000
00000000
00000000
00001001
00000000
00000000
00000000
00001010
00000000
00000000
00010010
00000000
00000000
00011000
00000000
,
00001000
00010000
00001000
00000000
00100000
00000000
00010000
01000000
00010000
00000000
00000000
01000000
00000000
00000000
00100000
00000000
,
20000000
00000000
00000000
00000000
30000000
00000000
00000000
00110000
00000000
00000000
00110000
00000000
20000000
00000000
00000000
00000000
,
30100000
01000000
00100000
00000000
00010000
00000000
00001000
00000000
00000010
00000000
00000001
00001000
00000000
00000001
00001000
00000000
,
00000010
00000100
00000010
00000000
00001000
00000000
00000100
00000000
00010000
00000000
00001000
00100000
00001000
00000000
00010000
00000000
,
00100000
00000000
01000000
00000000
00010000
00000000
00100000
00000000
01000000
10000000
01000000
00000000
00100000
00000000
00010000
00000000
,
10000000
00000000
00100000
00000000
00010000
00000000
00100000
00000000
10000000
00010000
10000000
00000000
00100000
00000000
01000000
00000000
,
01010000
01001000
00011000
00010010
,
00001010
00000000
00001000
00000000
00000100
00000000
00000010
00000000
00000001
00000010
00000100
00000000
00001000
00000000
00000010
00000000
,
00000100
00000000
00001000
00000000
00010000
00000000
00100000
01000000
00100000
00000000
00010000
00000000
00001000
00000000
00100000
00000000
,
00000000
00110000
00000000
00000000
00010000
00000000
10000000
01000000
10000000
00000000
00010000
01000000
00010000
00000000
00100000
00000000
,
00000000
00100000
00001000
00000000
00011000
00000000
00010100
00000000
,
00000200
00000010
00002300
00000001
,
00003020
00020030
00032000
02003000
,
03010000
01000000
10000000
01000000
00001000
01000000
10000000
01000000
,
00010000
01000000
10000000
01000000
00001000
01000000
00010000
00000000
,
00200000
01000000
00320000
10000000
,
02030000
03002000
00023000
00030020
,
00001030
00000010
00000001
00000010
00010000
00000010
00000001
00000010
,
00001000
00000010
00000001
00000010
00010000
00000010
00001000
00000000
,
00001001
00000000
00000000
00000001
00000010
00000000
00000100
00000000
00001100
00000000
00000000
00001000
00000100
00000000
00010000
00000000
,
00001000
00100000
00010000
01000000
00001000
00100000
00010000
00000000
,
10010000
00000000
00000000
10000000
00100000
00000000
01000000
00000000
01010000
00000000
00000000
00010000
01000000
00000000
00001000
00000000
,
00010000
00000010
00001000
00000100
00010000
00000010
00001000
00000000
,
00000001
00000100
00000001
00000100
00001000
00000100
00001000
00010000
,
00001000
00010000
00100000
00010000
00100000
10000000
00100000
00000000
,
10000000
01000000
00100000
00000000
00010000
00000000
00100000
00000000
00001000
00010000
00000100
00000000
00001000
00000000
00000010
00000000
,
00000100
00000000
00000001
00000010
00001000
00010000
01000000
00000000
,
10000000
00000000
01000000
00100000
01000000
00000000
10000000
00000000
00010000
00000000
01000000
00010000
01000000
00000000
00100000
00000000
,
00010000
00000000
00001000
00000000
00000100
00000000
00000010
00000000
00001000
00000000
00000001
00001000
00000000
00000001
00001000
00000000
,
00000001
00000000
00000010
00000100
00000010
00000000
00001000
00000000
00000010
00000000
00000100
00001000
00000000
00000100
00001000
00000000
,
00000100
00000000
00010000
00001000
00010000
00000000
00000100
00000000
00000010
00000000
00000001
00000100
00000000
00000010
00001000
00000000
,
00000001
00000000
00000010
00000100
00000010
00000000
00000001
00000000
00001000
00000000
00000010
00001000
00000010
00000000
00000100
00000000
,
00001000
00000000
00010000
00000000
00100000
00000000
01000000
00000000
00010000
00000000
10000000
00010000
00000000
10000000
00010000
00000000
,
10000000
00000000
01000000
00100000
01000000
00000000
00010000
00000000
01000000
00000000
00100000
00010000
00000000
00100000
00010000
00000000
,
00100000
00001000
00010000
00100000
01000000
00010000
10010000
00000000
,
20000000
00000000
00000000
00000000
30010000
00000000
01000000
00000000
00010000
00000000
00100000
01000000
10000000
00000000
00100000
00000000
,
00010000
00000000
00001000
00000000
00000010
00000000
00000100
00000000
00001000
00000000
00000001
00000100
00000000
00000001
00000010
00000000
,
00000001
00000000
00000100
00000010
00000100
00000000
00001000
00000000
00000100
00000000
00000010
00001000
00000000
00000001
00000010
00000000
,
00001000
00000000
00010000
00000100
00001000
00000000
00000010
00000000
00000100
00000000
00000001
00001000
00000000
00000010
00000100
00000000
,
00000001
00000000
00000010
00000100
00001000
00000000
00000010
00000000
00010000
00000000
00000100
00010000
00001000
00000000
00000100
00000000
,
00001000
00000000
00010000
00000000
01000000
00000000
00100000
00000000
00010000
00000000
10000000
00100000
00000000
10000000
01000000
00000000
,
10000000
00000000
00100000
01000000
00100000
00000000
00010000
00000000
00001000
00000000
01000000
00010000
00000000
00100000
01000000
00000000
,
00100000
00001000
00010000
01000000
00100000
00010000
10010000
00000000
,
20000000
00000000
00000000
00000000
,
30200000
00000000
00000000
00000000
,
00320000
00000000
00000000
00000000
,
00032000
00000000
00000000
00000000
,
00003200
00000000
00000000
00000000
,
00000302
00000000
00000000
00000000
,
00000023
00000000
00000000
00000000
,
00002030
00000000
00000000
00000000
00003000
00010000
00001000
00011000
,
00000000
00000000
00000000
00000000
;
