
//----- song ID: buta -----//
#TITLE:ブタサンダー;
#ARTIST:Yukopi;
#TITLETRANSLIT:Buta thunder;
#BANNER:Buta thunder.png;
#BACKGROUND:Buta thunder-bg.png;
#CDTITLE:./CDTitles/DDR WORLD.png;
#MUSIC:Buta thunder.ogg;
#SAMPLESTART:2.8;
#SAMPLELENGTH:15;
#BPMS:0=145;
#NOTES:
     dance-single:
     :
     Beginner:
     1:
     :
0000
0000
0000
0000
,
0000
0000
0000
0000
,
0000
0000
0000
0000
,
0000
0000
0000
0000
,
0000
0000
0000
0000
,
0000
0000
0000
0000
,
0001
0000
0000
0000
,
0000
0000
0000
0000
,
1000
0000
0000
0000
,
0000
0000
0000
0000
,
0001
0000
0000
0000
,
0001
0000
0000
0000
,
0001
0000
0000
0000
,
0000
0000
0000
0000
,
1000
0000
0000
0000
,
1000
0000
0000
0000
,
1000
0000
0000
0000
,
0000
0000
0000
0000
,
0010
0000
0000
0000
,
0010
0000
0000
0000
,
0010
0000
0000
0000
,
0020
0000
0030
0000
,
0000
0000
0000
0000
,
0020
0000
0030
0000
,
0000
0000
0000
0000
,
0020
0000
0030
0000
,
1000
0000
0000
0000
,
1000
0000
0000
0000
,
1000
0000
0000
0000
,
1000
0000
0000
0000
,
0001
0000
0000
0000
,
0001
0000
0000
0000
,
0000
0000
0000
0000
,
0001
0000
0000
0000
,
1000
0000
0000
0000
,
1000
0000
0000
0000
,
2000
0000
0000
0000
,
3000
0000
0000
0000
,
0001
0000
0000
0000
,
0001
0000
0000
0000
,
0002
0000
0000
0000
,
0003
0000
0000
0000
,
0000
0000
0000
0000
,
1000
0000
0000
0000
,
0000
0000
0000
0000
,
0001
0000
0000
0000
,
1000
0000
0000
0000
,
0000
0000
0000
0000
,
1000
0000
0000
0000
,
0000
0000
0000
0000
,
0001
0000
0000
0000
,
1000
0000
0000
0000
,
0001
0000
0000
0000
,
1000
0000
0000
0000
,
0010
0000
0000
0000
,
1000
0000
0000
0000
,
0001
0000
0000
0000
,
0010
0000
0000
0000
,
0001
0000
0000
0000
,
0000
0000
0000
0000
,
1000
0000
0000
0000
,
0000
0000
0000
0000
,
0001
0000
0000
0000
,
0000
0000
0000
0000
,
1000
0000
0000
0000
,
0000
0000
0000
0000
,
0001
0000
0001
0000
,
0001
0000
0000
0000
,
1000
0000
1000
0000
,
1000
0000
0000
0000
,
0010
0000
0010
0000
,
0010
0000
0000
0000
,
1000
0000
0000
0000
,
1000
0000
0000
0000
,
0001
0000
0000
0000
,
0001
0000
0000
0000
,
0010
0000
0000
0000
,
0010
0000
0000
0000
,
0100
0000
0000
0000
,
0100
0000
0000
0000
,
0010
0000
0000
0000
,
0020
0000
0000
0030
,
0000
0000
0000
0000
;
#NOTES:
     dance-single:
     :
     Easy:
     3:
     :
0000
0000
0000
0000
,
0000
0000
0000
0000
,
0000
0000
0000
0000
,
0000
0000
0000
0000
,
0000
0000
0000
0000
,
0000
0000
0000
0000
,
0001
0000
0010
0000
,
0001
0000
0000
0000
,
1000
0000
0010
0000
,
1000
0000
0000
0000
,
0001
0000
1000
0000
,
0001
0000
1000
0000
,
0010
0000
0100
0000
,
0010
0000
0000
0000
,
1000
0000
0001
0000
,
1000
0000
0001
0000
,
0010
0000
0100
0000
,
0010
0000
0000
0000
,
0001
0000
1000
0000
,
0002
0000
0003
0000
,
1000
0000
0001
0000
,
0020
0000
0030
0000
,
0000
0000
0000
0000
,
0020
0000
0030
0000
,
0000
0000
0000
0000
,
0020
0000
0030
0000
,
0001
0000
0001
0000
,
0001
0000
0001
0000
,
1000
0000
1000
0000
,
1000
0000
1000
0000
,
0010
0000
0010
0000
,
0010
0000
0010
0000
,
0000
0000
0000
0010
,
0010
0000
0000
0000
,
1000
0000
0001
0000
,
1000
1000
1000
0000
,
0020
0000
0030
0000
,
1000
0000
0000
0000
,
0001
0000
1000
0000
,
0001
0001
0001
0000
,
0020
0000
0030
0000
,
0020
0000
0030
0000
,
0001
0000
0000
0000
,
0000
0000
0000
0000
,
0001
0000
0000
0000
,
0000
0000
0000
0000
,
0001
0001
0001
0000
,
1000
1000
1000
0000
,
0000
0000
0000
0000
,
1001
0000
0000
0000
,
0001
0000
1000
0000
,
0010
0000
1000
0000
,
0001
0000
0010
0000
,
0001
0000
0000
0000
,
1000
0000
0001
0000
,
0100
0000
0001
0000
,
1000
0000
0100
0000
,
1000
0000
0000
0000
,
0001
0000
0000
0000
,
0001
0000
0000
0000
,
0002
0000
0000
0000
,
0003
0000
0000
0000
,
1000
0000
0000
0000
,
1000
0000
0000
0000
,
2000
0000
0000
0000
,
3000
0000
0000
0000
,
0001
0000
0100
0000
,
0010
0000
1000
0000
,
0001
0000
1000
0000
,
0001
0000
0000
0000
,
1000
0000
0100
0000
,
0010
0000
0001
0000
,
1000
0000
0001
0000
,
1000
0000
0000
0000
,
0001
0000
0010
0000
,
0100
0000
1000
0000
,
0001
0000
0010
0000
,
0100
0000
1000
0000
,
0001
0000
0100
0000
,
0010
0000
1000
0000
,
0001
0000
0100
0000
,
0010
0000
1000
1000
,
0000
0000
0000
0000
;
#NOTES:
     dance-single:
     :
     Medium:
     9:
     :
0000
0000
0000
0000
,
0000
0000
0000
0000
,
0000
0000
0000
0000
,
0000
0000
0000
0000
,
0000
0000
0000
0000
,
0000
0000
0000
0000
0000
0000
0001
0010
,
0001
0000
1000
0010
1000
0000
0000
0000
,
0001
1000
0001
1000
0001
0000
0000
0000
,
1000
0100
0010
0001
,
1000
0001
1000
0001
1000
0000
0001
1000
,
0010
0000
0000
1000
0010
0000
0000
0000
,
1000
0010
1000
0010
1000
0000
0000
0000
,
0001
0000
0010
0000
0100
0010
0000
0100
,
0000
0000
0000
0000
0000
0000
1000
0001
,
0010
0000
0000
0001
0010
0000
0000
0000
,
0001
0010
0001
0010
0001
0000
0000
0000
,
1000
0001
1000
0001
,
1000
0001
1000
0001
2000
0000
3000
0000
,
0001
0100
0010
1000
,
0001
0000
0000
1000
0001
0000
0000
0000
,
2000
3200
0310
0001
,
1000
0001
1000
0001
1000
0000
0000
0000
,
0001
0000
0001
0000
,
0001
0010
0001
0010
0001
0000
0000
0000
,
1000
0000
1000
0000
,
1000
0010
1000
0010
1000
0000
0000
0000
,
0001
0010
0100
1000
,
0001
0000
0000
1000
0001
0000
0000
0000
,
2000
3020
0230
0301
,
1000
0001
1000
0001
1000
0000
0000
0000
,
0001
0010
0100
1000
,
0100
0010
0100
0010
0100
0000
0000
0000
,
0010
0010
0010
0020
,
0130
0000
0000
0000
0000
0000
1000
0001
,
0100
0000
0000
0010
0100
0000
0000
0000
,
0010
0100
0010
0100
0010
0000
0000
0000
,
1000
0000
0010
0000
1000
0010
0000
0100
,
0000
0000
0000
0000
0000
0000
0001
1000
,
0100
0000
0010
0100
0010
0000
0000
0000
,
0100
0010
0100
0010
0100
0000
0000
0000
,
1000
1000
0001
0001
,
0010
0100
0010
0100
0010
0000
0000
0000
,
0001
0000
0001
0000
,
1000
0000
1000
0000
,
0010
0000
0010
0000
,
0100
0000
0100
0000
,
0001
0000
0001
0000
0001
0000
0001
1000
,
0000
1000
0000
1000
0000
1000
0001
0000
,
0010
0010
0010
0010
,
0220
0000
0000
0000
0330
0000
0100
0010
,
0001
0000
0000
1000
0001
0000
0000
0000
,
0100
0001
0100
0001
0100
0000
0000
0000
,
0010
0000
1000
0000
0001
1000
0000
0001
,
0000
0000
0000
0000
0000
0000
1000
0001
,
0010
0000
0000
0100
0010
0000
0000
0000
,
0100
1000
0100
1000
0100
0000
0000
0000
,
1000
0100
0010
0001
,
1000
0010
0100
0001
1000
0000
0000
0000
,
0001
0000
0000
0010
0001
0000
0000
1000
,
0100
0000
0000
1000
0001
0000
0000
1000
,
0010
0000
0000
0100
0001
0000
0000
1000
,
0001
0000
1000
0000
0001
1000
0001
0000
,
1000
0000
0010
1000
0010
0000
1000
0000
,
0001
1000
0001
1000
0001
0000
0000
0000
,
0001
0001
0001
0001
,
0001
0000
0000
0000
0010
0001
0010
0000
,
0001
1000
0002
0000
1003
0001
2000
0000
,
3001
0100
0002
0000
1003
0100
2000
0000
,
3001
0010
0002
0000
1003
0010
2000
0000
,
3010
0100
0020
0000
0130
0010
0100
0000
,
0001
1000
0200
0000
1300
0001
0200
0000
,
0301
1000
0020
0000
1030
0001
0020
0000
,
0130
0010
0002
0000
0103
0010
2000
0000
,
3010
0100
0002
0000
1003
0000
0001
1000
,
0001
0000
0000
1000
0010
0000
0000
0000
,
0100
0010
0100
0010
0100
0000
0000
0000
,
0001
0000
1000
0000
0100
0010
0000
0100
,
0000
0000
0000
0000
0000
0000
1000
0001
,
1000
0000
0000
0001
0100
0000
0000
0000
,
0010
0100
0010
0100
0010
0000
0000
0000
,
1000
0010
0100
0001
,
1000
0001
1000
0001
2000
0000
3001
0000
,
0000
0000
0000
0000
;
#NOTES:
     dance-single:
     :
     Hard:
     13:
     :
0000
0000
0000
0000
,
0000
0000
0000
0000
,
0000
0000
0000
0000
,
0000
0000
0000
0000
,
0000
0000
0000
0000
,
0000
0000
0000
0000
0000
0000
0001
0100
,
0010
0000
1000
0010
0100
0000
0000
0000
,
0001
0010
0100
1000
0001
0000
0000
0000
,
1000
1000
0001
0001
,
1000
0100
0010
0001
1000
0000
0000
0000
,
1001
0000
0000
0001
0000
0000
0001
0000
0000
0000
0001
0000
0001
0000
0000
0000
,
1000
0000
0000
1000
0000
0000
1000
0000
0000
0000
1000
0000
1000
0000
0000
0000
,
0010
0000
0000
0010
0000
0000
0010
0000
0000
0000
0010
0000
0010
0000
0000
0000
,
0100
0000
0000
0100
0000
0000
0100
0000
0000
0000
1001
0000
1001
0000
0000
0000
,
1001
0000
0000
0001
0000
0000
1000
0000
0000
0000
0010
0000
0100
0000
0000
0000
,
0001
0000
0000
1000
0000
0000
0001
0000
0000
0000
0010
0000
0100
0000
0000
0000
,
1000
0000
0000
0100
0000
0000
0010
0000
0000
0000
0001
0000
1000
0000
0000
0000
,
0001
0000
0000
0100
0000
0000
0010
0000
0000
0000
1000
0000
0001
0000
0000
0000
,
1000
0010
0100
0001
,
1000
0000
0000
0100
0010
0000
0000
0000
,
0001
0010
0001
0010
0100
1000
0100
0000
,
1000
0001
1000
0001
1000
0000
0000
0000
,
0001
0001
1000
1000
,
0010
0100
0010
0100
0010
0000
0000
0000
,
1000
1000
0001
0001
,
0010
0100
0010
0100
0010
0000
0000
0000
,
0001
0010
0100
1000
,
0001
0000
0000
0100
0010
0000
0000
0000
,
1000
0010
0001
0010
2000
0000
3001
0000
,
1000
0100
0001
0100
1000
0000
0000
0000
,
0001
0000
1000
0000
0010
0000
0100
0001
,
1000
0100
0010
0001
1000
0000
0000
0000
,
0010
0010
0010
0020
,
0130
0000
0000
1001
,
0001
0001
0000
0001
1000
0100
0010
0001
,
1000
1000
0000
1000
0001
0100
0010
1000
,
0010
0010
0000
0010
0100
0100
0000
0100
,
0010
0000
0010
0000
0000
0000
0100
0010
0100
0000
0110
0000
0110
0000
0000
0000
,
1000
1000
0000
1000
0100
0010
0001
1000
,
0001
0001
0000
0001
0100
0010
1000
0001
,
1000
1000
0000
1000
0001
0001
0000
0001
,
0010
0000
0010
0000
0000
0000
0100
0010
0100
0000
0110
0000
0110
0000
0000
0000
,
0001
0010
0100
0010
0001
0010
0100
0010
,
0001
0010
1000
0010
0001
0010
1000
0010
,
0001
0100
0010
0100
0001
0100
0010
0100
,
0001
0100
1000
0100
0001
0100
1000
0100
,
0110
0000
0110
0000
0110
0000
0110
0110
,
0000
1001
0000
1001
0000
1001
1001
0000
,
1100
0110
0011
1001
,
0002
0000
0003
0100
0000
0001
1000
0000
0100
0000
0010
0000
0220
0000
0330
0000
,
0001
1000
0200
0000
1300
0001
0200
0000
,
0301
0010
1000
0010
0001
0010
0200
0000
,
1300
0010
0001
0010
1000
0100
0001
0100
,
1000
0010
0010
0010
0100
0001
0200
0000
,
0000
0301
0002
0000
0103
1000
2000
0000
,
3100
0010
1000
0010
0001
0010
0200
0000
,
0301
0010
0001
0010
1000
0010
1000
0010
,
0100
0010
0010
0010
0001
1000
0200
0000
,
1300
0000
0000
0001
0100
0000
0000
0010
,
0100
0000
0000
1000
0100
0000
0000
0010
,
0100
0000
0000
0001
1000
0000
0000
0100
,
0010
0000
0010
0000
0010
0001
1001
0000
,
1000
0000
1000
1000
0001
0010
0100
1000
,
0001
0000
0001
0001
1000
0010
0100
0001
,
0010
0000
0010
0010
0100
1000
0010
0100
,
0110
0000
0000
0000
1001
1001
1001
0000
,
0001
0000
1000
0000
0001
0000
1000
0100
1000
0000
0001
0000
1000
0000
0001
0100
,
0001
0000
1000
0000
0001
0000
1000
0010
1000
0000
0001
0000
1000
0000
0001
0010
,
0001
0000
1000
0000
0001
0000
0100
0001
0100
0000
0001
0000
1000
0000
0100
1000
,
0100
0000
1000
0000
0001
0000
0100
0010
0100
0000
0001
0000
1000
0000
0000
0000
,
0001
0000
1000
0000
0001
0000
1000
0100
0010
0000
0001
0000
1000
0000
0001
0100
,
0010
0000
1000
0000
0001
0000
1000
0010
0100
0000
0001
0000
1000
0000
0001
0010
,
0100
0000
1000
0000
0001
0000
1000
0001
0100
0000
0001
0000
1000
0000
0001
1000
,
0100
0000
1000
0000
0001
0000
1000
0001
1000
0000
0000
0000
0001
0000
0100
0000
,
0001
0000
0000
1000
0001
0000
0000
0000
,
1000
0010
1000
0100
1000
0000
0000
0000
,
0001
0000
0100
0000
0010
1000
0000
0010
,
0000
0000
0000
0000
0000
0000
1000
0010
,
0001
0000
0000
0010
1000
0000
0000
0000
,
0001
0010
0001
0100
0001
0000
0000
0000
,
1100
0110
0011
1001
,
1000
0010
0100
0001
2002
3003
1001
0000
,
0000
0000
0000
0000
;
#NOTES:
     dance-double:
     :
     Easy:
     3:
     :
00000000
00000000
00000000
00000000
,
00000000
00000000
00000000
00000000
,
00000000
00000000
00000000
00000000
,
00000000
00000000
00000000
00000000
,
00000000
00000000
00000000
00000000
,
00000000
00000000
00000000
00000000
,
00010000
00000000
00001000
00000000
,
00010000
00000000
00000000
00000000
,
00001000
00000000
00010000
00000000
,
00001000
00000000
00000000
00000000
,
00010000
00000000
00001000
00000000
,
00000010
00000000
00000001
00000000
,
00000100
00000000
00001000
00000000
,
00010000
00000000
00000000
00000000
,
00001000
00000000
00010000
00000000
,
00100000
00000000
10000000
00000000
,
01000000
00000000
00010000
00000000
,
00001000
00000000
00000000
00000000
,
00010000
00000000
00001000
00000000
,
00000200
00000000
00000300
00000000
,
00000010
00000000
00000100
00000000
,
00000020
00000000
00000030
00000000
,
00000000
00000000
00000000
00000000
,
00000200
00000000
00000300
00000000
,
00000000
00000000
00000000
00000000
,
00002000
00000000
00003000
00000000
,
00010000
00000000
00010000
00000000
,
00100000
00000000
00100000
00000000
,
00010000
00000000
00010000
00000000
,
00001000
00000000
00001000
00000000
,
00000010
00000000
00000010
00000000
,
00001000
00000000
00001000
00000000
,
00010000
00000000
00010000
00000000
,
01000000
00000000
00000000
00000000
,
00100000
00000000
01000000
00000000
,
00010000
00000000
00001000
00000000
,
00000010
00000000
00000001
00000000
,
00001000
00000000
00000000
00000000
,
00000001
00000000
00000100
00000000
,
00001000
00000000
00010000
00000000
,
00100000
00000000
10000000
00000000
,
00020000
00000000
00030000
00000000
,
00100000
00000000
00000000
00000000
,
01000000
00000000
00000000
00000000
,
00010000
00000000
00000000
00000000
,
00001000
00000000
00000000
00000000
,
00010000
00010000
00010000
00000000
,
00001000
00001000
00001000
00000000
,
00000000
00000000
00000000
00000000
,
00011000
00000000
00000000
00000000
,
00010000
00000000
00001000
00000000
,
00000010
00000000
00000001
00000000
,
00000100
00000000
00001000
00000000
,
00010000
00000000
00000000
00000000
,
00001000
00000000
00010000
00000000
,
00100000
00000000
10000000
00000000
,
01000000
00000000
00010000
00000000
,
00001000
00000000
00000000
00000000
,
00010000
00000000
00000000
00000000
,
00010000
00000000
00000000
00000000
,
00000020
00000000
00000000
00000000
,
00000030
00000000
00000000
00000000
,
00001000
00000000
00000000
00000000
,
00001000
00000000
00000000
00000000
,
00001001
00000000
00000000
00000000
,
00000000
00000000
00000000
00000000
,
00000001
00000000
00001000
00000000
,
00000010
00000000
00000100
00000000
,
00001000
00000000
00010000
00000000
,
00100000
00000000
00000000
00000000
,
01000000
00000000
00010000
00000000
,
10000000
00000000
01000000
00000000
,
00010000
00000000
00001000
00000000
,
00000010
00000000
00000000
00000000
,
00000001
00000000
00000100
00000000
,
00001000
00000000
00010000
00000000
,
00100000
00000000
10000000
00000000
,
01000000
00000000
00010000
00000000
,
00001000
00000000
00000010
00000000
,
00000001
00000000
00000100
00000000
,
00001000
00000000
00010000
00000000
,
00001000
00000000
00022000
00033000
,
00000000
00000000
00000000
00000000
;
#NOTES:
     dance-double:
     :
     Medium:
     9:
     :
00000000
00000000
00000000
00000000
,
00000000
00000000
00000000
00000000
,
00000000
00000000
00000000
00000000
,
00000000
00000000
00000000
00000000
,
00000000
00000000
00000000
00000000
,
00000000
00000000
00000000
00000000
,
00001000
00100000
00000000
00010000
10000000
00000000
00000000
00000000
,
00010000
01000000
00000000
00001000
00010000
00000000
00000000
00000000
,
00000010
00001000
00000000
00000001
00001000
00000100
00000000
00010000
,
00001000
00100000
00000000
00010000
10000000
00000000
00000000
00000000
,
00100000
00100000
10000000
10000000
,
01000000
01000000
00010000
00010000
,
00001000
00001000
00000010
00000010
,
00000001
00000000
00000001
00000000
00000100
00000010
00000100
00000000
,
00001000
00001000
00010000
00010000
,
00100000
00100000
10000000
10000000
,
01000000
01000000
00010000
00010000
,
00001000
00000000
00001000
00000000
00010000
00001000
00010000
00000000
,
00001000
00000100
00001000
00010000
,
00100000
00000000
00000000
01000000
00100000
00000000
00000000
00000000
,
20000000
30000000
20000000
30000000
00010000
00000000
00100000
00000000
,
01000000
00100000
01000000
00100000
01000000
00000000
00000000
00000000
,
00010000
00000000
00001000
00000000
,
00010000
00001000
00010000
00001000
00010000
00000000
00000000
00000000
,
00000010
00000000
00001000
00000000
,
00000010
00000100
00000010
00000100
00000010
00000000
00000000
00000000
,
00000100
00000001
00000010
00001000
,
00010000
00000000
00000000
00001000
00010000
00000000
00000000
00000000
,
00002000
00023000
00230000
01300000
,
00100000
01000000
00100000
01000000
00100000
00000000
00000000
00000000
,
01000000
00100000
00010000
00001000
,
00010000
00001000
00010000
00001000
00010000
00000000
00000000
00000000
,
00001000
00001000
00001000
00002000
,
00013000
00000000
00000000
00000000
00000000
00000000
00001000
00100000
,
00001000
00000000
00000000
00100000
00010000
00000000
00000000
00000000
,
00100000
01000000
00100000
01000000
00100000
00000000
00000000
00000000
,
01000000
00000000
00010000
00000000
00001000
00010000
00000000
00001000
,
00000000
00000000
00000000
00000000
00000000
00000000
00010000
00000010
,
00010000
00000000
00000010
00001000
00000010
00000000
00000000
00000000
,
00000100
00000010
00000100
00000010
00000100
00000000
00000000
00000000
,
00000010
00000100
00001000
00010000
,
00001000
00010000
00001000
00010000
00001000
00000000
00000000
00000000
,
00010000
00000000
00010000
00000000
,
00001000
00000000
00001000
00000000
,
00100000
00000000
00100000
00000000
,
00010000
00000000
00010000
00000000
,
10000000
00000000
10000000
00000000
10000000
00000000
10000000
01000000
,
00000000
01000000
00000000
01000000
00000000
01000000
00100000
00000000
,
00010000
00100000
00001000
00010000
,
00002000
00000000
00000000
00000000
00003000
00000000
00010000
00000010
,
00001000
00000000
00000000
00000001
00001000
00000000
00000000
00000000
,
00000001
00001000
00000001
00001000
00000001
00000000
00000000
00000000
,
00001000
00000000
00000010
00000000
00010000
00001000
00000000
01000000
,
00000000
00000000
00000000
00000000
00000000
00000000
00010000
10000000
,
00100000
00000000
00000000
10000000
00010000
00000000
00000000
00000000
,
10000000
00010000
10000000
00010000
10000000
00000000
00000000
00000000
,
01000000
00010000
00001000
00010000
,
00001000
00010000
00001000
00010000
00001000
00000000
00000000
00000000
,
00001000
00000000
00000000
00010000
00010000
00000000
00000000
00000100
,
00000100
00000000
00000000
00001000
00001000
00000000
00000000
00000001
,
00000001
00000000
00000000
00000100
00000100
00000000
00000000
00000010
,
00000010
00000000
00000100
00000000
00001000
00010000
00001000
00000000
,
00010000
00000000
00001000
00100000
00000000
00000000
00010000
00000000
,
10000000
00000000
00100000
10000000
00000000
00000000
00010000
00000000
,
00100000
00000000
00001000
00010000
00000000
00000000
00001000
00000000
,
00001000
00000000
00000000
00000000
00010000
00001000
00010000
00000000
,
00001000
00010000
00000100
00000000
00001000
00000001
00000100
00000000
,
00000001
00001000
00000100
00000000
00010000
00001000
01000000
00000000
,
00010000
10000000
01000000
00000000
10000000
00010000
01000000
00000000
,
00001000
00010000
00000200
00000000
00001300
00000000
00000000
00000000
,
00000001
00001000
00000010
00000000
00010000
00001000
00100000
00000000
,
00010000
10000000
00100000
00000000
10000000
00010000
00100000
00000000
,
00001000
00010000
00000010
00000000
00001000
00000001
00000010
00000000
,
00000001
00001000
00000001
00000000
00001001
00000000
00000001
00000100
,
00000010
00000000
00000000
00001000
00000010
00000000
00000000
00000000
,
00010000
00001000
00010000
00001000
00010000
00000000
00000000
00000000
,
00001000
00000000
00010000
00000000
00100000
10000000
00000000
00010000
,
00000000
00000000
00000000
00000000
00000000
00000000
10000000
01000000
,
00100000
00000000
00000000
00010000
00100000
00000000
00000000
00000000
,
00001000
00010000
00001000
00010000
00001000
00000000
00000000
00000000
,
00010000
00001000
00000100
00000001
,
00001000
00000001
00001000
00000001
00002000
00000000
00003001
00000000
,
00000000
00000000
00000000
00000000
;
#NOTES:
     dance-double:
     :
     Hard:
     12:
     :
00000000
00000000
00000000
00000000
,
00000000
00000000
00000000
00000000
,
00000000
00000000
00000000
00000000
,
00000000
00000000
00000000
00000000
,
00000000
00000000
00000000
00000000
,
00000000
00000000
00000000
00000000
00000000
00000000
00001000
00010000
,
00000010
00000000
00001000
00000010
00000100
00000000
00000000
00000000
,
00000001
00000010
00000100
00001000
00000001
00000000
00000000
00000000
,
00000100
00001000
00010000
00100000
,
01000000
00100000
01000000
00100000
01000000
00000000
00100000
10000000
,
01000000
00000000
00000000
00100000
01000000
00000000
00000000
00000000
,
00100000
01000000
00010000
00001000
00010000
00000000
00000000
00000000
,
00000100
00000000
00001000
00000000
00000100
00000010
00000000
00000100
,
00000000
00000000
00000000
00000000
00000000
00000000
00000010
00000001
,
00000100
00000000
00000000
00000010
00000100
00000000
00000000
00000000
,
00000010
00000100
00001000
00010000
00001000
00000000
00000000
00000000
,
00010000
00001000
00010000
00100000
,
10000000
00010000
10000000
00010000
10000000
00000000
00000000
00000000
,
10000000
01000000
00100000
00010000
,
00100000
00000000
00000000
00001000
00010000
00000000
00000000
00000000
,
00000010
00001000
00000001
00000100
00000010
00000100
00000010
00000000
,
00001000
00000010
00010000
00001000
00010000
00000000
00000000
00000000
,
00001000
00001000
00010000
00010000
,
00000010
00001000
00000010
00001000
00000010
00000000
00000000
00000000
,
00010000
00010000
00001000
00001000
,
00100000
00010000
00100000
00010000
00100000
00000000
00000000
00000000
,
00001000
00010000
00000010
00001000
,
00000001
00000000
00000000
00001000
00000001
00000000
00000000
00000000
,
00000001
00000100
00001000
00010000
00002000
00000000
00013000
00000000
,
00001000
00010000
01000000
10000000
00010000
00000000
00000000
00000000
,
10000000
00000000
00100000
00000000
01000000
00000000
00010000
01000000
,
00001000
00010000
00000010
00001000
00000010
00000000
00000000
00000000
,
00000100
00000001
00000010
00002000
,
00013000
00000000
00000000
00011000
,
00010000
00001000
00000000
00010000
01000000
10000000
00100000
00010000
,
00001000
00010000
00000000
00001000
00000100
00000001
00000010
00001000
,
00010000
00001000
00000000
00010000
00001000
00001000
00000000
00001000
,
00010000
00000000
00010000
00000000
00000000
00000000
00001000
00010000
00001000
00000000
00010000
00000000
00011000
00000000
00000000
00000000
,
00010000
00001000
00000000
00010000
00100000
10000000
01000000
00010000
,
00001000
00010000
00000000
00001000
00000010
00000001
00000100
00001000
,
00010000
00001000
00000000
00010000
00001000
00001000
00000000
00001000
,
00010000
00000000
00010000
00000000
00000000
00000000
00001000
00010000
00001000
00000000
00010000
00000000
00011000
00000000
00000000
00000000
,
00001000
00010000
00001000
00010000
,
00002000
00003000
00020000
00030000
00002000
00003000
00020000
00030000
,
00000020
00001000
00020030
00001000
00030020
00001000
00020030
00001000
,
00030200
00001000
00020300
00001000
00030200
00001000
00010300
00000000
,
00011000
00000000
01010000
00000000
00011000
00000000
00001100
00001100
,
00000000
00011000
00000000
01010000
00000000
10010000
10010000
00000000
,
10010000
00101000
00010010
00001001
,
00002000
00000000
00003000
00000010
00000000
00010000
00001000
00000000
01000000
00000000
00010000
00000000
20000000
00000000
30000000
00000000
,
00100000
10000000
02000000
00000000
13000000
00010000
02000000
00000000
,
03100000
00010000
00001000
00000100
00000001
00000010
00000200
00000000
,
00001300
00000010
00000001
00000010
00001000
00000100
00000001
00000100
,
00001000
00000001
00000001
00000001
00000100
00001000
00000200
00000000
,
00000000
00001300
00020000
00000000
01030000
00100000
00020000
00000000
,
01030000
00100000
10000000
00100000
00010000
00100000
02000000
00000000
,
03100000
00010000
00001000
00000010
00000001
00000010
00001000
00000010
,
00000001
00000010
00000010
00000010
00001000
00010000
00002000
00000000
,
00013000
00000000
00000000
00001000
00010000
00000000
00000000
00010000
,
01000000
00000000
00000000
01000000
10000000
00000000
00000000
00010000
,
00100000
00000000
00000000
00001000
00010000
00000000
00000000
00000100
,
00001000
00000000
00000001
00000000
00000100
00000010
00000100
00000000
,
00000010
00000000
00000100
00000100
00000001
00000010
00001000
00010000
,
01000000
00000000
01000000
01000000
10000000
00100000
00010000
00001000
,
00000010
00000000
00000010
00000010
00000001
00000100
00001000
00000000
,
00011000
00000000
00000000
00000000
00011000
00000000
00001000
00010000
,
00100000
00000000
00000000
01000000
00100000
00000000
01100000
00000000
,
10000000
00100000
01000000
00010000
01000000
00000000
01001000
00000000
,
00001000
00000000
00010000
00000000
00000010
00001000
00000000
00000010
,
00000000
00000000
00001000
00000000
00000001
00000000
00001000
00000001
,
00000100
00000000
00000001
00000100
00000010
00000000
00000110
00000000
,
00001000
00000010
00010000
00001000
00010000
00000000
00011000
00000000
,
01001000
01001000
01010000
01010000
,
00010000
10000000
00010000
10000000
00020000
00000000
00030000
00000000
,
10010000
00000000
00000000
10000000
00000000
00000000
10000000
00000000
00000000
00000000
01000000
00000000
01000000
00000000
00000000
00000000
,
00010000
00000000
00000000
00010000
00000000
00000000
00010000
00000000
00000000
00000000
00001000
00000000
00001000
00000000
00000000
00000000
,
00000100
00000000
00000000
00000100
00000000
00000000
00000100
00000000
00000000
00000000
00000001
00000000
00000001
00000000
00000000
00000000
,
00000010
00000000
00000000
00000010
00000000
00000000
00000010
00000000
00000000
00000000
00000110
00000000
00000110
00000000
00000000
00000000
,
00001002
00000000
00001003
00000001
00000000
00000010
00001000
00000000
,
00010000
00000000
00000000
00100000
00000000
00000000
10000000
00000000
00000000
00000000
01000000
00000000
00010000
00000000
00000000
00000000
,
00001000
00000000
00000000
00000100
00000000
00000000
00000001
00000000
00000000
00000000
00000010
00000000
00001000
00000000
00000000
00000000
,
00010000
00000000
00000000
00100000
00000000
00000000
10000000
00000000
00020000
00000000
00030000
00000000
10010000
00000000
00000000
00000000
,
00000000
00000000
00000000
00000000
;
