
//----- song ID: buco -----//
#VERSION:0.83;
#TITLE:Burstix Comet;
#ARTIST:Ninja Never DieS!;
#BANNER:Burstix Comet.png;
#BACKGROUND:Burstix Comet-bg.png;
#CDTITLE:./CDTitles/DDR WORLD.png;
#MUSIC:Burstix Comet.ogg;
#SAMPLESTART:15.19;
#SAMPLELENGTH:15;
#BPMS:0=158;
#STAGE:15;
#NOTEDATA:;
#STEPSTYPE:dance-single;
#DIFFICULTY:Beginner;
#METER:3;
#NOTES:
0000
0000
0000
0000
,
0000
0000
0000
0000
,
0000
0000
0000
0000
,
0000
0000
0000
0000
,
0000
0000
0000
0000
,
0000
0000
0000
0000
,
0001
0000
0001
0000
,
0010
0000
0000
0000
,
1000
0000
1000
0000
,
0010
0000
0000
0000
,
1001
0000
0000
0000
,
0001
0000
0010
0000
,
0001
0000
0000
0000
,
0010
0000
0010
0000
,
1000
0000
0000
0000
,
1000
0000
0010
0000
,
1000
0000
0000
0000
,
0010
0000
0010
0000
,
0001
0000
0000
0000
,
1001
0000
0000
0000
,
1000
0000
0000
0000
,
1001
0000
0000
0000
,
0020
0000
0000
0000
,
0030
0000
0000
0000
,
0200
0000
0000
0000
,
0300
0000
0000
0000
,
1000
0000
1000
0000
,
0010
0000
0000
0000
,
1001
0000
0000
0000
,
0001
0000
0010
0000
,
1000
0000
0000
0000
,
1000
0000
0010
0000
,
0002
0000
0000
0000
,
0003
0000
0000
0000
,
0100
0000
0000
0000
,
0010
0000
0000
0000
,
1001
0000
0000
0000
,
1000
0000
0010
0000
,
1000
0000
0000
0000
,
0000
0000
0000
0000
,
0002
0000
0000
0000
,
0003
0000
0000
0000
,
2000
0000
0000
0000
,
3000
0000
0000
0000
,
0001
0000
0001
0000
,
0010
0000
0000
0000
,
0001
0000
0010
0000
,
1000
0000
0000
0000
,
1000
0000
1000
0000
,
0100
0000
0000
0000
,
1000
0000
0100
0000
,
0001
0000
0000
0000
,
1001
0000
0000
0000
,
0000
0000
0000
0000
,
0001
0000
0001
0000
,
0010
0000
0010
0000
,
0001
0000
0010
0000
,
1000
0000
0000
0000
,
1000
0000
1000
0000
,
0010
0000
0010
0000
,
1000
0000
0010
0000
,
0001
0000
0000
0000
,
1001
0000
0000
0000
,
0000
0000
0000
0000
,
1001
0000
0000
0000
,
0000
0000
0000
0000
,
0001
0000
0001
0000
,
0100
0000
0000
0000
,
0001
0000
0100
0000
,
0010
0000
0000
0000
,
1000
0000
0100
0000
,
1000
0000
0000
0000
,
1000
0000
0010
0000
,
0001
0000
0000
0000
,
0001
0000
0100
0000
,
0001
0000
0000
0000
,
0001
0000
0010
0000
,
1000
0000
0000
0000
,
1001
0000
0000
0000
;
#NOTEDATA:;
#STEPSTYPE:dance-single;
#DIFFICULTY:Easy;
#METER:6;
#NOTES:
0000
0000
0000
0000
,
0000
0000
0000
0000
,
0000
0000
0000
0000
,
0000
0000
0000
0000
,
0000
0000
0000
0000
,
0000
0000
0000
0000
,
0001
0100
0010
0010
,
1000
0100
0010
0010
,
0001
1000
0001
1000
,
1001
0000
0000
0000
,
1000
0100
1000
0100
,
0001
0100
1000
0000
,
0001
0100
0001
0100
,
1000
0100
0001
0000
,
1000
0010
1000
0010
,
0001
0010
1000
0000
,
0001
0010
1000
0010
,
0002
0000
0000
0003
,
1001
0000
0110
0000
,
1000
1000
1000
0000
,
1001
0000
0110
0000
,
0001
0001
0001
0000
,
2000
0000
0000
3000
,
0200
0000
0000
0300
,
0020
0000
0000
0030
,
0002
0000
0000
0003
,
0001
0001
1000
1000
,
0001
1000
0001
0000
,
1000
0100
1000
0000
,
1000
0010
1000
0000
,
1000
0001
1000
0001
,
1000
0000
0000
0000
,
0002
0000
0000
0003
,
0001
0010
0001
0000
,
0001
0100
0001
0000
,
1001
0000
0000
0000
,
1000
0000
0010
0000
,
1000
0000
1000
0000
,
0001
0000
0010
0000
,
0001
0000
0001
0000
,
1000
0100
0001
0000
,
0001
0100
1000
0000
,
0001
0100
1000
0100
,
0001
0000
0000
0000
,
2002
0000
0000
3003
,
1000
0010
0100
0001
,
2002
0000
0000
3003
,
0001
0010
0100
1000
,
0001
0010
0100
0100
,
1000
0010
0100
0100
,
0001
1000
0001
1000
,
0001
1000
0010
0100
,
0002
0000
0000
0000
,
0000
0000
0000
0003
,
0001
0001
1000
0010
,
0100
0001
0010
0001
,
1000
1000
0001
0100
,
0010
1000
0100
0000
,
1000
0010
0001
0000
,
0001
0010
1000
0000
,
0001
0010
1000
0000
,
1000
0010
0001
0000
,
1001
0000
0000
0000
,
0010
0100
0010
0000
,
1001
0000
0000
0000
,
0100
0010
0100
0000
,
0110
0000
1001
0000
,
1000
0010
0100
0001
,
1000
0000
0001
0000
,
0110
0000
0000
0000
,
1000
0010
0100
0010
,
1000
0010
0100
0100
,
0001
0010
0100
0010
,
0001
0010
0100
0000
,
1000
0001
0100
0100
,
0001
1000
0100
0100
,
1000
0010
0100
0001
,
2000
0000
0000
3000
,
1001
0000
0000
0000
;
#NOTEDATA:;
#STEPSTYPE:dance-single;
#DIFFICULTY:Medium;
#METER:12;
#BPMS:0=158,112=79,120=316,122=158,123=79,138=158,150=79,152=158,184=79,188=158,220=79,228=158;
#NOTES:
0000
0000
0000
0000
,
0000
0000
0000
0000
,
0000
0000
0000
0000
,
0000
0000
0000
0000
,
0000
0000
0000
0000
,
0000
0000
0000
0000
,
0001
0100
0010
0000
1000
0100
0010
0000
,
0001
0100
0010
0000
1000
0100
0010
0000
,
0001
0100
0010
1000
0020
0000
0000
0000
,
0230
0000
0000
0300
,
1001
0000
1000
0100
0001
0100
1000
0000
,
0001
0100
1000
0100
0001
1000
0001
0000
,
1001
0000
1000
0010
0001
0010
1000
0000
,
0001
0000
0000
0010
0000
0000
1000
0000
0000
0010
0000
0000
0001
0000
0000
0000
,
1000
0010
0100
0010
0100
0001
1000
0000
,
0001
0010
0100
1000
0010
0100
0001
0000
,
2000
0000
0000
3000
,
1000
0000
0001
0000
1000
0000
0100
0000
0000
0110
0000
0000
,
0001
0000
0001
0010
0000
0010
0100
1000
0100
1000
0000
0000
,
1000
0000
1000
0010
0000
0010
0100
0001
0100
0001
0000
0000
,
1000
0000
0001
0100
0000
0010
1000
0010
1000
0001
0000
0000
,
2000
0000
0000
3000
,
0001
0000
0000
0010
0000
0000
0001
0000
0000
0000
0001
0000
1000
0000
0010
0000
,
0000
0100
0000
0000
0100
0000
0000
0100
0000
0000
0001
0000
1000
0000
0001
0000
,
1000
0000
0000
0100
0000
0000
1000
0000
0001
0000
0000
0010
0000
0000
0001
0000
,
2000
0000
0002
3003
,
0001
0100
0010
0000
0100
0001
0010
0000
,
0100
1000
0010
1000
0100
0010
0100
0000
,
0110
1001
1010
0101
,
0011
1100
0110
1001
,
0020
0000
0000
0030
,
0110
0000
0000
0000
0000
0000
0000
0000
1001
0000
0000
0000
0000
0000
0000
0000
0001
0000
0000
0000
0000
0000
0000
0000
1000
0000
0000
0100
0000
0000
0010
0000
,
0000
0000
0000
0000
0000
0000
0000
0000
0001
0000
0000
0000
0000
0000
0001
1000
,
0000
0001
1000
0000
0100
0000
0010
0100
0000
0010
0100
0000
0000
0000
0000
0000
,
0000
0000
0000
0000
1000
0000
0100
1000
,
0000
0100
1000
0001
0100
0000
0001
0100
,
0000
0001
0100
0001
0010
0000
0001
0010
,
0000
0001
1000
0010
2000
0000
0000
3000
,
1000
0010
0001
0010
1000
0001
2000
0000
,
0001
0000
0000
0001
0000
0000
0001
0000
0000
0001
0000
0000
3001
0000
0000
0000
,
0001
0010
1000
0010
0001
1000
0002
0000
,
1000
0000
0000
1000
0000
0000
1000
0000
1003
0000
0000
0000
0000
0000
0000
0000
,
1000
0010
0100
0000
0001
0010
0100
0000
,
1000
0010
0100
0000
0001
0010
0100
0000
,
1000
0010
0100
0001
0100
0010
1000
0000
,
0001
0010
0100
1000
0010
0100
0001
0000
,
2000
0000
0000
0000
0000
0000
0000
3000
,
1000
0000
0110
0000
0001
0100
0010
0000
,
1000
0000
0110
0000
1000
0001
1000
0000
,
0001
0000
0110
0000
1000
0010
0100
0000
,
0001
0000
0110
0000
0001
1000
0001
0000
,
1000
0100
0001
0000
0001
0100
1000
0000
,
0001
0100
1000
0000
1000
0100
0001
0000
,
1000
0000
0000
0100
0000
0000
0010
0000
0001
0000
0000
0100
0000
0000
0010
0000
,
1000
0000
0000
0001
0000
0000
1000
0000
0100
0000
0010
0000
0100
0000
0000
0000
,
2002
0000
0000
0000
0000
0000
3003
0000
1000
0000
0100
0000
0010
0001
0010
0000
,
2002
0000
0000
0000
0000
0000
3003
0000
0001
0000
0100
0000
0010
1000
0010
0000
,
1000
0100
1000
0010
0100
0001
0010
0000
,
0001
0100
0001
0010
0100
1000
0010
0000
,
1000
0000
0000
0100
0000
0000
0100
0000
0001
0000
0000
0100
0000
0000
0100
0000
,
1000
0000
0000
0001
0000
0000
1000
0000
0001
1000
0000
0001
0000
0000
0000
0000
,
1000
0001
0100
0010
1000
0100
0010
0000
,
0001
0010
1000
0010
0001
1000
0001
0000
,
1000
0010
0100
0010
1000
0001
0010
0000
,
0001
0100
1000
0100
0002
0000
0000
0000
,
1003
0010
1000
0100
1000
0010
1000
0000
,
0001
0010
0001
0100
0001
0010
0001
0000
,
1000
0100
0001
0100
1000
0100
0001
0000
,
0200
0000
0000
0300
,
1001
0000
0000
0000
;
#NOTEDATA:;
#STEPSTYPE:dance-single;
#DIFFICULTY:Hard;
#METER:16;
#BPMS:0=158,112=79,120=316,122=158,123=79,138=158,150=79,152=158,184=79,188=158,220=79,228=158;
#NOTES:
0000
0000
0000
0000
,
0000
0000
0000
0000
,
0000
0000
0000
0000
,
0000
0000
0000
0000
,
0000
0000
0000
0000
,
0000
0000
0000
0000
,
0001
0000
0100
0000
0101
0000
0001
0100
0010
0000
1000
0000
1100
0000
0100
1000
,
0001
0000
0010
0000
0011
0000
0001
1000
0010
0000
0100
0000
0110
0000
0000
0000
,
1000
0000
0000
0100
0000
0000
0010
0000
0000
0000
0000
0000
0001
0000
0000
0100
0000
0000
0010
0000
0000
0000
0000
0000
1000
0000
0000
0100
0000
0000
0010
0000
0000
0001
0000
0000
0010
0000
0000
0000
0100
0000
0000
0000
1000
0000
0000
0000
,
0002
0000
0000
0003
,
1001
0000
0000
0000
1000
0010
0100
0000
0001
1000
0100
0000
0010
0001
1000
0000
,
0001
0100
0001
0100
0000
0010
1000
0010
1000
0000
0001
1000
0001
1000
0000
1000
,
0001
0000
1000
0000
1001
0000
0001
0010
0100
0000
1000
0010
0100
0000
0001
0010
,
0100
1000
0000
0100
1000
0000
0001
0100
0000
0001
0100
0000
0010
1000
0010
0000
,
0100
0000
0001
1000
0001
1000
0001
1000
0001
0000
1000
0100
0010
0000
0110
0000
,
0100
1000
0100
1000
0000
0010
1000
0010
1000
0000
0001
0100
0001
0000
0100
0001
,
0100
0000
0010
1000
0000
1000
0100
0000
0100
0010
0000
0010
0001
0000
1000
0000
,
0010
0000
0100
0000
0110
0000
0001
1000
0001
1000
0000
0000
,
0001
0100
0010
0100
0001
0100
0010
1000
0100
0010
0100
1000
,
0001
0010
0001
1000
0010
1000
0001
0010
0100
1000
0001
1000
,
0010
0100
0001
0100
0010
1000
0100
0010
0001
0100
0010
1000
,
0001
0000
0100
0010
0000
0010
1000
0000
0001
1000
0010
0100
0002
0000
0000
0000
,
1003
0000
0000
1100
0000
0000
1010
0000
0000
1000
0001
0000
1001
0000
1000
0100
,
0000
0010
0001
0000
1000
0001
1000
0001
0000
0100
0010
0000
0100
0010
0100
0000
,
0001
0000
0010
0001
0000
0100
0001
0000
0010
0100
0000
0010
0000
0100
1000
0000
,
0002
0000
0000
0003
0002
0203
0320
0230
,
0301
0000
1000
0000
1000
0000
1000
0010
0100
0010
1000
0000
1000
0000
0010
0100
,
0010
0000
0100
0001
0100
0000
0001
1000
0100
0010
0100
0010
0100
0000
0000
0000
,
0110
0000
0000
0000
1000
0100
0010
0001
1000
0000
0001
0100
0000
0001
0100
0000
0010
0000
1000
0010
0000
1000
0010
0000
1000
0001
1000
0001
1000
0000
0000
0000
,
0110
0000
0000
0000
0001
0010
0100
1000
0001
0100
0000
0010
1000
0100
0000
0010
0001
0000
0010
0100
0000
1000
0100
0000
1000
0000
0001
0100
0000
0010
0100
0010
,
0200
0000
0000
0000
0000
0000
0000
0000
0000
0000
0000
0000
0000
0000
0000
0000
0300
0000
0000
0000
0000
0000
0000
0000
0000
0000
0001
1000
0001
1000
0000
0100
,
0010
0000
0001
0010
0000
0001
1000
0000
0010
1000
0010
0100
0010
0000
0000
0000
2000
0000
0000
0000
3000
0000
0000
0000
0100
0000
0000
0010
0000
0000
0220
0000
,
0000
0000
0000
0000
0000
0000
0330
0000
0001
0000
0000
0000
0000
0000
1000
0001
,
0000
0001
1000
0000
0100
1000
0010
0100
0000
0001
0002
0000
0000
0000
0000
0000
,
0000
0000
0000
0000
0003
0000
0000
0000
0001
0000
0000
0010
0000
0000
0100
0000
1000
0000
0000
0000
0100
0000
0000
0000
1000
0000
0000
0000
1100
0000
0000
0000
,
0000
0100
0010
0001
0100
0001
0100
0101
,
0000
0001
0100
0010
1000
0001
0010
0100
,
0000
0100
0010
0000
2002
0000
0000
3003
,
1000
0000
0010
0000
0110
0000
0100
0001
1000
0100
1000
0000
0001
0010
0001
0000
,
1000
0100
0001
0100
1000
0000
0001
0010
0000
1000
0010
0000
0001
0000
0000
0000
,
0001
0000
0010
0000
0110
0000
0100
1000
0001
0100
0001
0000
1000
0010
1000
0000
,
0001
0100
1000
0100
0001
0000
1000
0010
0002
0000
0023
0000
2030
0000
3000
0000
,
1000
0000
0010
0000
1010
0000
1000
0010
0100
0000
0001
0000
0011
0000
0010
0001
,
1000
0000
0100
0000
1100
0000
1000
0001
0100
0000
0010
0000
0110
0000
0000
0000
,
0001
0010
0100
0000
1000
0010
0100
0000
0001
0010
0100
1000
0100
0010
0001
0000
,
1000
0010
1000
0010
0100
0001
0100
0001
1000
0001
1000
0001
1000
0001
1000
0001
,
2000
0000
0000
0000
0000
0000
0000
3000
,
1000
0000
0010
0100
0000
0100
0001
0100
0000
0001
0010
0100
0010
0000
0001
0000
,
1000
0000
0100
0010
0000
0010
0001
0000
1000
0001
0100
0001
1000
0000
0010
0000
,
1000
0000
0001
0100
0000
0100
0010
0100
0000
0010
1000
0001
1000
0000
0100
0000
,
0010
0000
0001
0100
0000
1000
0100
0000
0001
0100
0010
1000
0001
0100
0010
1000
,
0000
0001
0100
0001
0000
1000
0100
1000
0000
0001
0010
0001
1000
0000
1001
0000
,
0001
0010
0001
0010
0100
1000
0100
1000
0000
1000
0010
1000
0010
0000
0100
0010
,
0100
0000
0001
0010
0000
0000
1100
0000
0100
0000
1000
0010
0000
0000
0101
0000
,
0011
0000
0000
1010
0000
0000
1100
0000
0002
0000
1000
0000
1003
0000
0000
0000
,
0002
0000
0000
0000
0000
0000
0000
0000
0000
0000
0000
0000
0003
0000
0000
0000
1000
0000
0010
0100
0000
0010
0100
0000
0001
1000
0000
1000
0001
0000
0010
0100
,
2000
0000
0000
0000
0000
0000
0000
0000
0000
0000
0000
0000
3000
0000
0000
0000
0001
0000
0100
0010
0000
0100
0001
0000
1000
0100
0010
0000
0001
0100
0010
1000
,
0010
0000
1000
0010
0000
1000
0100
1000
0000
0001
0010
0000
0001
1000
0001
0000
,
1000
0100
0010
0000
0001
1000
0001
1000
0000
0010
0100
0010
1000
0000
0001
0100
,
0010
0000
1000
0010
0000
0000
1010
0000
0001
0000
0010
0001
0000
0000
0011
0000
,
1000
0000
1000
0100
0000
0100
0010
0000
0010
0001
0000
0001
2000
0000
0000
0000
,
3001
0000
0100
0000
0110
0000
0010
1000
0010
0000
0100
0000
0110
0000
0100
0001
,
0100
0000
0001
0010
0100
0000
1000
0010
0100
0000
0002
0000
2003
0000
3002
0000
,
1003
0000
1000
0000
1100
0000
0100
0010
0001
1000
0010
0100
0001
0000
1000
0010
,
1000
0100
1000
0100
1000
0000
0001
0010
0002
0000
0000
0000
0000
0000
0003
0000
,
0001
0000
0010
0000
1100
0000
1000
0001
0100
0000
0010
0000
1001
0000
1000
0001
,
0010
0000
0100
0000
0011
0000
0001
1000
0010
0000
1000
0000
0110
0000
0000
0000
,
1000
0000
0000
0100
0000
0000
0010
0000
0000
0001
0000
0000
1000
0000
0000
0010
0000
0000
0100
0000
0000
0001
0000
0000
1000
0000
0000
0100
0000
0000
0010
0000
0000
0001
0000
0000
0010
0000
0000
0000
0100
0000
0000
0000
1000
0000
0000
0000
,
0002
0000
0000
0003
,
1001
0000
0000
0000
;
#NOTEDATA:;
#STEPSTYPE:dance-double;
#DIFFICULTY:Easy;
#METER:6;
#NOTES:
00000000
00000000
00000000
00000000
,
00000000
00000000
00000000
00000000
,
00000000
00000000
00000000
00000000
,
00000000
00000000
00000000
00000000
,
00000000
00000000
00000000
00000000
,
00000000
00000000
00000000
00000000
,
10000000
00100000
01000000
01000000
,
00010000
00100000
00001000
00001000
,
00010000
00000100
00001000
00000100
,
00000010
00000000
00000000
00000000
,
00000001
00000010
00000001
00000010
,
00000100
00001000
00000100
00000000
,
00001000
00000100
00010000
00001000
,
00010000
00000000
00011000
00000000
,
00001000
00010000
00001000
01000000
,
00010000
01000000
00010000
00000000
,
01000000
00100000
10000000
00010000
,
20000000
00000000
00000000
30000000
,
01100000
00000000
10010000
00000000
,
10000000
01000000
00100000
00000000
,
00011000
00000000
00011000
00000000
,
00001000
00010000
00000100
00000000
,
00002000
00000000
00000000
00003000
,
00000200
00000000
00000000
00000300
,
00020000
00000000
00000000
00030000
,
00002000
00000000
00000000
00003000
,
00010000
00001000
00010000
00001000
,
01000000
00010000
01000000
00000000
,
01100000
00000000
10010000
00000000
,
10000000
01000000
00010000
00000000
,
00011000
00000000
00011000
00000000
,
00001000
00000010
00000001
00000000
,
00002000
00000000
00000000
00003000
,
00001000
00000001
00001000
00000000
,
00000100
00010000
00000100
00010000
,
00001000
00000000
00000000
00000000
,
00001000
00000000
01000000
00000000
,
00010000
00000000
01000000
00000000
,
00100000
00000000
10000000
00000000
,
00010000
00000000
00010000
00000000
,
10000000
01000000
00100000
00000000
,
00100000
00001000
00010000
00000000
,
00001000
00010000
00000010
00000000
,
00000100
00000000
00000000
00000000
,
00000220
00000000
00000000
00000330
,
00000001
00000100
00001000
00010000
,
00022000
00000000
00000000
00033000
,
00001000
00010000
00100000
10000000
,
00100000
01000000
00010000
00010000
,
00100000
00001000
00010000
00010000
,
00000100
00001000
00000100
00000010
,
00000001
00001000
00000001
00000000
,
00002000
00000000
00000000
00000000
,
00000000
00000000
00000000
00003000
,
00001000
00000100
00000010
00000001
,
00000100
00001000
00010000
00010000
,
00001000
00010000
00100000
10000000
,
00010000
01000000
00100000
00100000
,
01000000
00000000
10010000
00000000
,
10000000
00100000
01000000
00000000
,
00100000
01000000
00010000
00100000
,
00001000
00010000
00001000
00000000
,
00011000
00000000
00000000
00000000
,
00001000
00010000
00000010
00001000
,
00000100
00000000
00000000
00000000
,
00000100
00010000
00001000
00100000
,
00010000
01000000
00100000
00000000
,
10000000
01000000
00100000
00000000
,
01100000
00000000
10010000
00000000
,
10000000
01000000
00010000
00000000
,
00010000
00001000
00010000
00000010
,
00010000
00000100
00010000
00010000
,
00001000
00010000
00001000
00100000
,
00001000
01000000
00001000
00000000
,
00010000
00000010
00001000
00001000
,
00000001
00000100
00000010
00000010
,
00001000
00000100
00010000
00001000
,
00020000
00000000
00000000
00030000
,
00011000
00000000
00000000
00000000
;
#NOTEDATA:;
#STEPSTYPE:dance-double;
#DIFFICULTY:Medium;
#METER:12;
#BPMS:0=158,112=79,120=316,122=158,123=79,138=158,150=79,152=158,184=79,188=158,220=79,228=158;
#NOTES:
00000000
00000000
00000000
00000000
,
00000000
00000000
00000000
00000000
,
00000000
00000000
00000000
00000000
,
00000000
00000000
00000000
00000000
,
00000000
00000000
00000000
00000000
,
00000000
00000000
00000000
00000000
,
10000000
01000000
10000000
00000000
00010000
01000000
00010000
00000000
,
00100000
00001000
00100000
00000000
00001000
00010000
00001000
00000000
,
00010000
00000100
00001000
00000010
00000200
00000000
00000000
00000000
,
00000302
00000000
00000000
00000003
,
00001001
00000000
00000001
00000100
00000001
00000100
00001000
00000000
,
00010000
00001000
00010000
00001000
00010000
00100000
10000000
00000000
,
10010000
00000000
10000000
01000000
10000000
01000000
00010000
00000000
,
00001000
00000000
00000000
00010000
00000000
00000000
00001000
00000000
00000000
00010000
00000000
00000000
00001000
00000000
00000000
00000000
,
00010000
00001000
00010000
00001000
00000010
00001000
00000010
00000000
,
00000001
00000010
00000100
00001000
00000010
00000100
00000001
00000000
,
00002000
00000000
00000000
00003000
,
00000001
00000000
00001000
00000000
00000001
00000000
00000100
00000000
00000000
00000110
00000000
00000000
,
00000001
00000000
00000001
00001000
00000000
00001000
00000100
00000000
00000100
00010000
00000000
00000000
,
00001000
00000000
00001000
01000000
00000000
01000000
00010000
00000000
00010000
00100000
00000000
00000000
,
01000000
00000000
01000000
10000000
00000000
10000000
00010000
00000000
00010000
00100000
00000000
00100000
,
00002000
00000000
00000000
00003000
,
00010000
00000000
00000000
00001000
00000000
00000000
00010000
00000000
00000000
00000000
00010000
00000000
00000010
00000000
00001000
00000000
,
00000000
00000100
00000000
00000000
00000100
00000000
00000000
00000100
00000000
00000000
00000010
00000000
00000001
00000000
00000000
00000000
,
00001000
00000000
00000000
00000100
00000000
00000000
00001000
00000000
00000100
00000000
00000000
00010000
00000000
00000000
00000100
00000000
,
00020000
00000000
00002000
00033000
,
00001000
00010000
00001000
00000000
00100000
00010000
00100000
00000000
,
00010000
01000000
00100000
01000000
00010000
10000000
00010000
00000000
,
10010000
11000000
01100000
00101000
,
00011000
00010100
00001100
00001010
,
00000020
00000000
00000000
00000030
,
00000110
00000000
00000000
00000000
00000000
00000000
00000000
00000000
00001001
00000000
00000000
00000000
00000000
00000000
00000000
00000000
00000001
00000000
00000000
00000000
00000000
00000000
00000000
00000000
00001000
00000000
00000000
00000100
00000000
00000000
00000010
00000000
,
00000000
00000000
00000000
00000000
00000000
00000000
00000000
00000000
00000001
00000000
00000000
00000000
00000000
00000000
00001000
00000010
,
00000000
00001000
00000010
00000000
00010000
00000000
00001000
00010000
00000000
00001000
00010000
00000000
00000000
00000000
00000000
00000000
,
00000000
00000000
00000000
00000000
00001000
00000000
00010000
00001000
,
00000000
00010000
00001000
00100000
00010000
00000000
01000000
00010000
,
00000000
01000000
00010000
01000000
00100000
00000000
10000000
00100000
,
00000000
10000000
00100000
10000000
00020000
00000000
00000000
00000000
,
10030000
01000000
00010000
00000000
00001000
00000010
00000001
00000000
,
00002000
00000000
00000000
00000001
00000000
00000000
00000001
00000000
00000000
00000001
00000000
00000000
00003001
00000000
00000000
00000000
,
00000001
00000100
00001000
00000000
00010000
00100000
10000000
00000000
,
00020000
00000000
00000000
10000000
00000000
00000000
10000000
00000000
10030000
00000000
00000000
00000000
00000000
00000000
00000000
00000000
,
10000000
00100000
10000000
00000000
00010000
00100000
00010000
00000000
,
01000000
00001000
01000000
00000000
00001000
00010000
00001000
00000000
,
00010000
00000010
00001000
00000100
00000010
00000001
00001000
00000000
,
00000001
00000100
00000001
00000010
00001000
00000010
00001000
00000000
,
00020000
00000000
00000000
00000000
00000000
00000000
00000000
00030000
,
00010000
00000000
00011000
00000000
00001000
01000000
00100000
00000000
,
10000000
00000000
01100000
00000000
00010000
10000000
00010000
00000000
,
00100000
00000000
10010000
00000000
10000000
01000000
00100000
00000000
,
00010000
00000000
00101000
00000000
00100000
00001000
00010000
00000000
,
00001000
00010000
00000100
00001000
00000010
00000100
00000001
00000000
,
00000010
00000100
00001000
00000100
00010000
00001000
00100000
00000000
,
00010000
00000000
00000000
01000000
00000000
00000000
00100000
00000000
10000000
00000000
00000000
01000000
00000000
00000000
00100000
00000000
,
00010000
00000000
00000000
00100000
00000000
00000000
10000000
00000000
00100000
00000000
00000000
00000000
01100000
00000000
00000000
00000000
,
20020000
00000000
00000000
00000000
00000000
00000000
30030000
00000000
00010000
00000000
00100000
00000000
00001000
00010000
00000100
00000000
,
00000220
00000000
00000000
00000000
00000000
00000000
00000330
00000000
00000001
00000000
00000010
00000000
00000100
00001000
00000001
00000000
,
00001000
00000010
00001000
00000100
00010000
00001000
00010000
00000000
,
00001000
01000000
00010000
00100000
01000000
00100000
00010000
00000000
,
10000000
00000000
00000000
01000000
00000000
00000000
00100000
00000000
00010000
00000000
00000000
01000000
00000000
00000000
00100000
00000000
,
10000000
00000000
00000000
01000000
00000000
00000000
00010000
00000000
00001000
00010000
00000000
00001000
00000000
00000000
00000000
00000000
,
00010000
00001000
00010000
00000010
00001000
00000010
00000100
00000000
,
00000001
00000010
00000100
00001000
00000010
00000100
00000001
00000000
,
00000010
00000001
00000100
00000001
00000010
00000100
00001000
00000000
,
00000100
00010000
00001000
00010000
00002000
00000000
00000000
00000000
,
00013000
00000100
00010000
00000010
00010000
00001000
00010000
00000000
,
00001000
01000000
00001000
00100000
00001000
00010000
00001000
00000000
,
00010000
00100000
00010000
00001000
00000010
00001000
00010000
00000000
,
00002000
00000000
00000000
00003000
,
00011000
00000000
00000000
00000000
;
#NOTEDATA:;
#STEPSTYPE:dance-double;
#DIFFICULTY:Hard;
#METER:16;
#BPMS:0=158,112=79,120=316,122=158,123=79,138=158,150=79,152=158,184=79,188=158,220=79,228=158;
#NOTES:
00000000
00000000
00000000
00000000
,
00000000
00000000
00000000
00000000
,
00000000
00000000
00000000
00000000
,
00000000
00000000
00000000
00000000
,
00000000
00000000
00000000
00000000
,
00000000
00000000
00000000
00000000
,
10000000
00000000
01000000
00000000
00100000
00000000
00010000
01000000
00010000
00000000
00100000
00000000
00001000
00000000
00010000
00001000
,
00010000
00000000
00000100
00000000
00001000
00000000
00000010
00000100
00000010
00000000
00001000
00000000
00000001
00000000
00000000
00000000
,
00000001
00000000
00000000
00000100
00000000
00000000
00000010
00000000
00000000
00000000
00000000
00000000
00001000
00000000
00000000
00010000
00000000
00000000
01000000
00000000
00000000
00000000
00000000
00000000
00100000
00000000
00000000
10000000
00000000
00000000
00010000
00000000
00000000
01000000
00000000
00000000
00010000
00000000
00000000
00000000
10000000
00000000
00000000
00000000
00100000
00000000
00000000
00000000
,
02000000
00000000
00000000
03000000
,
10010000
00000000
00000000
00000000
10000000
00100000
01000000
00000000
00100000
01000000
00010000
00000000
01000000
00001000
00010000
00000000
,
00001000
00010000
00001000
00010000
00000000
00000010
00001000
00000010
00001000
00000000
00000100
00000010
00000100
00000010
00000000
00000001
,
00001000
00000000
00000010
00000000
00000100
00000000
00000001
00001000
00000001
00000000
00001000
00000100
00001000
00000000
00000100
00010000
,
00000100
00010000
00000000
00001000
00010000
00000000
00001000
01000000
00000000
00010000
01000000
00000000
00100000
10000000
00100000
00000000
,
01000000
00000000
00100000
01000000
00100000
01000000
00100000
01000000
00100000
00000000
10000000
01000000
00100000
00000000
00010000
00000000
,
00100000
00001000
00100000
00001000
00000000
00010000
00001000
00010000
00000100
00000000
00001000
00000010
00001000
00000000
00000100
00000010
,
00000001
00000000
00001000
00000100
00000000
00000100
00010000
00000000
00010000
00001000
00000000
00001000
01000000
00000000
00010000
00000000
,
00100000
00000000
01000000
00000000
01100000
00000000
10000000
00010000
10000000
00010000
00000000
00000000
,
10000000
01000000
00100000
00010000
01000000
00100000
10000000
01000000
00010000
01000000
00100000
00001000
,
00010000
00100000
00010000
00001000
00100000
00001000
00010000
01000000
00010000
00001000
00000000
00001000
,
00010000
00000100
00001000
00000010
00000100
00001000
00000100
00000001
00001000
00000100
00000001
00000100
,
00000010
00000000
00000001
00001000
00000000
00001000
00000010
00000000
00000010
00010000
00000000
00010000
00002000
00000000
00000000
00000000
,
00013000
00000000
00000000
00011000
00000000
00000000
00101000
00000000
00000000
00100000
00010000
00000000
01010000
00000000
01000000
00100000
,
00000000
10000000
00100000
00000000
01000000
00100000
01000000
00100000
00000000
10000000
00010000
00000000
10000000
01000000
00100000
00000000
,
00010000
00000000
00100000
00001000
00000000
00001000
00010000
00000000
00010000
00000100
00000000
00001000
00000000
00000100
00000010
00000000
,
00000002
00000000
00000000
00000003
00000002
00000023
00000230
00020300
,
00031000
00000000
00100000
00000000
00001000
00000000
00001000
00010000
00001000
01000000
00001000
00000000
00010000
00000000
00010000
00001000
,
00010000
00000100
00010000
00000000
00001000
00100000
00001000
00000000
00010000
00000010
00010000
00001000
00010000
00000000
00000000
00000000
,
00011000
00000000
00000000
00000000
00001000
00010000
00001000
00010000
00001000
00000000
01000000
00010000
00000000
01000000
00010000
00000000
00100000
00000000
01000000
10000000
00000000
01000000
10000000
00000000
00010000
01000000
00010000
00000000
01000000
00000000
00001000
00000000
,
00011000
00000000
00000000
00000000
00010000
00001000
00010000
00001000
00010000
00000100
00000000
00001000
00000100
00001000
00000000
00000010
00000100
00000000
00000001
00000010
00000000
00000100
00000010
00000000
00000100
00000000
00010000
00000100
00000000
00010000
00001000
00010000
,
00002000
00000000
00000000
00000000
00000000
00000000
00000000
00000000
00000000
00000000
00000000
00000000
00000000
00000000
00000000
00000000
00003000
00000000
00000000
00000000
00000000
00000000
00000000
00000000
00000000
00000000
00010000
00001000
00010000
00001000
00000000
01000000
,
00010000
00000000
00100000
00010000
00000000
01000000
00100000
00000000
10000000
00100000
01000000
00100000
10000000
00000000
00000000
00000000
00020000
00000000
00000000
00000000
00030000
00000000
00000000
00000000
01000000
00000000
00000000
00100000
00000000
00000000
02200000
00000000
,
00000000
00000000
00000000
00000000
00000000
00000000
03300000
00000000
10000000
00000000
00000000
00000000
00000000
00000000
01000000
00100000
,
00000000
00010000
00100000
00000000
00001000
00010000
00001000
00010000
00000000
00001000
00002000
00000000
00000000
00000000
00000000
00000000
,
00000000
00000000
00000000
00000000
00003000
00000000
00000000
00000000
00010000
00000000
00000000
00000100
00000000
00000000
00001000
00000000
00000001
00000000
00000000
00000000
00000000
00000000
00000000
00000000
00000000
00000000
00000000
00000000
00000101
00000000
00000000
00000000
,
00000000
00000100
00000010
00001000
00000100
00001000
00000100
00010100
,
00000000
00010000
00001000
00100000
00010000
01000000
00100000
01000000
,
00000000
00010000
10000000
00000000
20020000
00000000
00000000
30030000
,
10000000
00000000
01000000
00000000
00010000
00000000
01000000
10000000
01000000
00000000
00100000
00000000
00010000
10000000
00010000
00000000
,
10000000
01000000
00000000
01000000
00010000
00000000
00001000
00000010
00000000
00000010
00000001
00000000
00001000
00000000
00000000
00000000
,
00000001
00000000
00000100
00000000
00001000
00000000
00000100
00000001
00000100
00000000
00000010
00000000
00010000
00000010
00010000
00000000
,
00001000
00010000
00000000
00010000
00001000
00000000
00010000
00000100
00002000
00000000
00003020
00000000
00000230
00000000
00000000
00000000
,
00000301
00000000
00000100
00000000
00000010
00000000
00001000
00000100
00001000
00000000
00000010
00000000
00010000
00000000
00001000
00010000
,
00001000
00000000
01000000
00000000
00010000
00000000
00100000
01000000
00100000
00000000
00010000
00000000
10000000
00000000
00000000
00000000
,
10000000
01000000
00100000
00000000
00010000
00001000
00000100
00000000
00000010
00000001
00001000
00000100
00001000
00000001
00000100
00000000
,
00000010
00001000
00000010
00010000
00001000
00010000
00001000
00100000
00010000
00100000
01000000
10000000
01000000
10000000
00010000
00000000
,
20000000
00000000
00000000
00000000
00000000
00000000
00000000
30000000
,
10000000
00000000
00100000
01000000
00000000
00010000
00100000
00010000
00000000
01000000
00100000
10000000
00010000
00000000
00100000
00000000
,
01000000
00000000
00010000
00001000
00000000
00001000
00000010
00000000
00000000
00000001
00000010
00000100
00001000
00000000
00000001
00000000
,
00000100
00000000
00000010
00001000
00000000
00000100
00000010
00000100
00000000
00001000
00000100
00010000
00000100
00000000
00001000
00000000
,
00000010
00000000
00001000
00000100
00000000
00000100
00010000
00000000
00001000
00100000
00010000
00100000
01000000
00100000
00010000
00100000
,
00000000
01000000
10000000
01000000
00000000
10000000
00100000
10000000
00000000
00010000
01000000
00010000
10000000
00000000
10010000
00000000
,
00010000
00100000
00010000
00100000
00001000
00010000
00001000
00010000
00000000
00010000
00000100
00001000
00000100
00000000
00001000
00000100
,
00000010
00000000
00000001
00001000
00000000
00000000
00000010
00000100
00001000
00000000
00010000
00100000
00000000
00000000
01000000
00010000
,
10000000
00000000
00000000
11000000
00000000
00000000
01100000
00000000
00020000
00000000
10000000
00000000
10030000
00000000
00000000
00000000
,
20000000
00000000
00000000
00000000
00000000
00000000
00000000
00000000
00000000
00000000
00000000
00000000
30000000
00000000
00000000
00000000
10000000
00000000
00100000
01000000
00000000
01000000
00001000
00000000
00001000
00010000
00000000
00010000
00000100
00000000
00001000
00000000
,
00000002
00000000
00000000
00000000
00000000
00000000
00000000
00000000
00000000
00000000
00000000
00000000
00000003
00000000
00000000
00000000
00000001
00000000
00000100
00000010
00000000
00000010
00010000
00000000
00010000
00001000
00010000
00000000
00001000
00100000
00010000
00000000
,
10000000
00000000
01000000
00100000
00000000
00010000
00100000
01000000
00000000
10000000
00010000
00000000
01000000
00000000
00001000
00000000
,
00010000
00000010
00001000
00000000
00000010
00000100
00000010
00000100
00000000
00000010
00000001
00000000
00000010
00000000
00001000
00000001
,
00000100
00000000
00001000
00010000
00000000
00000000
00011000
00000000
00001000
00000000
00010000
00100000
00000000
00000000
10100000
00000000
,
10000000
00000000
01000000
00010000
00000000
00001000
00000010
00000000
00000001
00001000
00000000
00001000
00000002
00000000
00000000
00000000
,
00001003
00000000
00000100
00000000
00010100
00000000
00010000
00001000
00010000
00000000
00001000
00000000
00101000
00000000
00100000
00001000
,
00010000
00000000
00001000
01000000
00010000
00000000
00100000
00001000
00010000
00000000
00000100
00001000
00000010
00000000
00010000
00000000
,
00001000
00000000
00100000
00000000
00110000
00000000
00010000
10000000
00100000
00000000
01000000
00000000
01010000
00000000
00010000
00100000
,
00001000
00010000
00001000
00010000
00001000
00000000
00010000
00000000
00000200
00000000
00000000
00000000
00000000
00000000
00000300
00000000
,
00000100
00000000
00000010
00000000
00000011
00000000
00000001
00000100
00000010
00000000
00001000
00000000
00001010
00000000
00000010
00010000
,
00001000
00000000
00010000
00000000
00011000
00000000
00001000
00100000
00010000
00000000
01000000
00000000
01100000
00000000
00000000
00000000
,
00100000
00000000
00000000
10000000
00000000
00000000
00100000
00000000
00000000
10000000
00000000
00000000
00010000
00000000
00000000
01000000
00000000
00000000
00001000
00000000
00000000
00010000
00000000
00000000
00000010
00000000
00000000
00001000
00000000
00000000
00000010
00000000
00000000
00001000
00000000
00000000
00000001
00000000
00000000
00000000
00000010
00000000
00000000
00000000
00000100
00000000
00000000
00000000
,
00002000
00000000
00000000
00003000
,
00001001
00000000
00000000
00000000
;
