
//----- song ID: boeg -----//
#TITLE:僕の気持ちを描く;
#ARTIST:Mr.T feat.NU-KO;
#TITLETRANSLIT:Boku no kimochi wo egaku;
#BANNER:Boku no kimochi wo egaku.png;
#BACKGROUND:Boku no kimochi wo egaku-bg.png;
#CDTITLE:./CDTitles/pnm eclale.png;
#MUSIC:Boku no kimochi wo egaku.ogg;
#SAMPLESTART:50.824;
#SAMPLELENGTH:15;
#BPMS:0=170;
#NOTES:
     dance-single:
     :
     Beginner:
     2:
     :
0000
0000
0000
0000
,
0000
0000
0000
0000
,
0000
0000
0000
0000
,
0000
0000
0000
0000
,
0000
0000
0000
0000
,
0000
0000
0000
0000
,
1000
0000
0000
0000
,
1000
0000
0000
0000
,
0001
0000
0000
0000
,
0001
0000
0000
0000
,
1000
0000
0000
0000
,
0001
0000
0000
0000
,
1000
0000
0000
0000
,
0001
0000
0000
0000
,
0010
0000
0000
0000
,
0000
0000
0000
0000
,
0100
0000
0000
0000
,
0000
0000
0000
0000
,
1000
0000
0000
0000
,
0001
0000
0000
0000
,
1000
0000
0000
0000
,
0001
0000
0000
0000
,
0010
0000
0000
0000
,
0000
0000
0000
0000
,
0100
0000
0000
0000
,
0000
0000
0000
0000
,
1000
0000
0000
0000
,
1000
0000
0000
0000
,
0001
0000
0000
0000
,
0001
0000
0000
0000
,
1000
0000
0000
0000
,
0001
0000
0000
0000
,
1000
0000
0000
0000
,
0001
0000
0000
0000
,
0010
0000
0000
0000
,
0010
0000
0000
0000
,
0001
0000
0000
0000
,
0001
0000
0000
0000
,
1000
0000
0000
0000
,
0001
0000
0000
0000
,
1000
0000
0000
0000
,
1000
0000
0000
0000
,
0001
0000
0000
0000
,
1000
0000
0000
0000
,
0010
0000
0000
0000
,
0010
0000
0000
0000
,
0100
0000
0000
0000
,
0100
0000
0000
0000
,
0001
0000
0000
0000
,
0001
0000
0000
0000
,
1000
0000
0000
0000
,
0000
0000
0000
0000
,
1000
0000
0000
0000
,
1000
0000
0000
0000
,
0001
0000
0000
0000
,
0001
0000
0000
0000
,
1000
0000
0000
0000
,
1000
0000
0000
0000
,
1000
0000
0000
0000
,
0001
0000
0000
0000
,
1000
0000
0000
0000
,
0001
0000
0000
0000
,
0010
0000
0000
0000
,
0010
0000
0000
0000
,
0100
0000
0000
0000
,
0100
0000
0000
0000
,
1000
0000
0000
0000
,
1000
0000
0000
0000
,
0001
0000
0000
0000
,
0002
0000
0000
0000
0000
0000
0000
0003
,
0000
0000
0000
0000
;
#NOTES:
     dance-single:
     :
     Easy:
     6:
     :
0000
0000
0000
0000
,
0000
0000
0000
0000
,
0000
0000
0000
0000
,
0000
0000
0000
0000
,
0000
0000
0000
0000
,
0000
0000
0000
0000
,
1000
0100
1000
0000
,
0001
0100
0001
0000
,
1000
0100
0010
0001
,
0000
0000
0110
1001
,
0001
0001
0100
0000
,
0010
0010
1000
0000
,
0001
0000
0010
0000
,
0100
0000
1000
0000
,
1000
1000
0010
0000
,
0100
0100
0001
0000
,
2000
0000
3000
0000
,
1000
0100
0010
0001
,
1000
0001
0100
0000
,
0001
1000
0100
0000
,
1000
0000
0001
0000
,
0100
0000
0010
0000
,
1000
0001
0010
0000
,
0001
1000
0010
0000
,
0200
0000
0300
0000
,
0010
0000
1000
1000
,
0001
0010
0001
0010
,
0001
0000
0001
0001
,
1000
0100
1000
0100
,
1000
0000
1000
1000
,
0010
0100
0010
0100
,
0001
1000
0001
1000
,
0002
0000
0000
0000
,
0003
0000
1000
1000
,
1000
0100
0010
0001
,
1001
0000
0110
1001
,
1000
0100
1000
0100
,
0010
0001
1000
0000
,
0001
0100
0001
0100
,
0010
1000
0001
0000
,
0010
0100
0010
0100
,
1000
0001
0100
0020
,
0000
0000
0030
0000
,
0010
0000
0110
1001
,
1000
0010
1000
0010
,
0100
0001
1000
0000
,
0001
0010
0001
0010
,
0100
1000
0001
0000
,
2000
0000
0000
3000
,
0001
0010
0100
1000
,
0002
0000
0000
0003
,
2000
0000
0000
3000
,
0010
0010
0100
0000
,
0100
0100
0010
0000
,
1000
0000
0010
0000
,
0100
0000
0001
0000
,
1000
0001
0100
0010
,
0110
0000
0000
1001
,
0001
0000
1000
0000
,
0010
0000
0100
0000
,
0010
0100
0001
1000
,
0001
1001
0000
1001
,
1000
0100
1000
0100
,
0010
0001
0010
0001
,
1000
0001
1000
0001
,
2000
3000
0002
0003
,
0001
0100
0001
0100
,
0010
1000
0010
1000
,
0001
1000
0001
1000
,
0002
0003
2000
3000
,
0000
0010
0000
0000
0100
0000
0000
1001
,
0000
0000
0000
0000
;
#NOTES:
     dance-single:
     :
     Medium:
     10:
     :
0000
0000
0000
0000
,
0000
0000
0000
0000
,
0000
0000
0000
0000
,
0000
0000
0000
0000
,
0000
0000
0000
0000
,
0000
0000
0000
0000
,
1000
0100
1000
0100
1000
0000
0001
0020
,
0000
0000
0031
0200
0000
0320
0000
2030
,
0000
0000
0000
0000
,
3000
0000
1100
0011
,
0000
0000
1000
0100
2000
0000
3100
0020
,
0000
0000
0030
0001
0010
0001
1000
0200
,
0000
0320
0000
0230
0000
0000
0000
1300
,
0000
0010
0000
0100
0000
0001
0010
0001
,
0000
1000
0000
0010
0000
0100
0000
0001
,
0000
1000
0000
0001
0000
0010
0200
0000
,
0000
0000
0000
0300
,
1000
0100
0010
0001
0010
0100
1000
0000
,
0000
0000
0001
0100
0002
0000
0103
0020
,
0000
0000
0030
1000
0010
1000
0001
0200
,
0000
0320
0000
0230
0000
0000
0000
0301
,
0000
0010
0000
0100
0000
0010
0001
0100
,
0000
0010
0000
1000
0000
0100
1000
0010
,
0000
0100
0001
0010
0000
0001
2000
0000
,
0000
0000
0000
0000
3000
0000
0001
0100
,
0001
0010
0001
0000
1000
0100
0010
0002
,
0000
0000
0013
0200
0000
0000
0310
0002
,
0000
0000
0003
0000
0001
0010
0100
2000
,
0000
0000
3100
0020
0000
0000
0130
2000
,
0000
0000
3000
0000
0001
0010
0100
1000
,
0200
0302
0203
2300
,
3020
0032
0023
2030
,
3002
0000
0000
1000
2003
0000
0000
0000
,
0000
0000
3000
0100
1000
0100
1000
0020
,
0000
0100
0230
0000
0000
0000
0000
0000
,
0300
0000
0101
1010
,
1000
1000
0001
0001
,
1000
0001
0100
0000
0001
1000
0100
0000
,
1000
1000
0001
0001
,
1000
0001
0010
0000
0001
1000
0010
0000
,
1000
0100
1000
0100
0010
0001
0010
0002
,
0000
0000
1003
2000
0000
3100
0020
0000
,
0000
0000
0000
0000
,
0030
0000
0110
1001
,
0001
0001
1000
1000
,
0001
1000
0100
0000
1000
0001
0100
0000
,
0001
0001
1000
1000
,
0001
1000
0010
0000
1000
0001
0010
0200
,
0000
0000
0300
1000
0010
0100
0010
0200
,
0000
0000
0301
0002
0000
0203
0000
0320
,
0000
0000
0000
0000
,
0000
0030
0000
0000
1010
0000
0101
0000
,
0001
0000
0100
0000
0001
0100
0010
0000
,
1000
0000
0100
0000
1000
0100
0010
0002
,
0000
0000
0013
0200
0000
2300
0000
3002
,
0000
0203
0000
0320
0000
0000
0030
0000
,
1000
0010
1000
0010
1000
0100
0010
0001
,
0000
1000
1001
0000
0000
0000
1001
0000
,
0002
0003
2000
3000
,
0020
0030
0200
0300
,
0001
0100
0001
0100
0001
0010
0100
1000
,
0000
0001
1001
0000
0000
0000
1001
0000
,
2000
0001
0000
3010
,
0020
1000
0000
0130
,
0200
0010
0000
0301
,
0002
1003
2000
3001
,
2000
0000
3100
0020
0000
0032
0000
2003
,
0000
3010
0100
0002
0000
0000
1000
0000
,
0000
0010
0000
0103
,
0001
0010
0100
1000
0001
0010
0100
1000
,
0000
1001
0000
0000
0110
0000
0000
1001
,
0000
0000
0000
0000
;
#NOTES:
     dance-single:
     :
     Hard:
     13:
     :
0000
0000
0000
0000
,
0000
0000
0000
0000
,
0000
0000
0000
0000
,
0000
0000
0000
0000
,
0000
0000
0000
0000
,
0000
0000
0000
0000
,
1000
0100
1000
0100
0001
0100
1000
0020
,
0000
0000
0130
0002
0000
2003
0000
3001
,
1000
0100
0010
0001
0010
0100
1000
0001
,
0000
0000
0000
1000
0001
0000
0010
0000
,
0001
0010
0001
0010
1000
0010
0001
0000
,
1000
0010
1000
0010
0001
0010
1000
0002
,
0000
2003
0000
3020
0000
0000
0000
0100
,
0000
0001
0000
1030
0000
0010
1000
0001
,
0000
0010
0000
0100
0000
1000
0001
1000
,
1001
0000
0001
0010
0011
0000
1000
0100
,
1100
0000
1000
0100
0010
0100
0001
0100
,
0000
0000
0010
0000
0001
0000
0010
0000
0100
0000
1000
0100
1000
0000
0000
0000
,
1001
0000
1000
0100
0010
0100
1000
0000
,
0001
0010
0001
0010
1000
0010
0001
2000
,
0000
3002
0000
0023
0000
0000
0000
0100
,
0000
1000
0000
0031
0000
0010
0001
1000
,
0000
0100
0000
0010
0000
0001
1000
0100
,
0000
0010
0100
0010
0000
0001
1000
0000
,
0001
0100
0010
0001
0010
0000
1000
0100
,
0010
0000
1000
0000
0010
0000
0000
0000
0100
0010
0100
0000
0010
0001
0010
0000
,
0001
0100
0001
0100
0010
1000
0010
0000
,
1000
0100
1000
0100
0010
0001
0010
0000
,
0001
0010
0100
0001
0100
0010
0001
0000
,
0011
0110
1100
1001
,
1000
0000
0100
0000
1000
0100
1000
0000
0010
0000
0200
0000
0000
0000
0000
0000
,
0301
0000
0100
0000
0001
0100
0001
0000
0010
0000
0200
0000
0000
0000
0000
0000
,
1300
0100
1000
0010
0100
0001
1000
0000
,
0001
0000
0100
0000
0001
0000
0010
0000
0100
1000
0100
0000
1000
0010
1000
0000
,
0001
0010
0100
1000
0100
0010
0001
1000
,
1001
0000
0000
1000
1100
0001
0011
0000
,
1000
0100
1000
0100
0001
0100
0010
0002
,
0000
0000
1003
2000
0000
0000
3001
0000
,
0001
0100
0001
0100
1000
0100
0010
2000
,
0000
0000
3001
0002
0000
0000
1003
0000
,
0001
0100
0001
0100
0010
0001
0010
0200
,
0000
0000
0310
2000
0000
3100
0020
0000
,
0031
1000
0100
0001
1000
0010
0001
0020
,
0000
0031
0100
0010
0110
0000
1001
0000
,
1000
0000
0100
0000
0010
0000
0100
0000
1000
0010
0100
0000
0001
0000
0000
0000
,
0001
0000
0100
0000
0010
0000
0100
0000
0001
0010
0100
0000
1000
0000
0000
0000
,
0010
0100
0010
0100
0001
1000
0100
0020
,
0000
0000
0031
2000
0000
3010
0100
0002
,
0000
0000
0003
0100
0010
1000
0001
2000
,
0000
0010
0001
3100
,
1000
0010
0001
1000
0100
0001
1000
0001
,
0000
1000
0100
1000
1010
0000
0101
0000
,
1000
0000
0001
0000
0100
0000
0010
0000
1000
0000
0010
0100
0010
0000
0000
0000
,
1000
0000
0001
0000
0010
0000
0100
0000
1000
0000
0100
0010
0100
0000
0000
0000
,
1000
0000
0100
0000
0010
0000
0001
0000
1000
0000
0010
0100
0010
0000
0000
0000
,
1000
0000
0010
0000
0100
0000
0001
0000
1000
0000
0100
0010
0100
0000
0000
0000
,
0010
0100
0010
0100
0001
0100
1000
1001
,
0000
0001
1001
0000
0000
0000
1001
0000
,
1000
0100
1000
0100
0010
0100
0010
0100
,
0010
0001
0010
0001
0100
0001
0100
0001
,
1000
0100
1000
0100
1000
0100
0010
1001
,
0000
0010
0110
0000
0000
1000
1001
0000
,
1000
0000
1000
0000
1000
0100
1000
0100
,
0010
0000
0010
0000
0010
0001
0010
0001
,
0100
0000
0100
0000
0100
0010
0100
0010
,
2000
3001
0002
1003
,
1000
0100
0010
0000
0001
0100
0010
0001
,
0010
0100
0001
0000
1000
0100
0001
0100
,
0010
0001
1000
0000
0001
0100
1000
0100
,
0010
0100
0010
0000
1000
0000
0000
0000
0001
0010
0001
0000
0100
0000
0000
0000
,
0000
0101
0000
0000
1010
0000
0000
1001
,
0000
0000
0000
0000
;
#NOTES:
     dance-double:
     :
     Easy:
     7:
     :
00000000
00000000
00000000
00000000
,
00000000
00000000
00000000
00000000
,
00000000
00000000
00000000
00000000
,
00000000
00000000
00000000
00000000
,
00000000
00000000
00000000
00000000
,
00000000
00000000
00000000
00000000
,
10000000
01000000
10000000
00000000
,
00010000
00100000
00010000
00000000
,
00100000
00010000
00001000
00000100
,
00000000
00000000
00000110
00001001
,
00000001
00000100
00000010
00000000
,
00000100
00000010
00001000
00000000
,
00000100
00000000
00010000
00000000
,
00001000
00000000
00100000
00000000
,
00010000
10000000
00100000
00000000
,
10000000
00010000
00100000
00000000
,
02000000
00000000
03000000
00000000
,
00100000
00010000
10000000
01000000
,
10000000
01000000
00100000
00000000
,
01000000
00100000
00010000
00000000
,
01000000
00000000
00001000
00000000
,
00010000
00000000
00000010
00000000
,
00001000
00000001
00000010
00000000
,
00000001
00001000
00000010
00000000
,
00000200
00000000
00000300
00000000
,
00000010
00000000
00001000
00001000
,
00000100
00010000
00000100
00010000
,
00001000
00000000
00010000
00010000
,
00001000
01000000
00001000
01000000
,
00010000
00000000
10000000
10000000
,
01000000
00100000
01000000
00100000
,
00010000
00001000
00000100
00000010
,
00000002
00000000
00000000
00000000
,
00000003
00000000
00000100
00000100
,
00000010
00000100
00001000
00010000
,
00110000
00000000
01100000
10010000
,
10000000
01000000
00100000
00001000
,
00010000
00000100
00000010
00000000
,
00000001
00000100
00000010
00010000
,
00001000
01000000
00100000
00000000
,
10000000
01000000
00100000
00010000
,
00001000
00000100
00000010
00000002
,
00000000
00000000
00000003
00000000
,
00001000
00000000
00000101
00001010
,
00000010
00010000
00001000
00100000
,
00001000
00010000
00001000
00000000
,
00100000
00001000
00010000
00000010
,
00010000
00001000
00010000
00000000
,
00002000
00000000
00000000
00003000
,
00010000
00100000
10000000
01000000
,
00020000
00000000
00000000
00030000
,
00002000
00000000
00000000
00003000
,
00001000
00000010
00000001
00000000
,
00000001
00000100
00000010
00000000
,
00001000
00000000
00010000
00000000
,
01000000
00000000
00010000
00000000
,
10000000
00010000
01000000
00100000
,
01100000
00000000
00000000
10010000
,
10000000
00000000
01000000
00000000
,
00010000
00000000
00001000
00000000
,
00000010
00000001
00000100
00000010
,
00000100
00000110
00000000
00001001
,
00000001
00000100
00000010
00001000
,
00000100
00010000
00001000
00100000
,
00010000
01000000
00100000
10000000
,
00020000
00030000
20000000
30000000
,
10000000
01000000
00100000
00010000
,
01000000
00001000
00010000
00000010
,
00001000
00000100
00000010
00000001
,
00002000
00003000
00000002
00000003
,
00000000
00000010
00000000
00000000
00000100
00000000
00000000
00001001
,
00000000
00000000
00000000
00000000
;
#NOTES:
     dance-double:
     :
     Medium:
     10:
     :
00000000
00000000
00000000
00000000
,
00000000
00000000
00000000
00000000
,
00000000
00000000
00000000
00000000
,
00000000
00000000
00000000
00000000
,
00000000
00000000
00000000
00000000
,
00000000
00000000
00000000
00000000
,
10000000
01000000
10000000
01000000
10000000
00000000
00010000
00200000
,
00000000
00000000
00301000
00020000
00000000
00030200
00000000
00000320
,
00000000
00000000
00000000
00000000
,
00000030
00000000
00001100
00000011
,
00000000
00000000
00000001
00000100
00000002
00000000
00000013
00000200
,
00000000
00000000
00000300
00010000
00001000
00010000
00100000
02000000
,
00000000
03200000
00000000
20300000
00000000
00000000
00000000
01000000
,
00000000
00100000
00000000
30010000
00000000
10000000
01000000
00100000
,
00000000
00001000
00000000
00010000
00000000
00000100
00000000
00000010
,
00000000
00001000
00000000
00010000
00000000
00001000
00020000
00000000
,
00000000
00000000
00000000
00030000
,
00001000
00010000
00100000
01000000
10000000
01000000
00100000
00000000
,
00000000
00000000
10000000
01000000
20000000
00000000
30100000
02000000
,
00000000
00000000
03000000
00001000
00010000
00001000
00000010
00000200
,
00000000
00000320
00000000
00000032
00000000
00000000
00000000
00000100
,
00000000
00000010
00000000
00001003
00000000
00000001
00000100
00000010
,
00000000
00010000
00000000
00001000
00000000
01000000
00010000
00100000
,
00000000
00010000
10000000
00100000
00000000
01000000
00200000
00000000
,
00000000
00000000
00000000
00000000
00300000
00000000
10000000
00010000
,
10000000
00010000
00100000
00000000
00010000
00100000
00001000
00020000
,
00000000
00030000
00001000
00000200
00000000
00000300
00001000
00020000
,
00000000
00000000
00030000
00000000
00010000
00000100
00010000
00002000
,
00000000
00003000
00010000
02000000
00000000
03000000
00010000
00002000
,
00000000
00000000
00003000
00000000
00010000
00001000
00000100
00000010
,
00002000
00003002
00000203
00002300
,
00023000
00230000
20300000
30020000
,
00230000
00000000
00000000
01000000
02300000
00000000
00000000
00000000
,
00000000
00000000
03000000
01000000
10000000
01000000
00100000
00020000
,
00000000
00100000
00230000
00000000
00000000
00000000
00000000
00000000
,
00300000
00000000
00101000
00010010
,
00010000
00010000
00000100
00000100
,
00001000
00000100
00010000
00000000
00001000
00100000
00010000
00000000
,
01000000
01000000
00100000
00100000
,
01000000
00001000
00010000
00000000
00001000
00010000
00000010
00000000
,
00001000
00000000
00000001
00000000
00000100
00000010
00000100
00000020
,
00000000
00000000
00010030
00002000
00000000
00103000
00020000
00000000
,
00000000
00000000
00000000
00000000
,
00030000
00000000
01010000
10100000
,
00100000
00100000
01000000
01000000
,
00010000
00100000
00001000
00000000
00010000
00000100
00001000
00000000
,
00000010
00000010
00000100
00000100
,
00000010
00010000
00001000
00000000
00100000
00010000
00100000
02000000
,
00000000
00000000
03000000
10000000
01000000
00100000
00010000
00200000
,
00000000
00000000
00301000
00020000
00000000
00032000
00000000
00003020
,
00000000
00000000
00000000
00000000
,
00000000
00000030
00000000
00000000
00000011
00000000
00001100
00000000
,
00000100
00010000
00001000
00100000
,
00010000
00000000
00001000
00000000
00000100
00010000
00001000
00200000
,
00000000
00000000
00310000
02000000
00000000
23000000
00000000
32000000
,
00000000
03020000
00000000
00230000
00000000
00000000
00300000
00000000
,
00001000
00100000
00001000
00010000
00001000
00000100
00000010
00000100
,
00000000
00000001
00001001
00000000
00000000
00000000
00001001
00000000
,
00002000
00003000
00000200
00000300
,
00020000
00030000
00002000
00003000
,
00001000
00010000
00001000
00010000
00100000
00010000
00001000
00010000
,
00000000
00001000
00011000
00000000
00000000
00000000
00011000
00000000
,
00020000
00001000
00000000
00030100
,
00000200
00010000
00000000
00000310
,
00000020
00000001
00000000
00000130
,
00000200
00010300
00020000
00031000
,
00002000
00000000
00013000
00200000
00000000
02300000
00000000
23000000
,
00000000
31000000
00100000
02000000
00000000
00000000
00100000
00000000
,
00000000
00010000
00000000
03100000
,
01000000
00100000
00010000
00001000
00010000
00001000
00000100
00000010
,
00000000
00001001
00000000
00000000
00000110
00000000
00000000
00001001
,
00000000
00000000
00000000
00000000
;
#NOTES:
     dance-double:
     :
     Hard:
     13:
     :
00000000
00000000
00000000
00000000
,
00000000
00000000
00000000
00000000
,
00000000
00000000
00000000
00000000
,
00000000
00000000
00000000
00000000
,
00000000
00000000
00000000
00000000
,
00000000
00000000
00000000
00000000
,
00000001
00000100
00000001
00000100
00000010
00001000
00010000
02000000
,
00000000
00000000
03100000
20000000
00000000
30020000
00000000
10030000
,
01000000
00100000
00010000
00001000
00000100
00000010
00000001
00001000
,
00000000
00000000
00000000
00000001
00000101
00000000
00001010
00000000
,
00000010
00001000
00000010
00001000
00010000
01000000
00010000
00000000
,
00100000
00010000
00100000
00010000
00001000
00000100
00001000
00000200
,
00000000
00020300
00000000
00032000
00000000
00000000
00000000
00010000
,
00000000
00100000
00000000
01003000
00000000
01000000
00100000
10000000
,
00000000
00100000
00000000
00010000
00000000
00100000
01000000
00010000
,
01010000
00000000
01000000
00001000
00011000
00000000
00010000
00000100
,
00001100
00000000
00000100
00000010
00000100
00001000
00010000
00100000
,
00000000
00000000
00001000
00000000
00010000
00000000
00100000
00000000
01000000
00000000
00010000
01000000
00010000
00000000
00000000
00000000
,
00110000
00000000
00100000
00010000
00001000
00000100
00001000
00000000
,
00000010
00001000
00000010
00001000
00010000
01000000
00010000
02000000
,
00000000
03002000
00000000
00023000
00000000
00000000
00000000
00001000
,
00000000
00000100
00000000
00030010
00000000
00000010
00000100
00000001
,
00000000
00000100
00000000
00001000
00000000
00000100
00000010
00001000
,
00000000
00000100
00000010
00000001
00000000
00000100
00001000
00000000
,
00010000
00001000
00010000
00100000
00010000
00000000
00001000
00010000
,
00001000
00000010
00001000
00000000
00010000
00001000
00000100
00000000
,
00000010
00000100
00000010
00000100
00001000
00010000
00001000
00000000
,
00100000
01000000
00100000
01000000
00010000
00001000
00010000
00000000
,
00001000
00100000
00010000
01000000
00100000
10000000
00010000
00000000
,
00110000
00011000
00001100
00000011
,
00000010
00000000
00000100
00000000
00000010
00000100
00001000
00000000
00000100
00000000
00020000
00000000
00000000
00000000
00000000
00000000
,
00031000
00000000
01000000
00000000
00100000
01000000
00010000
00000000
01000000
00000000
00002000
00000000
00000000
00000000
00000000
00000000
,
00013000
00100000
10000000
00100000
00010000
00001000
00010000
00000000
,
00001000
00000010
00000001
00000010
00001000
00010000
00001000
00000000
,
00010000
00100000
10000000
01000000
00010000
00001000
00000010
00000001
,
00001001
00000000
00001100
00000011
,
00000001
00000100
00001000
00010000
00001000
00010000
00100000
20000000
,
00000000
00000000
30010000
00020000
00000000
00000000
10030000
00000000
,
10000000
01000000
00010000
00001000
00010000
00001000
00000010
00000002
,
00000000
00000000
00001003
00002000
00000000
00000000
00003001
00000000
,
00000001
00000100
00001000
00010000
00100000
10000000
00100000
02000000
,
00000000
00000000
03010000
20000000
00000000
31000000
00200000
00000000
,
00301000
00010000
00001000
00000100
00010000
00001000
00000010
00002000
,
00000000
00003001
00000100
00000010
00000110
00000000
00001001
00000000
,
00000001
00000010
00001000
00010000
00001000
00010000
01000000
20000000
,
00000000
00000000
30010000
00020000
00000000
00000000
10030000
00000000
,
10000000
00100000
00010000
00001000
00010000
00001000
00000100
00000002
,
00000000
00000000
00001003
00002000
00000000
00003001
00000010
00000002
,
00000000
00000000
00000003
00001000
00000010
00000001
00000010
00000200
,
00000000
00000000
00000301
00002000
00000000
00003200
00000000
00010300
,
00001000
00010000
01000000
00001000
00010000
00100000
00010000
10000000
,
00000000
00010000
01000000
00100000
01100000
00000000
10010000
00000000
,
10000000
01000000
00100000
01000000
10000000
00100000
01000000
00000000
,
00100000
00010000
00001000
00010000
00100000
00010000
00001000
00000000
,
00010000
00001000
00000100
00001000
00010000
00000100
00000010
00000000
,
00000100
00000000
00000010
00000000
00000001
00000000
00000010
00000000
00000100
00000000
00001000
00000100
00001000
00000000
00000000
00000000
,
00000010
00000100
00000010
00000100
00001000
00010000
00100000
10000000
,
00000000
00010000
10010000
00000000
00000000
00000000
10010000
00000000
,
10000000
01000000
10000000
01000000
00100000
00010000
00100000
00010000
,
00001000
00000100
00001000
00000100
00000010
00000001
00000010
00000001
,
00000100
00000010
00000100
00000010
00001000
00010000
01000000
00010000
,
00000000
10000000
10010000
00000000
00000000
00010000
10010000
00000000
,
10000000
00000000
10000000
00000000
10000000
01000000
00010000
00001000
,
00010000
00000000
00010000
00000000
00010000
00001000
00000010
00000001
,
00000010
00000000
00000010
00000000
00000010
00000001
00000100
00001000
,
00020000
00031000
00002000
00013000
,
00001000
00010000
00100000
00000000
00100000
10000000
01000000
00010000
,
00001000
00010000
00000100
00000000
00000100
00000010
00000001
00000100
,
00001000
00010000
00001000
00000000
00001000
00010000
00100000
10000000
,
00100000
01000000
00100000
00000000
10000000
00000000
00000000
00000000
00010000
00100000
00010000
00000000
01000000
00000000
00000000
00000000
,
00000000
01100000
00000000
00000000
00110000
00000000
00000000
00011000
,
00000000
00000000
00000000
00000000
;
