
//----- song ID: bknh2 -----//
#TITLE:僕の飛行機;
#ARTIST:covered by 不知火フレア;
#TITLETRANSLIT:Boku no hikouki;
#ARTISTTRANSLIT:covered by Shiranui Flare;
#BANNER:Boku no hikouki (cover).png;
#BACKGROUND:Boku no hikouki (cover)-bg.png;
#CDTITLE:./CDTitles/DDR WORLD.png;
#MUSIC:Boku no hikouki (cover).ogg;
#SAMPLESTART:40.495;
#SAMPLELENGTH:15;
#BPMS:0=143.1,4=142,236=136.986,240=126.05,240.5=111.94,242.5=92.025,244=91.004;
#BGSTAGE:16;
#NOTES:
     dance-single:
     :
     Beginner:
     1:
     :
0000
0000
0000
0000
,
0000
0000
0000
0000
,
0000
0000
0000
0000
,
0000
0000
0000
0000
,
0000
0000
0000
0000
,
0001
0000
0000
0000
,
0001
0000
0000
0000
,
0001
0000
0000
0000
,
0000
0000
0000
0000
,
0010
0000
0000
0000
,
0010
0000
0000
0000
,
0010
0000
0000
0000
,
0000
0000
0000
0000
,
1000
0000
0000
0000
,
1000
0000
0000
0000
,
1000
0000
0000
0000
,
0000
0000
0000
0000
,
1000
0000
0000
0000
,
0010
0000
0000
0000
,
1000
0000
0000
0000
,
0000
0000
0000
0000
,
1000
0000
0000
0000
,
1000
0000
0000
0000
,
0010
0000
0000
0000
,
0000
0000
0000
0000
,
0010
0000
0000
0000
,
0010
0000
0000
0000
,
0001
0000
0000
0000
,
0000
0000
0000
0000
,
0001
0000
0000
0000
,
0010
0000
0000
0000
,
0001
0000
0000
0000
,
0000
0000
0000
0000
,
0001
0000
0000
0000
,
0001
0000
0000
0000
,
0010
0000
0000
0000
,
0000
0000
0000
0000
,
0001
0000
0000
0000
,
0010
0000
0000
0000
,
0010
0000
0000
0000
,
0000
0000
0000
0000
,
1000
0000
0000
0000
,
0010
0000
0000
0000
,
1000
0000
0000
0000
,
0000
0000
0000
0000
,
1000
0000
0000
0000
,
0100
0000
0000
0000
,
0010
0000
0000
0000
,
0000
0000
0000
0000
,
0001
0000
0000
0000
,
0010
0000
0000
0000
,
0001
0000
0000
0000
,
0000
0000
0000
0000
,
0001
0000
0000
0000
,
0100
0000
0000
0000
,
0010
0000
0000
0000
,
0000
0000
0000
0000
,
1000
0000
0000
0000
,
0000
0000
0000
0000
,
0002
0000
0000
0000
,
0003
0000
0000
0000
,
0000
0000
0000
0000
;
#NOTES:
     dance-single:
     :
     Easy:
     4:
     :
0000
0000
0000
0000
,
0000
0000
0000
0000
,
0000
0000
0000
0000
,
0000
0000
0000
0000
,
0000
0000
0000
0000
,
0001
0000
1000
0000
,
0001
1000
0001
0000
,
1000
0000
0001
0000
,
1000
0001
1000
0000
,
0002
0000
0000
0003
,
0020
0000
0000
0030
,
0200
0000
0000
0300
,
2000
0000
0000
3000
,
0001
1000
0001
0000
,
1000
0010
1000
0000
,
0001
1000
0001
0000
,
0010
0001
0010
0000
,
0001
0100
0001
0000
,
0100
0010
0100
0000
,
0010
0000
0000
0000
,
1001
0000
0000
0000
,
1000
0100
1000
0000
,
0100
0010
0100
0000
,
0010
0000
0000
0000
,
1001
0000
0000
0000
,
0001
1000
0001
0010
,
0001
0000
0001
0000
,
1000
0001
1000
0010
,
1000
0000
1000
0000
,
1001
0000
0000
0000
,
0110
0000
0000
0000
,
1001
0000
0110
0000
,
0001
1000
0001
0000
,
1000
0001
1000
0100
,
1000
0000
1000
0000
,
0001
1000
0001
0100
,
0001
0000
0001
0000
,
2000
0000
0000
3000
,
0002
0000
0000
0003
,
0100
0000
0010
0000
,
0110
0000
1001
0000
,
2000
0000
0000
3000
,
1000
0100
0010
0000
,
0002
0000
0000
0003
,
0001
0100
0010
0000
,
2000
0000
0000
3000
,
1000
0010
0100
0000
,
0002
0000
0000
0003
,
0001
0010
0100
0000
,
1001
0000
0000
0000
,
1000
0001
0010
0000
,
1001
0000
0000
0000
,
0001
1000
0010
0000
,
1001
0000
0000
0000
,
1000
0001
0100
0000
,
1001
0000
0000
0000
,
0001
1000
0100
0000
,
1000
0000
0000
0000
,
0100
0000
0000
0000
,
0010
0000
0000
0000
,
0001
0000
0000
0000
,
0000
1001
0000
0000
,
0000
0000
0000
0000
;
#NOTES:
     dance-single:
     :
     Medium:
     10:
     :
0000
0000
0000
0000
,
0000
0000
0000
0000
,
0000
0000
0000
0000
,
0000
0000
0000
0000
,
0000
0000
0000
0000
,
0000
0000
0001
1000
0001
0000
0000
0100
,
0000
0010
0100
0010
0000
1000
0000
0001
,
0000
1000
0001
0000
0000
0000
0000
0001
,
0000
1000
0001
0000
0000
0000
0000
0000
,
0002
0000
0203
0000
,
0320
0000
2030
0000
,
3002
0000
0023
0000
,
0230
0000
2300
0000
,
3001
0000
1000
0100
0010
0000
0000
1001
,
0000
1000
0000
0100
0000
0010
0000
0001
,
0000
1000
0001
0000
0000
0000
0000
1000
,
0000
0000
0010
0000
0100
0010
0100
0000
,
0001
0100
0001
0001
,
1000
0010
1000
1000
,
0100
1000
0100
0100
,
0010
0001
0010
0010
,
0001
0000
0100
0000
0001
0100
0001
0000
,
1000
0000
0010
0000
1000
0010
1000
0000
,
0100
0000
1000
0000
0100
1000
0100
0000
,
0010
0000
0001
0000
0010
0001
0010
0000
,
0001
0000
0100
0000
1000
0000
0100
0001
,
0100
0010
1000
0001
,
1000
0000
0100
0000
0001
0000
0100
1000
,
0100
0010
0001
1000
,
0010
0000
0100
0000
0001
0000
0010
0100
,
1000
0010
0100
0001
,
0100
0000
0010
0000
1000
0000
0100
0010
,
0001
0100
0010
1000
,
0001
0000
0000
0000
0001
0100
0001
0000
,
1000
0000
0000
0000
1000
0100
1000
0000
,
0001
0000
0000
0000
0001
0010
0001
0000
,
1000
0000
0000
0000
1000
0010
1000
0000
,
0001
0000
0000
0100
0010
0000
0010
0000
,
1000
0000
0000
0100
0010
0000
0010
0000
,
0001
0000
0100
0010
0000
1000
0001
0000
,
2000
0000
0000
3001
0200
0000
0300
0000
,
0001
0100
0010
1000
0010
0100
0001
0000
,
1000
0100
0010
0001
0100
0010
1000
0000
,
0001
0100
1000
0000
1000
0100
0001
0000
,
0101
0000
0100
0001
2000
0000
3000
0000
,
0100
1000
0100
1000
0010
0100
0010
0100
,
0001
0000
0000
1000
0000
0000
0001
0000
0000
0000
0000
0000
1001
0000
0000
0000
,
2000
3020
0032
0023
,
2030
0000
3001
0100
0020
0000
0030
0000
,
1000
0100
0010
0001
0010
0100
1000
0000
,
0001
0100
0010
1000
0100
0010
0001
0000
,
1000
0100
0001
0000
0001
0100
1000
0000
,
1100
0000
0100
1000
0002
0000
0003
0000
,
0100
0000
0001
0000
0100
0000
0001
0000
0010
0000
0000
0100
0000
0000
0010
0000
,
0100
1000
0001
1000
,
0002
0000
0013
0200
0000
0000
0000
1300
,
0002
0000
0103
0010
2000
0000
3100
0010
,
0002
0000
0000
0000
,
0000
0000
0000
0003
,
1000
0000
0010
0000
0100
0000
0001
1000
,
0000
0001
1000
0000
0010
0000
0100
0000
,
0000
1001
0000
0000
,
0000
0000
0000
0000
;
#NOTES:
     dance-single:
     :
     Hard:
     13:
     :
0000
0000
0000
0000
,
0000
0000
0000
0000
,
0000
0000
0000
0000
,
0000
0000
0000
0000
,
0000
0000
0000
0000
,
0000
0000
0001
0010
0100
1000
0000
1001
,
0000
0001
0100
0010
0000
0010
1000
0001
,
0000
1000
0001
0000
1000
0100
0010
0001
,
0000
0001
1000
0000
0110
0000
1001
0000
,
2000
3200
0320
0032
,
0203
0320
2030
3200
,
0310
0100
1000
0000
0010
0100
0001
1000
,
0000
1000
0001
0100
0000
0010
0100
0000
,
0002
0203
0320
2030
,
3200
0320
0032
0203
,
0310
0100
0001
0000
0010
0100
1000
0001
,
0000
0001
1000
0100
0000
0010
0100
0000
,
1000
0100
1000
0010
0100
0001
0010
0000
,
0001
0010
1000
0010
0001
1000
0100
0000
,
1000
0010
0100
0001
0010
0100
1000
0000
,
0100
0001
0100
1000
0001
0010
0100
0000
,
1000
0010
1000
0100
0010
0001
0100
0000
,
0001
0010
0001
0100
0010
1000
0100
0000
,
1000
0010
0100
0001
0010
0100
1000
0000
,
1100
0110
0011
1001
,
1000
0000
0100
0000
0010
0000
0001
0100
0000
0000
0001
0000
0010
0000
0100
0000
,
1000
0000
0010
0000
0100
0000
0001
0010
0000
0000
0001
0000
0100
0000
0010
0000
,
1000
0000
0100
0000
0001
0000
0100
1000
0000
0000
0001
0000
0010
0000
0100
0000
,
1000
0000
0010
0000
0001
0000
0010
1000
0000
0000
0001
0000
0100
0000
0010
0000
,
1000
0000
0100
0000
0010
0000
0100
1000
0000
0001
0100
0000
0010
0000
0100
0000
,
0001
0000
1000
0000
0100
0000
0010
0001
0000
1000
0010
0000
0100
0000
0010
0000
,
1000
0000
0100
0000
0010
0000
0001
1000
0000
0010
0100
0000
0001
0000
1000
0000
,
0100
0000
0001
0000
0100
0000
1000
0001
0000
0100
0010
0000
1000
0000
0000
0000
,
0001
0000
0100
0000
0010
0000
1000
0010
1000
0000
0001
0000
0001
0000
0000
0000
,
1000
0000
0100
0000
0010
0000
0001
0010
0001
0000
1000
0000
1000
0000
0000
0000
,
0001
0000
0010
0000
0100
0000
1000
0100
1000
0000
0001
0000
0001
0000
0000
0000
,
1000
0100
0010
0110
0000
0010
0001
1000
,
0001
0000
0100
0000
0010
0000
1000
0010
0100
0000
0001
0000
1000
0000
0000
0000
,
0001
0000
1000
0000
0100
0000
0010
0001
0010
0000
0001
0000
1000
0000
0000
0000
,
0001
0100
1000
0100
0001
0010
1000
0010
,
0002
0000
0000
0000
1003
0000
0100
0010
0002
0000
0000
0000
1003
0000
0000
0000
,
0001
0000
0100
0000
0010
1000
0010
1000
0000
0001
1000
0000
0001
0000
0000
0000
,
1000
0000
0100
0000
0010
0001
0010
0001
0000
1000
0001
0000
1000
0000
0000
0000
,
0001
0000
0100
0000
0010
1000
0001
0000
1000
0001
0010
0000
0100
0000
1000
0000
,
0002
0000
0000
0000
0103
0000
0001
0010
0200
0000
0000
0000
1300
0000
0000
0000
,
0001
0000
0100
0000
0001
0100
0010
1000
0000
0000
0100
0000
1000
0000
0010
0000
,
0100
0000
0000
0101
0000
0000
1001
0000
0000
0000
1000
0010
1000
0000
0001
0010
,
0001
0000
1000
0000
0010
0000
0110
0000
0000
0000
0100
0001
1000
0000
0100
0000
,
0002
0000
0000
0000
0003
0000
0100
1000
0002
0000
0000
0000
0003
0000
0000
0000
,
1000
0000
0010
0000
0100
0001
0100
0001
0000
0010
0001
0000
1000
0000
0100
0000
,
0010
0000
0001
0000
1000
0010
1000
0010
0000
0100
0001
0000
0010
0000
0001
0000
,
1000
0000
0100
0000
0010
0001
0010
0000
0001
1000
0001
0000
1000
0010
1000
0000
,
0020
0000
0130
0001
1001
0000
1000
0010
,
0100
0000
1000
0000
0001
0000
0010
0000
1000
0000
0000
0001
0000
0000
0010
0000
,
1000
0010
0001
1000
0100
0001
1000
0010
,
0001
0000
0000
0000
0100
0000
0220
0000
0000
0000
0000
0000
0330
0000
0010
1000
,
0200
0000
0000
0000
0300
0000
0010
0001
0200
0000
0000
0000
0300
0000
0010
1000
,
0200
0000
0000
0000
,
0000
0000
0000
0300
,
1000
0100
0010
0001
1000
0100
0010
0001
,
0000
0001
1000
0000
0010
0100
0010
0000
,
0000
1001
0000
0000
,
0000
0000
0000
0000
;
#NOTES:
     dance-double:
     :
     Easy:
     4:
     :
00000000
00000000
00000000
00000000
,
00000000
00000000
00000000
00000000
,
00000000
00000000
00000000
00000000
,
00000000
00000000
00000000
00000000
,
00000000
00000000
00000000
00000000
,
00001000
00000000
00010000
00000000
,
00001000
00000000
00010000
00000000
,
00001000
00000000
01000000
00000000
,
00010000
00000000
10000000
00000000
,
02000000
00000000
00000000
03000000
,
00200000
00000000
00000000
00300000
,
00002000
00000000
00000000
00003000
,
00020000
00000000
00000000
00030000
,
00001000
00010000
00000100
00000000
,
00001000
00000010
00001000
00000000
,
00000001
00000100
00000001
00000000
,
00001000
00000010
00010000
00000000
,
00001000
00000000
00100000
00000000
,
00010000
01000000
00010000
00000000
,
01000000
00000000
00100000
00000000
,
01100000
00000000
00000000
00000000
,
10000000
00000000
00010000
00000000
,
01000000
00010000
01000000
00000000
,
00001000
00000000
00010000
00000000
,
00011000
00000000
00000000
00000000
,
00001000
00010000
00001000
00000000
,
00100000
00000000
00001000
00000000
,
00010000
00001000
00010000
00000000
,
00000010
00000000
00010000
00000000
,
00001000
00010000
00001000
00000000
,
01000000
00000000
00001000
00000000
,
00010000
00001000
00010000
00000000
,
00000100
00000000
00010000
00000000
,
00001000
00010000
00000100
00000000
,
00001000
00000100
00000010
00000000
,
00000001
00001000
00000001
00000000
,
00000100
00000000
00000010
00000000
,
00020000
00000000
00000000
00030000
,
00002000
00000000
00000000
00003000
,
00010000
00000000
00001000
00000000
,
01000000
00010000
00100000
00000000
,
01100000
00000000
00000000
00000000
,
10010000
00000000
00000000
00000000
,
10000000
01000000
00010000
00000000
,
00002000
00000000
00000000
00003000
,
00010000
00000000
00000100
00000000
,
00001000
00000000
00000010
00000000
,
00000110
00000000
00000000
00000000
,
00001001
00000000
00000000
00000000
,
00000001
00000100
00000010
00000000
,
00010000
00000000
00001000
00000000
,
00100000
00010000
10000000
00000000
,
10010000
00000000
00000000
00000000
,
10000000
00010000
01000000
00000000
,
00001000
00000000
00010000
00000000
,
00000010
00001000
00000001
00000000
,
00001001
00000000
00000000
00000000
,
00000001
00000000
00000000
00000000
,
00000100
00000000
00000000
00000000
,
00001000
00000000
00000000
00000000
,
00010000
00000000
00000000
00000000
,
00000000
00011000
00000000
00000000
,
00000000
00000000
00000000
00000000
;
#NOTES:
     dance-double:
     :
     Medium:
     10:
     :
00000000
00000000
00000000
00000000
,
00000000
00000000
00000000
00000000
,
00000000
00000000
00000000
00000000
,
00000000
00000000
00000000
00000000
,
00000000
00000000
00000000
00000000
,
00000000
00000000
00001000
00010000
00001000
00000000
00000000
00011000
,
00000000
00001000
00100000
00001000
00000000
00100000
00000000
00010000
,
00000000
10000000
00010000
00000000
00000000
00000000
00000000
10000000
,
00000000
00010000
10000000
00000000
00000000
00000000
00000000
00000000
,
00020000
00000000
00230000
00000000
,
00302000
00000000
00023000
00000000
,
00030200
00000000
00002300
00000000
,
00003020
00000000
00000230
00000000
,
00000301
00000000
00001000
00000010
00001000
00000000
00000000
00001001
,
00000000
00001000
00000000
00000100
00000000
00010000
00000000
00001000
,
00000000
00010000
00001000
00000000
00000000
00000000
00000000
00011000
,
00000000
00001000
00010000
00100000
,
10000000
00100000
01000000
01000000
,
00010000
00100000
01000000
01000000
,
00010000
00001000
00010000
00010000
,
00001000
00000010
00000001
00000000
,
00000001
00000000
00000100
00000000
00000010
00000100
00000010
00000000
,
00000100
00000000
00001000
00000000
00010000
00001000
00010000
00000000
,
00001000
00000000
00010000
00000000
00100000
01000000
00100000
00000000
,
10000000
01000000
00010000
01000000
,
10000000
00000000
00010000
00000000
00100000
00000000
01000000
00100000
,
00010000
00100000
00001000
00000000
,
00010000
00000000
00001000
00000000
00010000
00000000
00000100
00001000
,
00000010
00001000
00000001
00000000
,
00001000
00000000
00000010
00000000
00000100
00000000
00000010
00001000
,
00000001
00000100
00001000
00010000
,
00100000
00000000
01000000
00000000
00100000
00000000
10000000
00010000
,
00100000
01000000
10000000
00000000
,
00010000
00000000
00000000
00000000
10000000
01000000
00010000
00000000
,
00001000
00000000
00000000
00000000
00010000
00001000
00000010
00000000
,
00000001
00000000
00000000
00000000
00000001
00000100
00001000
00000000
,
00010000
00000000
00000000
00000000
00001000
00010000
00100000
00000000
,
10000000
00000000
00000000
01000000
00100000
00000000
00010000
00000000
,
00100000
00000000
00000000
00001000
00010000
00000000
00001000
00000000
,
00000010
00000000
00000001
00000100
00000000
00000010
00001000
00000000
,
00000002
00000000
00000003
00000100
00002000
00000000
00003000
00000000
,
00010000
00001000
00100000
00010000
01000000
00010000
00100000
00000000
,
01000000
10000000
00010000
01000000
00100000
01000000
00010000
00000000
,
00100000
00001000
00010000
00000000
00001000
00010000
00000100
00000000
,
00000010
00000000
00000001
00001000
00000002
00000000
00000003
00000000
,
00000001
00000100
00000010
00000000
00001000
00000100
00010000
00001000
,
00100000
00000000
00000000
00010000
00000000
00000000
10000000
00000000
00000000
00000000
00000000
00000000
00000000
00000000
00000000
00000000
,
10010000
20000000
30200000
00320000
,
00032000
00000000
00003100
00000001
00002000
00000000
00003000
00000000
,
00000001
00000100
00000001
00000100
00001000
00000100
00001000
00000000
,
00010000
00001000
00010000
00001000
00010000
00100000
00010000
00000000
,
00100000
10000000
01000000
00000000
00100000
00010000
01000000
00000000
,
01100000
00000000
00100000
10000000
00020000
00000000
00030000
00000000
,
10000000
00000000
01000000
00000000
00010000
00000000
00000000
00000000
00001000
00000000
00000000
00000010
00000000
00000000
00000001
00000000
,
00000100
00000010
00001000
00000100
,
00020000
00000000
00031000
00200000
00000000
00000000
00000000
00310000
,
02000000
00000000
00000000
03100000
20000000
00000000
00000000
30010000
,
00200000
00000000
00000000
00000000
,
00000000
00000000
00000000
00300000
,
00010000
00000000
00100000
00000000
00001000
00000000
00010000
00000010
,
00000000
00001000
00000010
00000000
00000100
00000000
00000010
00000000
,
00000000
00001001
00000000
00000000
,
00000000
00000000
00000000
00000000
;
#NOTES:
     dance-double:
     :
     Hard:
     13:
     :
00000000
00000000
00000000
00000000
,
00000000
00000000
00000000
00000000
,
00000000
00000000
00000000
00000000
,
00000000
00000000
00000000
00000000
,
00000000
00000000
00000000
00000000
,
00000000
00000000
00001000
00010000
00100000
10000000
00000000
10010000
,
00000000
10000000
01000000
00100000
00000000
00100000
00001000
00010000
,
00000000
00001000
00010000
00000000
00001000
00010000
00000010
00001000
,
00000000
00000010
00000100
00000000
00000110
00000000
00001001
00000000
,
00000002
00000203
00000320
00002030
,
00023000
02030000
03200000
20300000
,
31000000
00100000
00010000
00000000
00100000
00001000
00010000
00001000
,
00000000
00001000
00010000
00000100
00000000
00001000
00000010
00000000
,
00000200
00000302
00002003
00003020
,
00020030
00032000
02003000
03020000
,
10030000
00100000
01000000
00000000
00100000
10000000
01000000
00010000
,
00000000
00010000
00001000
00000010
00000000
00000001
00001000
00000000
,
00000001
00000100
00000010
00001000
00000100
00000001
00000100
00000000
,
00001000
00000010
00000100
00001000
00010000
00001000
00010000
00000000
,
00001000
01000000
00010000
01000000
10000000
01000000
00010000
00000000
,
10000000
01000000
00100000
00001000
00010000
00000000
00011000
00000000
,
00001000
00010000
00001000
00000010
00000100
00000010
00000001
00000000
,
00000100
00000010
00001000
00000010
00010000
00001000
00010000
00000000
,
01000000
10000000
00010000
00100000
01000000
10000000
00010000
00000000
,
00110000
00101000
00011000
00010100
,
00000100
00000000
00001000
00000000
00000010
00000000
00000100
00000001
00000000
00000000
00000010
00000000
00000100
00000000
00000010
00000000
,
00000001
00000000
00000100
00000000
00001000
00000000
00010000
00001000
00000000
00000000
00010000
00000000
00100000
00000000
10000000
00000000
,
00010000
00000000
00100000
00000000
10000000
00000000
00100000
00010000
00000000
00000000
10000000
00000000
01000000
00000000
00100000
00000000
,
00001000
00000000
00010000
00000000
00000100
00000000
00000010
00000100
00000000
00000000
00001000
00000000
00000001
00000000
00000000
00000000
,
00001000
00000000
00000001
00000000
00000100
00000000
00000010
00001000
00000000
00000000
00000100
00000000
00001000
00000000
00000010
00000000
,
00000100
00000000
00001000
00000000
00010000
00000000
00100000
01000000
00000000
00000000
00100000
00000000
10000000
00000000
01000000
00000000
,
00010000
00000000
00001000
00000000
00000010
00000000
00000100
00001000
00000000
00000000
00000010
00000000
00000100
00000000
00000001
00000000
,
00000100
00000000
00001000
00000000
00010000
00000000
00100000
10000000
00000000
00000000
00010000
00000000
01000000
00000000
00000000
00000000
,
00020000
00000000
00000000
00000000
10030000
00000000
01000000
00000000
00010000
00000000
00001000
00000010
00001000
00000000
00000010
00000000
,
00000002
00000000
00000000
00000000
00000103
00000000
00001000
00000000
00010000
00000000
00100000
00010000
00100000
00000000
10000000
00000000
,
00020000
00000000
00000000
00000000
10030000
00000000
00100000
00000000
00010000
00000000
00001000
00000100
00001000
00000000
00000100
00000000
,
00000001
00000010
00000110
00000000
00000100
00010000
00011000
00000000
,
00001000
00000000
00010000
00000000
01000000
00000000
00100000
00010000
00000000
00100000
01000000
00000000
10000000
00000000
00010000
00000000
,
01000000
00000000
00100000
00000000
00010000
00000000
00001000
00010000
00000000
00000100
00010000
00000000
00000100
00000000
00001000
00000000
,
00000010
00000000
00000100
00000001
00000000
00000001
00000010
00000100
,
00020000
00000000
00000000
00000000
00030000
00000000
00001000
00010000
00002000
00000000
00000000
00000000
00003000
00000000
00000000
00000000
,
00010000
00000000
00001000
00000000
01000000
00010000
01000000
00010000
00000000
00100000
00010000
00000000
10000000
00000000
01000000
00000000
,
00100000
00000000
00010000
00000000
01000000
00100000
01000000
00100000
00000000
00010000
00100000
00000000
00010000
00000000
00001000
00000000
,
00010000
00000010
00000100
00001000
00010000
00001000
00000010
00000100
,
00002000
00000000
00000000
00000000
00003001
00000000
00000100
00000010
00002000
00000000
00000000
00000000
00003000
00000000
00000000
00000000
,
00001000
00000000
00000100
00000000
00010000
00001000
00010000
00001000
00000000
00000000
00100000
00000000
00010000
00000000
01000000
00000000
,
00100000
00000000
00000000
10100000
00000000
00000000
10010000
00000000
00000000
00000000
10000000
00100000
01000000
00000000
00010000
00000000
,
00100000
00000000
00001000
00000000
00010000
00000000
00011000
00000000
00000000
00000000
00001000
00010000
00001000
00000000
00000010
00000000
,
00000002
00000000
00000000
00000000
00000003
00000000
00001000
00000100
00000020
00000000
00000000
00000000
00000030
00000000
00000000
00000000
,
00000001
00000000
00000100
00000000
00000001
00000010
00000001
00000010
00000000
00000100
00001000
00000000
00000100
00000000
00010000
00000000
,
00001000
00000000
01000000
00000000
00010000
01000000
00010000
01000000
00000000
00100000
10000000
00000000
00010000
00000000
10000000
00000000
,
01000000
00000000
00100000
00000000
00010000
00100000
00001000
00000000
00010000
00001000
00010000
00000000
00001000
00010000
00000100
00000000
,
00002000
00000000
00003010
00000100
00000110
00000000
00001001
00000000
,
00000001
00000000
00000010
00000000
00001000
00000000
00010000
00000000
01000000
00000000
00000000
10000000
00000000
00000000
00010000
00000000
,
01000000
00100000
00010000
00100000
00010000
00001000
00010000
00001000
,
00000100
00000000
00000000
00000000
00000010
00000000
00000220
00000000
00000000
00000000
00000000
00000000
00000330
00000000
00000010
00001000
,
00000002
00000000
00000000
00000000
00000003
00000000
00001000
00000100
00020000
00000000
00000000
00000000
00030000
00000000
00001000
00010000
,
00002000
00000000
00000000
00000000
,
00000000
00000000
00000000
00003000
,
00001000
00010000
00100000
01000000
00010000
00100000
01000000
10000000
,
00000000
10000000
01000000
00000000
00010000
00001000
00010000
00000000
,
00000000
00011000
00000000
00000000
,
00000000
00000000
00000000
00000000
;
