
//----- song ID: blim -----//
#TITLE:Bloody Iron Maiden;
#ARTIST:BEMANI Sound Team "Loz";
#BANNER:Bloody Iron Maiden.png;
#BACKGROUND:Bloody Iron Maiden-bg.png;
#CDTITLE:./CDTitles/GITADORA FUZZ-UP.png;
#MUSIC:Bloody Iron Maiden.ogg;
#SAMPLESTART:69.54;
#SAMPLELENGTH:15;
#BPMS:0=195;
#NOTES:
     dance-single:
     :
     Beginner:
     3:
     :
0000
0000
0000
0000
,
0000
0000
0000
0000
,
0000
0000
0000
0000
,
0001
0000
0000
0000
,
0001
0000
0000
0000
,
0010
0000
0000
0000
,
0000
0000
0000
0000
,
0010
0000
0000
0000
,
0010
0000
0000
0000
,
1000
0000
0000
0000
,
0000
0000
0000
0000
,
1001
0000
0000
0000
,
0000
0000
0000
0000
,
1001
0000
0000
0000
,
0000
0000
0000
0000
,
1000
0000
0000
0000
,
1000
0000
0000
0000
,
0010
0000
0000
0000
,
0000
0000
0000
0000
,
0010
0000
0000
0000
,
0010
0000
0000
0000
,
0001
0000
0000
0000
,
0000
0000
0000
0000
,
0001
0000
0000
0000
,
0010
0000
0000
0000
,
0010
0000
0000
0000
,
0000
0000
0000
0000
,
0010
0000
0000
0000
,
1000
0000
0000
0000
,
1000
0000
0000
0000
,
0000
0000
0000
0000
,
1001
0000
0000
0000
,
0000
0000
0000
0000
,
1001
0000
0000
0000
,
0000
0000
0000
0000
,
1001
0000
0000
0000
,
0000
0000
0000
0000
,
1001
0000
0000
0000
,
0000
0000
0000
0000
,
1000
0000
0000
0000
,
0000
0000
0000
0000
,
0100
0000
0000
0000
,
0000
0000
0000
0000
,
0010
0000
0000
0000
,
0000
0000
0000
0000
,
0001
0000
0000
0000
,
0000
0000
0000
0000
,
0001
0000
0001
0000
,
0010
0000
0000
0000
,
0010
0000
0000
0000
,
0000
0000
0000
0000
,
0010
0000
0010
0000
,
1000
0000
0000
0000
,
1000
0000
0000
0000
,
0000
0000
0000
0000
,
1001
0000
0000
0000
,
0000
0000
0000
0000
,
1000
0000
0000
0000
,
0010
0000
0000
0000
,
1000
0000
1000
0000
,
0010
0000
0000
0000
,
0010
0000
0000
0000
,
0001
0000
0000
0000
,
0010
0000
0010
0000
,
0001
0000
0000
0000
,
0001
0000
0000
0000
,
0010
0000
0000
0000
,
0001
0000
0001
0000
,
0010
0000
0000
0000
,
0010
0000
0000
0000
,
1000
0000
0000
0000
,
0010
0000
0010
0000
,
1000
0000
0000
0000
,
1000
0000
0000
0000
,
0100
0000
0000
0000
,
0010
0000
0000
0000
,
0000
0000
0000
0000
,
1001
0000
0000
0000
,
0000
0000
0000
0000
,
1001
0000
0000
0000
,
0000
0000
0000
0000
,
1001
0000
0000
0000
,
0000
0000
0000
0000
,
1001
0000
0000
0000
,
0000
0000
0000
0000
,
0001
0000
0000
0000
,
0010
0000
0000
0000
,
1000
0000
0000
0000
,
0000
0000
0000
0000
,
1000
0000
0000
0000
,
0010
0000
0000
0000
,
0001
0000
0000
0000
,
0000
0000
0000
0000
,
1001
0000
0000
0000
,
0000
0000
0000
0000
;
#NOTES:
     dance-single:
     :
     Easy:
     8:
     :
0000
0000
0000
0000
,
0000
0000
0000
0000
,
0000
0000
0000
0000
,
0000
1001
1000
0001
,
1000
0000
0100
0000
0010
0000
0001
1000
,
0000
1001
0001
1000
,
0001
0000
0100
0000
0010
1000
0000
0001
,
0000
1001
1000
0001
,
1000
0000
0010
0000
0100
0000
0001
1000
,
0000
1001
0001
1000
,
0001
0000
0010
0000
0100
0000
0000
1001
,
0000
1001
1000
0000
,
1001
0000
0000
0001
0000
1000
0000
0001
,
0000
1001
1000
0000
,
0001
0000
0010
0000
0000
0100
0000
0100
,
0000
1000
0001
0100
,
0010
0000
0010
0000
1000
0000
0000
0010
,
0000
1000
0001
0100
,
0010
0000
0010
0000
0100
0000
0000
0100
,
0000
0001
0010
0001
,
1000
0000
1000
0000
0100
0000
0000
1000
,
0000
0001
0100
0010
,
1000
0000
1000
0000
0001
0000
0000
0001
,
0000
1000
0100
1000
,
0100
0000
0010
0000
0001
0000
0000
1000
,
0000
0001
0100
0001
,
0100
0000
0010
0000
1000
0000
0000
0001
,
0000
1000
0010
0001
,
0010
0000
1000
0000
0001
0000
0000
1001
,
0000
0001
0010
1000
,
0010
0000
0001
0000
1000
0000
0000
1001
,
0000
0000
0001
0000
,
0110
0000
0000
0000
1001
0000
0000
1001
,
0000
0000
1000
0000
,
0110
0000
0000
0000
1001
0000
0000
1001
,
0000
0000
0001
0010
,
0100
0000
0000
0000
1000
0000
0000
1001
,
0000
0000
1000
0010
,
0100
0000
0001
0000
,
1000
0000
0000
0000
,
0000
0000
0000
0000
,
0100
0000
0000
0000
,
0000
0000
0000
0000
,
0010
0000
0000
0000
,
0000
0000
0000
0000
,
0001
0000
0000
0000
,
0000
0000
0000
0000
,
1000
0001
1000
0000
,
0001
1000
0001
0000
,
0100
0010
0100
0000
,
0010
0100
0010
0000
,
1000
0100
0010
0001
,
0000
0001
1000
0000
,
0000
0001
0000
0000
0100
0000
0000
0010
,
0000
0000
1000
0000
0000
0001
0000
1000
,
0000
0000
0000
0000
,
0000
0000
0000
0000
,
0001
0010
0001
0100
,
0010
1000
0001
0000
,
1000
0010
1000
0100
,
0010
0001
1000
0000
,
0001
0100
1000
0000
,
1000
0100
0001
0000
,
1000
0100
0001
0000
,
0001
0100
1000
0000
,
0001
0010
0001
1000
,
0010
1000
0001
0000
,
1000
0100
1000
0001
,
0100
0001
1000
0000
,
0001
0010
1000
0000
,
1000
0010
0001
0000
,
0000
1000
0000
0000
0010
0000
0000
0100
,
0000
0000
0001
0000
0000
1000
0000
0001
,
0000
1000
0100
0010
,
0001
0100
0010
0000
,
0000
1000
0000
0000
0001
0000
0000
2000
,
0000
0000
3000
0000
,
1001
0000
0110
0000
,
1000
0001
1000
0000
,
0110
0000
1001
0000
,
0001
0010
0100
0000
,
0110
0000
1001
0000
,
1000
0100
0010
0000
,
0110
0000
1001
0000
,
0001
0100
0010
0000
,
2000
0000
0000
3000
,
1000
0001
1000
0000
,
0010
0100
0010
0000
,
1000
0001
1000
0000
,
0001
0100
0001
0100
,
0010
1000
0010
0000
,
1000
0100
1000
0100
,
0010
0001
0010
0010
,
0000
0000
0000
0000
;
#NOTES:
     dance-single:
     :
     Medium:
     12:
     :
0000
0000
0000
0000
,
0000
0000
0000
0000
,
0000
0000
0000
0000
0000
0000
0000
1001
,
0000
0001
1000
0000
0001
0010
0001
0000
,
1000
0100
1000
0000
0001
1000
0001
1000
,
0000
0010
0100
0000
0001
0100
0001
0000
,
1000
0010
1000
0000
0001
1000
0000
1001
,
0000
1000
0001
0000
1000
0010
1000
0000
,
0001
0100
0001
0000
1000
0001
1000
0001
,
0000
0010
0100
0000
1000
0100
1000
0000
,
0001
0000
0010
0000
0001
0000
0000
0000
1000
0000
0000
0001
0000
0000
1000
0000
,
0000
0000
0001
0000
1000
0100
0000
0000
,
1001
0000
0000
0101
0000
1100
0000
0101
,
0000
0000
1001
0000
0001
0010
0000
0000
,
0001
0100
0001
0100
0000
0010
1000
0010
,
0000
1000
0010
0000
1000
0100
1000
0000
,
0100
0000
0010
0000
0001
0100
0010
1000
,
0000
0001
0100
0000
0001
0010
0001
0000
,
1000
0000
0001
0100
0010
1000
0100
0010
,
0000
0001
0010
0000
0001
0000
0100
0000
,
0001
0100
0010
0000
1000
0100
0010
0001
,
0000
1000
0100
0000
1000
0000
0010
0000
,
0010
1000
0100
0000
0010
0001
0100
0010
,
0000
1000
0100
0010
0001
1000
0001
0000
,
0011
0000
1100
0000
1000
0001
1000
0001
,
0000
0001
0100
0000
0101
0000
0110
0000
,
1010
0000
0101
0000
0001
1000
0001
1000
,
0000
1000
0010
0100
0001
1000
0001
0000
,
0101
0000
1010
0000
1000
0001
1000
0001
,
0000
0001
0010
0000
1000
0010
0001
0000
,
1100
0000
0011
0000
0001
1000
0001
1000
,
0000
0001
0001
0000
0011
0000
0000
0000
,
1100
0000
0000
0000
1000
0001
1000
0001
,
0000
1000
0000
0000
1010
0000
0000
0000
,
0001
1000
0100
0000
0001
0000
0100
1000
,
0000
1000
1000
0000
1010
0000
0000
0000
,
0101
0000
0000
0000
0001
1000
0001
1000
,
0000
0001
0000
0000
0011
0000
0000
0000
,
1000
0000
0001
0000
0010
0000
0100
0000
1000
0000
0000
0001
0000
0000
1000
0000
,
0002
0000
0000
0000
,
0003
0000
0000
0000
,
2000
0000
0000
0000
,
3000
0000
0000
0000
,
0200
0000
0000
0000
,
0300
0000
0000
0000
,
0020
0000
0000
0000
,
0030
0000
0000
0000
,
0001
0000
1000
0010
0100
0010
1000
0001
,
0000
0000
0001
0000
0100
0000
0001
0000
0010
0000
0000
0100
0000
0000
1000
0000
,
0001
0100
0000
0010
0000
1000
0000
1001
,
0000
0001
1000
0001
0000
1001
0000
0000
,
1000
0000
1000
0100
0010
0100
0010
0000
,
0001
0010
0001
0000
1000
0001
1000
0000
,
0001
0100
0000
1000
0100
0000
0001
0010
,
0000
1000
0010
0000
0000
0001
1000
0001
,
0000
0000
0000
0000
,
0000
0000
0000
0000
1000
0000
0001
1000
,
0000
0010
0100
0000
0001
0000
1000
0001
,
0000
0010
0100
0000
1000
0001
0000
1001
,
0000
0001
0100
0001
1000
0100
1000
0002
,
0000
0000
1003
0000
0001
0010
0000
0110
,
0000
0100
1000
0010
0100
0001
0010
0100
,
0000
1000
0100
0010
0001
0100
0010
1000
,
0000
0001
0100
1000
0100
0001
0100
1000
,
0100
0001
1000
0100
0010
0001
0000
1001
,
0000
1000
0010
0000
1000
0000
0001
1000
,
0000
0100
0010
0000
0001
1000
0001
1000
,
0000
0010
0100
0000
0001
0010
0100
1000
,
0000
1100
0000
0110
0000
0011
0000
0110
,
0000
0010
0001
0100
0010
1000
0100
0010
,
0000
0001
0010
0100
1000
0010
0100
0001
,
0000
1000
0000
0010
0001
0000
0010
1000
,
0000
0010
0001
0000
0010
1000
0000
1001
,
0000
0001
0100
0001
0010
0001
0100
0010
,
0000
1000
0100
0010
0000
0001
0100
0010
,
0000
1000
0000
0010
0001
0000
0010
2000
,
0000
0000
0000
0000
3001
1000
0001
1000
,
0000
0100
1000
0000
0011
0000
0001
0100
,
0001
0000
0000
0000
1000
0010
1000
0001
,
0000
0010
0100
0000
0110
0000
1000
0001
,
0000
1000
0010
0001
0010
0100
0010
1000
,
0000
1001
0000
0000
1001
0000
0000
0000
,
0001
0010
0000
0100
1000
0001
0000
1000
,
0000
1001
0000
0001
0100
0010
0100
0001
,
0010
0100
0010
0000
0001
1000
0001
1000
,
0000
0000
0000
0000
0000
0000
0001
1000
,
0001
0000
0101
0000
0001
1000
0100
0010
,
0000
0000
0000
1001
0000
0000
0001
0010
0100
1000
0000
0000
,
0001
0100
0010
1000
0000
0000
0002
0000
0000
0000
0000
0000
,
0003
0001
0100
0000
0001
0010
0001
0000
,
1000
0100
1000
0000
0010
1000
0010
1000
,
0000
0010
0100
0000
0001
1000
0001
0000
,
0100
0010
1000
0000
0100
0010
0001
1000
,
0000
0000
0000
0000
;
#NOTES:
     dance-single:
     :
     Hard:
     15:
     :
0000
0000
0000
0000
,
0000
0000
0000
0000
,
0000
0000
0000
0000
0000
0000
0000
1001
,
0000
0001
0100
0010
0100
0010
1000
0001
,
0010
0100
0010
0001
1000
0100
0010
0001
,
0000
1000
0010
0100
0010
0100
0001
1000
,
0100
0010
0100
1000
0001
0010
0100
1000
,
0000
0000
0001
1000
0001
0000
0100
0000
1000
0000
0100
0000
0001
0000
1000
0000
,
0100
0010
0001
0100
0001
0010
0100
1000
,
0000
0000
1000
0001
1000
0000
0100
0000
0001
0000
0100
0000
1000
0000
0001
0000
,
0000
0000
0100
0010
1000
0000
0100
0010
0001
0000
0000
1000
0000
0000
0001
0000
,
0000
0000
1001
0000
0001
1100
0000
0000
,
1001
0000
1000
0101
0000
1010
0000
1001
,
0000
0000
1001
0000
0001
1010
0000
0000
,
1000
1000
0001
0002
0000
0100
0100
0103
,
0000
0001
1000
0010
0100
0001
0010
0100
,
1000
0000
0100
0000
0001
0000
0100
0000
1000
0000
0001
0100
0010
0100
0010
0000
,
0000
1000
0010
0001
0010
1000
0001
0100
,
0010
0000
1000
0000
0100
0000
1000
0000
0010
0000
0100
0000
0001
0100
0001
0000
,
0000
1000
0001
0100
0010
1000
0100
0010
,
0001
0000
0010
0000
1000
0000
0010
0000
0001
0000
1000
0010
0100
0010
0100
0000
,
0000
0001
0100
1000
0100
0001
1000
0010
,
0100
0000
0001
0000
0010
0000
0001
0000
0100
0000
0010
0000
1000
0010
1000
0000
,
0000
0001
0100
0010
1000
0100
0001
0100
,
1000
0000
0010
0000
0100
0000
0001
0000
1000
0100
1000
0000
0010
0100
0010
0000
,
0000
1000
0010
0100
0001
0010
1000
0010
,
0001
0000
0100
0000
0010
0000
1000
0000
0001
0010
0001
0000
0100
0010
0100
0000
,
0000
0001
0100
0010
0100
0001
0010
0100
,
1000
0001
0100
0000
0001
1000
0100
0000
0010
0000
0001
1000
0001
0000
1000
0000
,
0000
0001
0001
0000
0011
0000
1100
0000
,
1010
0000
0101
0000
0001
1000
0001
1001
,
0000
0000
1001
0000
0000
0000
1000
0100
0010
0000
0000
0000
0000
0000
0001
0100
,
0010
0000
0000
0000
0000
0000
1000
0001
1000
0000
0001
0000
1000
0000
0001
0000
,
0000
0000
1001
0000
0000
0000
0001
0010
0001
0000
0000
0000
0000
0000
1000
0010
,
1000
0001
0100
1000
0100
0001
1000
1001
,
0000
0000
1001
0000
0000
0000
0001
0010
0100
0000
0000
0000
0000
0000
1000
0010
,
0100
0000
0000
0000
0000
0000
0001
1000
0001
0000
1000
0000
0001
0000
1000
0000
,
0000
0000
1001
0000
0000
0000
1000
0100
1000
0000
0000
0000
0000
0000
0001
0100
,
0001
0000
1000
0000
0010
0000
0001
0000
0010
0000
0000
1000
0000
0000
0001
0000
,
2000
0000
0000
0000
,
0000
0000
0000
0000
,
3200
0000
0000
0000
0000
0000
0000
0000
0000
0000
0000
0000
0000
0000
0310
0001
,
0010
0000
0010
0100
0000
0100
1000
0000
,
0002
0000
0000
0000
0000
0000
0000
1003
,
0010
0000
0000
1000
0000
0000
0010
0000
0000
0000
0000
0000
1000
0000
0000
0001
0000
0000
1000
0000
0000
0000
0000
0000
0010
0000
0000
0000
0100
0000
0000
0000
0010
0000
0000
0000
0100
0000
0000
0000
0001
0000
0000
0000
0100
0000
0000
0000
,
0001
0000
1000
1100
0000
0001
0011
0000
,
1000
0000
1001
0000
0001
0000
0100
0000
0010
0000
1000
0000
0010
0000
1000
0001
,
1000
0000
0000
0000
0000
0000
1000
0100
1000
0000
0001
0000
0100
0000
0010
0000
,
0000
0000
0010
0000
1000
0001
1000
0000
0100
0000
0010
0001
0000
0100
0010
0000
,
1000
1010
0000
0101
0000
1010
0000
0101
,
0000
0000
0001
0100
0010
0000
1000
0000
0000
0000
1010
0000
0000
0000
0000
0000
,
1001
0000
1000
0100
0001
1000
0010
0001
,
0100
1000
0001
0010
1000
0100
0001
0100
,
1000
0101
0000
0001
1010
0000
1000
0011
,
0000
0001
1100
0000
0000
1001
1001
1001
,
0000
0000
0000
0000
,
0000
0000
0000
0000
1000
0100
0010
0001
,
0000
0010
0011
0000
0001
0100
0010
1000
,
0000
0010
1010
0000
1000
0001
0000
1001
,
0000
0001
0010
1000
0010
0001
0100
0110
,
0000
0000
0010
1000
0010
0000
0100
0001
0100
0000
0001
0000
0000
0000
1001
0000
,
0000
0000
1000
0100
0010
0000
0100
0010
0001
0000
0010
0001
1000
0000
0001
0000
,
0000
0000
0001
0100
0010
0000
0100
0010
1000
0000
0010
1000
0001
0000
1000
0000
,
0000
0000
0001
0100
0001
0000
1000
0100
1000
0000
0001
0100
0001
0000
1000
0000
,
0100
0000
0010
0000
0001
0010
0001
0000
1000
0000
0001
0000
0000
0000
1001
0000
,
0000
1000
1100
0000
1000
0010
0100
0001
,
0000
0000
0100
0000
0101
0000
0000
0000
0001
1000
0001
1000
0001
1000
0001
0000
,
0000
1000
0100
0001
0100
1000
0010
0110
,
0000
0101
0000
1010
0000
1100
0000
1001
,
0000
0001
0010
1000
0001
0100
1000
0001
,
0000
1000
0010
0001
1000
0100
0001
1000
,
0000
1010
0000
0001
0011
0000
1000
1100
,
0000
0001
0101
0000
0001
1000
0000
1001
,
0000
0000
1000
0010
1000
0000
0001
0010
0001
0000
1000
0000
0001
0000
1001
0000
,
0000
1000
0100
0110
0000
0001
0100
0110
,
0000
1001
0000
0001
0011
0000
1000
2200
,
0000
0000
0000
0000
3300
0000
1000
0100
0010
0000
0001
0000
0010
0000
0001
0000
,
0000
0001
1000
0010
1000
0100
1000
0010
,
1000
0000
0100
0000
0000
0000
0100
0010
0001
0000
1000
0000
0001
0000
1000
0000
,
0000
1000
0001
0100
0001
0010
0001
0100
,
0001
0000
0010
0000
0100
0000
0010
0000
0100
0000
1000
0000
0001
1000
0001
0000
,
0000
0000
1001
0000
0000
0000
1000
0000
0010
0000
0001
0000
0010
0000
1000
0100
,
1000
0000
0001
0000
0100
0000
1000
0100
1000
0000
0100
0000
0001
0000
1000
0000
,
0000
1001
0000
0001
0010
1000
0001
0100
,
1000
0010
0001
1000
0100
0001
1000
1001
,
0000
0000
0000
0000
0000
0000
1000
0100
,
0010
0000
0000
0001
0000
0000
0000
0000
0000
0010
0000
0000
0001
0000
0000
0000
1000
0000
0000
0000
0001
0000
0000
0000
0010
0000
0000
0100
0000
0000
0010
0000
0000
0000
0000
0000
0100
0000
0000
0000
0000
0000
1000
0000
0000
0000
0000
0000
,
0000
0000
0001
0000
1000
0000
0001
0000
0000
0100
0000
0000
0010
0000
1000
0000
0100
0000
0010
0000
0001
0000
0100
0000
,
0010
0000
1000
0000
0010
0000
0100
0000
0001
0000
1000
0000
0001
0000
0000
0000
0000
0000
1000
0000
0000
0001
0000
0000
,
0000
0000
0010
0100
0010
0000
0001
0000
0100
0010
0100
0000
0001
0000
1000
0000
,
0100
0010
0100
0000
1000
0000
0010
0100
0010
0000
1000
0000
0000
0000
1001
0000
,
0000
1000
1000
1000
0100
0100
0100
0100
,
0010
0000
0010
0000
0001
0010
0001
0000
1000
0000
1000
0000
0001
0000
1001
0000
,
0000
0000
0000
0000
;
#NOTES:
     dance-double:
     :
     Easy:
     8:
     :
00000000
00000000
00000000
00000000
,
00000000
00000000
00000000
00000000
,
00000000
00000000
00000000
00000000
,
00000000
00011000
00001000
00010000
,
00001000
00000000
00100000
00000000
00010000
00000000
00100000
01000000
,
00000000
01100000
01000000
10000000
,
00010000
00000000
01000000
00000000
00100000
10000000
00000000
00100000
,
00000000
10010000
10000000
00010000
,
01000000
00000000
00010000
00000000
00100000
00000000
00001000
00010000
,
00000000
00011000
00001000
00010000
,
00000100
00000000
00001000
00000000
00000100
00000000
00000000
00001001
,
00000000
00000001
00000010
00000000
,
00000100
00000000
00000000
00001000
00000000
00000100
00000000
00010000
,
00000000
00001000
00010000
00000000
,
00001000
00000000
00010000
00000000
00000000
00100000
00000000
00100000
,
00000000
10000000
00100000
01000000
,
00010000
00000000
00010000
00000000
10000000
00000000
00000000
01000000
,
00000000
10000000
01000000
00100000
,
00001000
00000000
00001000
00000000
00010000
00000000
00000000
00010000
,
00000000
00001000
00010000
00000010
,
00001000
00000000
00001000
00000000
00000010
00000000
00000000
00000100
,
00000000
00000001
00000010
00000100
,
00001000
00000000
00001000
00000000
00000001
00000000
00000000
00000001
,
00000000
00000100
00000001
00001000
,
00000100
00000000
00001000
00000000
00000100
00000000
00000000
00010000
,
00000000
00001000
00010000
00001000
,
01000000
00000000
00010000
00000000
01000000
00000000
00000000
00100000
,
00000000
01000000
00010000
10000000
,
01000000
00000000
00100000
00000000
01000000
00000000
00000000
01100000
,
00000000
00100000
00010000
00100000
,
00001000
00000000
00010000
00000000
00001000
00000000
00000000
00011000
,
00000000
00000000
00010000
00000000
,
00001000
00000000
00000010
00000000
00000001
00000000
00000000
00001000
,
00000000
00000000
00000001
00000000
,
00001000
00000000
00000100
00000000
00010000
00000000
00000000
00011000
,
00000000
00000000
00001000
00000000
,
00010000
00000000
00001000
00000000
01000000
00000000
00000000
00010000
,
00000000
00000000
00100000
00000000
,
01000000
10000000
00010000
00000000
,
10000000
00000000
00000000
00000000
,
00000000
00000000
00000000
00000000
,
01000000
00000000
00000000
00000000
,
00000000
00000000
00000000
00000000
,
00100000
00000000
00000000
00000000
,
00000000
00000000
00000000
00000000
,
00001000
00000000
00000000
00000000
,
00000000
00000000
00000000
00000000
,
00010000
00000000
00011000
00000000
,
00001000
00010000
00001000
00000000
,
00010000
00000000
00001000
00000000
,
00000010
00000001
00001000
00000000
,
00000001
00000000
00000100
00000010
,
00000000
00000010
00010000
00000000
,
00000000
00001000
00000000
00000000
00010000
00000000
00000000
00001000
,
00000000
00000000
00100000
00000000
00000000
00010000
00000000
00100000
,
00000000
00000000
00000000
00000000
,
00000000
00000000
00000000
00000000
,
00010000
10000000
00010000
00000000
,
10000000
01000000
00100000
00000000
,
00010000
00100000
00001000
00000000
,
00010000
00001000
00010000
00000000
,
00001000
00010000
00000100
00000000
,
00000010
00000001
00000100
00000000
,
00000001
00000100
00001000
00000000
,
00000100
00001000
00010000
00000000
,
00100000
01000000
00100000
00000000
,
10000000
00010000
10000000
00000000
,
01000000
00100000
00010000
00100000
,
00001000
00010000
00001000
00000000
,
00010000
00000010
00001000
00000000
,
00000001
00000010
00000100
00000000
,
00000000
00010000
00000000
00000000
00001000
00000000
00000000
00010000
,
00000000
00000000
00001000
00000000
00000000
01000000
00000000
00010000
,
00000000
10000000
00100000
01000000
,
00010000
00100000
01000000
00000000
,
00000000
00010000
00000000
00000000
00001000
00000000
00000000
00020000
,
00000000
00000000
00030000
00000000
,
00010000
00000000
00011000
00000000
,
00001000
00000010
00000001
00000000
,
00001001
00000000
00001001
00000000
,
00001000
00000100
00010000
00000000
,
00011000
00000000
00011000
00000000
,
00001000
00010000
00100000
00000000
,
01100000
00000000
10010000
00000000
,
00010000
01000000
00100000
00000000
,
20000000
00000000
00000000
30000000
,
10000000
01000000
00100000
00000000
,
00001000
00010000
00000100
00000000
,
00001000
00000100
00000010
00000000
,
00000001
00000100
00000001
00000010
,
00000100
00001000
00000100
00000000
,
00010000
00000100
00010000
00001000
,
00100000
00010000
01000000
01000000
,
00000000
00000000
00000000
00000000
;
#NOTES:
     dance-double:
     :
     Medium:
     12:
     :
00000000
00000000
00000000
00000000
,
00000000
00000000
00000000
00000000
,
00000000
00000000
00000000
00000000
00000000
00000000
00000000
00011000
,
00000000
00001000
00010000
00000000
00001000
01000000
00001000
00000000
,
01000000
00010000
01000000
00000000
00100000
01000000
00100000
01000000
,
00000000
00010000
10000000
00000000
01000000
00100000
01000000
00000000
,
00100000
00010000
00100000
00000000
00001000
00010000
00000000
00011000
,
00000000
00010000
00001000
00000000
00010000
00000100
00010000
00000000
,
00000100
00001000
00000100
00000000
00000010
00000100
00000010
00000100
,
00000000
00001000
00000001
00000000
00000100
00000010
00000100
00000000
,
00000010
00000000
00001000
00000000
00000010
00000000
00000000
00000000
00010000
00000000
00000000
00001000
00000000
00000000
00010000
00000000
,
00000000
00000000
00001000
00000000
00010000
01000000
00000000
00000000
,
10010000
00000000
00000000
01100000
00000000
10010000
00000000
01100000
,
00000000
00000000
10010000
00000000
10000000
01000000
00000000
00000000
,
00010000
00001000
00010000
00001000
00000000
00000010
00000001
00000010
,
00000000
00000001
00001000
00000000
00000001
00000100
00000010
00000000
,
00001000
00000000
00000010
00000000
00000100
00000010
00010000
00000010
,
00000000
00010000
00001000
00000000
00100000
00001000
00100000
00000000
,
00010000
00000000
01000000
00100000
10000000
01000000
00100000
00010000
,
00000000
10000000
00010000
00000000
10000000
01000000
00100000
00000000
,
00010000
00000000
00100000
00000000
01000000
00100000
00001000
00100000
,
00000000
00001000
00010000
00000000
00000010
00010000
00000010
00000000
,
00001000
00000000
00000100
00000000
00000010
00000001
00000100
00000010
,
00000000
00001000
00000001
00000010
00000001
00000100
00000010
00000000
,
00010010
00000000
00011000
00000000
00001000
01000000
00010000
01000000
,
00000000
00100000
10000000
00000000
11000000
00000000
01100000
00000000
,
00101000
00000000
00110000
00000000
00010000
01000000
00100000
10000000
,
00000000
00010000
10000000
00100000
10000000
01000000
00100000
00000000
,
00101000
00000000
00011000
00000000
00010000
00000100
00001000
00000100
,
00000000
00000010
00000001
00000000
00000101
00000000
00000110
00000000
,
00010010
00000000
00001010
00000000
00001000
00000100
00000010
00000001
,
00000000
00001000
00000100
00000000
00010100
00000000
00000000
00000000
,
00011000
00000000
00000000
00000000
00001000
01000000
00010000
00100000
,
00000000
01000000
00000000
00000000
01100000
00000000
00000000
00000000
,
00100000
01000000
10000000
00000000
00010000
00000000
01000000
00100000
,
00000000
10000000
01000000
00000000
01100000
00000000
00000000
00000000
,
00101000
00000000
00000000
00000000
00001000
00100000
00001000
00010000
,
00000000
00000100
00000000
00000000
00001100
00000000
00000000
00000000
,
00001000
00000000
00000100
00000000
00000010
00000000
00000001
00000000
00000100
00000000
00000000
00000010
00000000
00000000
00000100
00000000
,
00000020
00000000
00000000
00000000
,
00000030
00000000
00000000
00000000
,
00020000
00000000
00000000
00000000
,
00030000
00000000
00000000
00000000
,
00002000
00000000
00000000
00000000
,
00003000
00000000
00000000
00000000
,
02000000
00000000
00000000
00000000
,
03000000
00000000
00000000
00000000
,
10010000
00000000
10000000
00100000
10000000
00100000
01000000
00010000
,
00000000
00000000
00010000
00000000
00100000
00000000
00001000
00000000
00010000
00000000
00000000
00001000
00000000
00000000
00010000
00000000
,
00000100
00001000
00000000
00000100
00000000
00000010
00000000
00000110
,
00000000
00000001
00001000
00000001
00000000
00001001
00000000
00000000
,
00000001
00000000
00000100
00000010
00000100
00000010
00001000
00000000
,
00000010
00010000
00000010
00000000
00010000
00001000
00010000
00000000
,
00001000
01000000
00000000
00010000
01000000
00000000
00100000
01000000
,
00000000
10000000
01000000
00000000
00000000
00010000
10000000
00010000
,
00000000
00000000
00000000
00000000
,
00000000
00000000
00000000
00000000
10000000
00000000
00010000
10000000
,
00000000
01000000
00100000
00000000
00010000
00000000
00100000
00001000
,
00000000
00010000
00001000
00000000
00010000
00000100
00000000
00001100
,
00000000
00001000
00000100
00001000
00000001
00000100
00000001
00002000
,
00000000
00000000
00003001
00000000
00001000
00000100
00000000
00000110
,
00000000
00000010
00000001
00000100
00000010
00001000
00000100
00010000
,
00000000
00001000
00100000
00010000
01000000
00100000
10000000
01000000
,
00000000
00010000
01000000
00010000
00001000
00010000
01000000
00010000
,
00001000
00000000
00000010
00000000
00000001
00001000
00000000
00001001
,
00000000
00000001
00000100
00000000
00000010
00000000
00001000
00000100
,
00000000
00000010
00000100
00000000
00001000
00000100
00010000
00001000
,
00000000
00100000
00010000
00000000
00100000
01000000
10000000
00010000
,
00000000
01010000
00000000
01001000
00000000
00011000
00000000
00010010
,
00000000
00000010
00001000
00000100
00000010
00000001
00000100
00000010
,
00000000
00001000
00000100
00010000
00001000
01000000
00010000
10000000
,
00000000
01000000
00000000
00010000
00001000
00000000
00000010
00001000
,
00000000
00010000
00001000
00000000
00000010
00000001
00000000
00001001
,
00000000
00001000
00000100
00000010
00000100
00010000
00001000
00010000
,
00000000
00001000
01000000
00100000
00000000
01000000
00001000
00010000
,
00000000
01000000
00000000
10000000
00100000
00000000
01000000
00020000
,
00000000
00000000
00000000
00000000
10030000
00010000
10000000
00010000
,
00000000
10000000
01000000
00000000
01100000
00000000
00100000
00010000
,
00100000
00000000
00000000
00000000
00010000
00100000
00000000
00001000
,
00000000
00010000
00000000
00000000
00010010
00000000
00000010
00001000
,
00000000
00000010
00000100
00000000
00001000
00000000
00000100
00000010
,
00000000
00000110
00000000
00000000
00001001
00000000
00000000
00000000
,
00000001
00000100
00000000
00001000
00010000
00100000
00000000
10000000
,
00000000
10010000
00000000
00010000
00100000
01000000
00010000
00000000
,
00001000
00000010
00000100
00000000
00001000
00000000
00000010
00000100
,
00000000
00000000
00000000
00000000
00000000
00000000
00000001
00001000
,
00000001
00000000
00000010
00000000
00001000
00010000
01000000
10000000
,
00000000
00000000
00000000
00010000
00000000
00000000
10000000
01000000
10000000
01000000
00000000
00000000
,
00100000
00010000
00100000
00001000
00000000
00000000
00020000
00000000
00000000
00000000
00000000
00000000
,
00030000
00001000
00010000
00000000
00001000
00000010
00000100
00000000
,
00001000
00000010
00000100
00000000
00001000
00010000
00001000
00010000
,
00000000
00100000
01000000
00000000
00010000
00100000
01000000
00000000
,
00010000
01000000
00100000
00000000
00010000
00100000
00001000
00010000
,
00000000
00000000
00000000
00000000
;
#NOTES:
     dance-double:
     :
     Hard:
     15:
     :
00000000
00000000
00000000
00000000
,
00000000
00000000
00000000
00000000
,
00000000
00000000
00000000
00000000
00000000
00000000
00000000
00011000
,
00000000
00001000
00010000
00000000
00001000
01000000
00010000
00000000
,
01000000
00010000
00100000
01000000
10000000
00100000
01000000
00100000
,
00000000
10000000
00100000
00000000
01000000
00010000
01000000
00000000
,
00010000
00100000
00001000
00010000
00000100
00001000
00000001
00000100
,
00000000
00000000
00000001
00001000
00000001
00000000
00000000
00000000
00000010
00000000
00000100
00000000
00001000
00000000
00000000
00000000
,
00000010
00000100
00001000
00000100
00001000
00010000
00100000
01000000
,
00000000
00000000
00010000
10000000
00010000
00000000
00000000
00000000
10000000
00000000
01000000
00000000
00100000
00000000
00000000
00000000
,
00010000
00000000
01000000
00010000
01000000
00000000
00001000
01000000
00001000
00000000
00000000
00010000
00000000
00000000
00001000
00000000
,
00000000
00000000
00011000
00000000
00010000
00001000
00000000
00001000
,
00000010
00000000
00000001
00000011
00000000
00000110
00000000
00001100
,
00000000
00000000
00001001
00000000
00000001
00000100
00000000
00000000
,
00001000
00010000
00100000
20000000
00000000
00010000
00010000
30010000
,
00000000
10000000
00100000
01000000
00001000
00010000
00000010
00001000
,
00000001
00000000
00000010
00000000
00000100
00000000
00001000
00000000
00000001
00000000
00000100
00000010
00000100
00000010
00001000
00000000
,
00000000
00000001
00000010
00000100
00010000
00001000
00100000
00010000
,
10000000
00000000
00100000
00000000
01000000
00000000
00010000
00000000
10000000
00000000
01000000
00100000
01000000
00100000
00010000
00000000
,
00000000
10000000
01000000
00100000
00001000
00010000
00000100
00001000
,
00000001
00000000
00000100
00000000
00000010
00000000
00001000
00000000
00000001
00000000
00000010
00000100
00000010
00000100
00001000
00000000
,
00000000
00000001
00000100
00000010
00010000
00001000
01000000
00010000
,
10000000
00000000
01000000
00000000
00100000
00000000
00010000
00000000
10000000
00000000
00100000
01000000
00100000
01000000
00010000
00000000
,
00000000
10000000
01000000
00100000
00001000
00010000
00100000
01000000
,
00001000
00010000
00000010
00001000
00000100
00000010
00000001
00001000
,
00000000
00000001
00000100
00000010
00010000
00001000
00000010
00000100
,
00010000
00001000
00100000
00010000
01000000
00100000
10000000
00010000
,
00000000
10000000
00100000
01000000
00001000
00010000
01000000
00100000
,
00001000
00010000
00000100
00001000
00000010
00000100
00000001
00001000
,
00000000
00000001
00000010
00000100
00010000
00001000
00000100
00000010
,
00010000
00001000
01000000
00010000
00100000
01000000
10000000
00010000
,
00000000
00000000
10010000
00000000
00000000
00000000
10000000
01000000
00100000
00000000
00000000
00000000
00000000
00000000
00010000
01000000
,
00001000
00000000
00000000
00000000
00000000
00000000
00010000
00001000
00010000
00000000
00000010
00000000
00001000
00000000
00000010
00000000
,
00000000
00000000
00000110
00000000
00000000
00000000
00000001
00001000
00000001
00000000
00000000
00000000
00000000
00000000
00000010
00000100
,
00001000
00000001
00000100
00000010
00001000
00010000
01000000
00100000
,
00000000
00000000
01100000
00000000
00000000
00000000
10000000
00010000
10000000
00000000
00000000
00000000
00000000
00000000
00010000
00100000
,
01000000
00000000
00000000
00000000
00000000
00000000
10000000
00010000
00100000
00000000
01000000
00000000
00010000
00000000
00001000
00000000
,
00000000
00000000
00011000
00000000
00000000
00000000
00010000
00000010
00001000
00000000
00000000
00000000
00000000
00000000
00000010
00000100
,
00000010
00000000
00001000
00000000
00000100
00000000
00000010
00000000
00000001
00000000
00000000
00001000
00000000
00000000
00000001
00000000
,
00000200
00000000
00000000
00000000
,
00000000
00000000
00000000
00000000
,
00002300
00000000
00000000
00000000
00000000
00000000
00000000
00013000
,
00100000
00000000
01000000
00001000
00000000
00010000
01000000
00000000
,
20000000
00000000
00000000
00000000
00000000
00000000
00000000
31000000
,
00100000
00000000
00000000
00010000
00000000
00000000
00100000
00000000
00000000
00000000
00000000
00000000
00001000
00000000
00000000
00010000
00000000
00000000
00001000
00000000
00000000
00000000
00000000
00000000
00010000
00000000
00000000
00000000
00000100
00000000
00000000
00000000
00001000
00000000
00000000
00000000
00000100
00000000
00000000
00000000
00000010
00000000
00000000
00000000
00000100
00000000
00000000
00000000
,
00001000
00000000
00000001
00000011
00000000
00000001
00000101
00000000
,
00000100
00001000
00010000
00100000
10000000
00010000
01000000
00000000
,
00100000
00000000
00000000
00000000
00000000
00000000
10000000
00010000
01000000
00000000
00010000
00000000
00100000
00000000
00001000
00000000
,
00000000
00000000
00001000
00000000
00010000
00000100
00001000
00000000
00000010
00000000
00000100
00000001
00000000
00000010
00000100
00000000
,
00001000
00001100
00000000
00010100
00000000
00011000
00000000
00101000
,
00000000
00000000
00001000
00100000
00010000
00000000
01000000
00000000
00000000
00000000
01100000
00000000
00000000
00000000
00000000
00000000
,
10010000
00000000
00010000
01000000
00100000
00010000
00001000
00000100
,
00000010
00010000
00001000
00000010
00000100
00010000
00000100
00000010
,
00000001
00000101
00000000
00000100
00001000
00000000
00010000
00110000
,
00000000
00100000
10000000
00000000
00000000
10010000
10010000
10010000
,
00000000
00000000
00000000
00000000
,
00000000
00000000
00000000
00000000
00010000
01000000
00100000
10000000
,
00000000
00100000
10100000
00000000
10000000
01000000
00010000
00001000
,
00000000
00001000
00000010
00000000
00000001
00001000
00000000
00001001
,
00000000
00001000
00000100
00010000
00001000
00000100
00000010
00010000
,
00000000
00000000
00001000
00000000
00000010
00000000
00000001
00000010
00000100
00000000
00001000
00000000
00000000
00000000
00001001
00000000
,
00000000
00000000
00000001
00000010
00000100
00000000
00000010
00000100
00001000
00000000
00000100
00010000
00001000
00000000
00010000
00000000
,
00000000
00000000
00010000
00001000
00100000
00000000
00010000
00100000
01000000
00000000
00100000
01000000
10000000
00000000
00010000
00000000
,
00000000
00000000
10000000
00100000
10000000
00000000
00010000
01000000
00010000
00000000
10000000
01000000
10000000
00000000
00010000
00000000
,
00100000
00001000
00010000
01000000
10000000
00010000
00000000
10010000
,
00000000
10000000
01000000
00100000
00001000
00010000
00000100
00000010
,
00000000
00000000
00000001
00000000
00001000
00000000
00000000
00000000
00000001
00001000
00000001
00001000
00000001
00001000
00000001
00000000
,
00000000
00000100
00000010
00000001
00000010
00001000
00000010
00010000
,
00000000
00011000
00000000
01001000
00000000
01010000
00000000
01100000
,
00000000
00100000
10000000
01000000
00010000
00001000
00000010
00001000
,
00000000
00010000
00001000
00000100
00001000
00010000
00100000
01000000
,
00000000
01010000
00000000
00010000
00110000
00000000
00100000
00101000
,
00000000
00001000
00011000
00000000
00010000
00001000
00000010
00000001
,
00000000
00000000
00000010
00000100
00001000
00000000
00000001
00000100
00000010
00000000
00001000
00000000
00000010
00000000
00010000
00000000
,
00000000
00001000
01000000
01010000
00000000
00010000
10000000
11000000
,
00000000
01100000
00000000
00100000
00101000
00000000
00001000
00022000
,
00000000
00000000
00000000
00000000
00033000
00000000
00001000
00010000
00001000
00000000
00010000
00000000
00000010
00000000
00001000
00000000
,
00000000
00000001
00000100
00000000
00001000
00010000
00100000
00000000
,
10000000
01000000
00010000
00001000
00000010
00000001
00001000
00000001
,
00000000
00000010
00001000
00000000
00010000
01000000
10000000
00000000
,
00100000
00010000
00001000
00000100
00000001
00000010
00000100
00000010
,
00000000
00000000
00001001
00000000
00000000
00000000
00000001
00000000
00000010
00000000
00000100
00000000
00001000
00000000
00000010
00000100
,
00000010
00000000
00010000
00000000
00001000
00000000
00100000
00010000
00100000
00000000
01000000
00000000
10000000
00000000
00010000
00000000
,
00000000
10010000
00000000
00010000
00100000
01000000
00100000
00001000
,
00010000
00000010
00000100
00000010
00010000
00001000
00000000
00011000
,
00000000
00000000
00000000
00000000
00000000
00000000
00001000
00010000
,
00001000
00000000
00000000
01000000
00000000
00000000
00000000
00000000
00000000
00010000
00000000
00000000
01000000
00000000
00000000
00000000
00100000
00000000
00000000
00000000
10000000
00000000
00000000
00000000
00010000
00000000
00000000
01000000
00000000
00000000
00010000
00000000
00000000
00000000
00000000
00000000
01000000
00000000
00000000
00000000
00000000
00000000
00001000
00000000
00000000
00000000
00000000
00000000
,
00000000
00000000
00010000
00000000
00001000
00000000
00010000
00000000
00000000
00000100
00000000
00000000
00001000
00000000
00000100
00000000
00000010
00000000
00000001
00000000
00000100
00000000
00000010
00000000
,
00001000
00000000
00000100
00000000
00010000
00000000
00001000
00000000
00100000
00000000
00010000
00000000
01000000
00000000
00000000
00000000
00000000
00000000
00100000
00000000
00000000
01000000
00000000
00000000
,
00000000
00000000
00010000
10000000
00010000
00000000
00100000
00000000
01000000
00100000
00001000
00000000
00010000
00000000
00000100
00000000
,
00001000
00000010
00000100
00000000
00000001
00000000
00000010
00000100
00001000
00000000
00000001
00000000
00000000
00000000
00001001
00000000
,
00000000
00000001
00001000
00001000
00000100
00010000
00010000
00010000
,
00001000
00001000
00100000
00100000
00010000
01000000
00100000
01100000
,
00000000
00000000
00000000
00000000
;
