
//----- song ID: blco -----//
#TITLE:Blφφdy Cφncertφ;
#ARTIST:OSTER project & RoughSketch;
#TITLETRANSLIT:Bloody Concerto;
#BANNER:Bloody Concerto.png;
#BACKGROUND:Bloody Concerto-bg.png;
#CDTITLE:./CDTitles/DDR WORLD.png;
#MUSIC:Bloody Concerto.ogg;
#SAMPLESTART:18.284;
#SAMPLELENGTH:15;
#BPMS:0=210;
#NOTES:
     dance-single:
     :
     Beginner:
     4:
     :
0000
0000
0000
0000
,
0000
0000
0000
0000
,
0000
0000
0000
0000
,
0000
0000
0000
0000
,
0000
0000
0000
0000
,
0000
0000
0000
0000
,
0000
0000
0000
0000
,
0000
0000
0000
0000
,
0001
0000
0000
0000
,
0001
0000
0000
0000
,
0010
0000
0000
0000
,
0000
0000
0000
0000
,
0010
0000
0000
0000
,
0010
0000
0000
0000
,
1000
0000
0000
0000
,
0000
0000
0000
0000
,
1001
0000
0000
0000
,
1001
0000
0000
0000
,
1001
0000
0000
0000
,
0000
0000
0000
0000
,
0110
0000
0000
0000
,
0110
0000
0000
0000
,
0110
0000
0000
0000
,
0000
0000
0000
0000
,
1001
0000
0000
0000
,
0110
0000
0000
0000
,
1001
0000
0000
0000
,
0000
0000
0000
0000
,
1001
0000
0000
0000
,
0110
0000
0000
0000
,
1001
0000
0000
0000
,
0000
0000
0000
0000
,
1000
0000
0001
0000
,
1001
0000
0000
0000
,
0001
0000
1000
0000
,
1001
0000
0000
0000
,
0010
0000
0010
0000
,
0110
0000
0000
0000
,
0010
0000
0010
0000
,
0110
0000
0000
0000
,
2000
0000
0000
0000
,
3000
0000
0000
0000
,
0020
0000
0000
0000
,
0030
0000
0000
0000
,
0002
0000
0000
0000
,
0003
0000
0000
0000
,
0010
0000
0010
0000
,
0010
0000
0000
0000
,
0001
0000
0000
0000
,
0010
0000
0000
0000
,
0001
0000
0001
0000
,
0010
0000
0000
0000
,
1000
0000
0000
0000
,
0010
0000
0000
0000
,
1000
0000
1000
0000
,
0010
0000
0000
0000
,
1000
0000
0000
0000
,
0010
0000
0000
0000
,
0001
0000
0001
0000
,
0001
0000
0000
0000
,
0002
0000
0000
0000
,
0003
0000
0000
0000
,
1001
0000
0000
0000
,
0000
0000
0000
0000
,
0001
0000
0001
0000
,
0100
0000
0000
0000
,
0001
0000
0000
0000
,
0010
0000
0000
0000
,
1000
0000
1000
0000
,
0100
0000
0000
0000
,
1001
0000
0000
0000
,
1001
0000
0000
0000
,
0010
0000
0000
0000
,
0000
0000
0000
0000
,
1001
0000
0000
0000
,
1001
0000
0000
0000
,
0010
0000
0000
0000
,
0000
0000
0000
0000
,
1001
0000
0000
0000
,
1001
0000
0000
0000
,
1001
0000
0000
0000
,
0000
0000
0000
0000
,
0110
0000
0000
0000
,
0110
0000
0000
0000
,
0110
0000
0000
0000
,
0000
0000
0000
0000
,
0000
0000
0000
0000
,
1001
0000
1001
0000
,
1001
0000
0000
0000
,
1001
0000
1001
0000
,
1001
0000
0000
0000
,
0110
0000
0110
0000
,
0110
0000
0000
0000
,
0110
0000
0110
0000
,
0110
0000
0000
0000
,
0000
0000
1001
0000
,
0000
0000
0000
0000
;
#NOTES:
     dance-single:
     :
     Easy:
     8:
     :
0000
0000
0000
0000
,
0000
0000
0000
0000
,
0000
0000
0000
0000
,
0000
0000
0000
0000
,
0000
0000
0000
0000
,
0000
0000
0000
0000
,
0001
0001
0001
0000
,
1000
1000
1000
0000
,
1001
0000
0110
0000
,
1000
0100
0010
0000
,
0002
0000
0000
0003
,
2000
0000
0000
3000
,
1001
0000
0110
0000
,
0001
0100
0010
0000
,
2000
0000
0000
3000
,
0002
0000
0000
0003
,
0011
0000
0011
0000
,
0101
0000
0101
0000
,
1010
0000
1010
0000
,
1100
0000
1100
0000
,
1001
0000
0011
0000
,
1001
0000
0011
0000
,
1001
0000
1010
0000
,
1001
0000
1010
0000
,
1001
0000
0000
0000
,
1000
0100
1000
0000
,
0001
0100
0010
1000
,
0020
0000
0000
0030
,
0110
0000
0000
0000
,
0001
0100
0001
0000
,
1000
0100
1000
0010
,
2000
0000
0000
3000
,
1001
0000
0110
0000
,
1001
0000
0000
0000
,
1001
0000
0110
0000
,
1001
0000
0000
0000
,
1010
0000
0101
0000
,
1010
0000
0000
0000
,
1010
0000
0101
0000
,
1010
0000
0000
0000
,
2000
0000
0000
3000
,
0200
0000
0000
0300
,
0010
0001
0010
0001
,
0020
0000
0000
0030
,
0002
0000
0000
0003
,
0200
0000
0000
0300
,
0010
1000
0010
1000
,
0020
0000
0000
0030
,
1000
0100
0010
0001
,
0100
0010
1000
0000
,
0001
0100
0010
0100
,
0001
1000
0001
0000
,
1000
0001
0010
0001
,
0100
0010
1000
0000
,
0001
0010
0001
0000
,
1000
0010
1000
0000
,
0001
0100
0001
0000
,
1000
0100
1000
0000
,
0001
0000
1000
0000
,
1001
0000
0110
0000
,
1000
0100
0010
0001
,
0000
0000
0000
0000
,
2002
0000
0000
0000
,
3003
0000
0000
0000
,
1000
0010
1000
0010
,
0100
0001
1000
0000
,
0001
0100
0010
1000
,
0001
1000
0100
0010
,
0100
1000
0001
0010
,
0001
0100
0001
0000
,
1000
1000
1000
0000
,
0001
0001
0001
0000
,
0100
0100
0100
0000
,
0010
0010
0010
0000
,
1000
0100
0001
0000
,
0001
0100
1000
0000
,
0001
0100
1000
0000
,
1000
0100
0001
0000
,
1000
0100
0010
0001
,
0100
0010
1000
0000
,
0010
0010
0010
0010
,
0010
0010
0010
0000
,
1000
0010
0100
0001
,
0010
0100
1000
0000
,
1001
0000
0110
0000
,
0001
0001
1000
1000
,
0002
0000
0000
0003
,
0011
0000
0110
0000
,
1100
0000
0000
0000
,
1010
0000
0110
0000
,
0101
0000
0000
0000
,
1001
0000
0110
0000
,
1001
0000
0110
0000
,
1001
0000
1010
0000
,
0110
0000
0101
0000
,
0000
0000
2002
0000
,
0000
0000
3003
0000
,
0000
0000
0000
0000
;
#NOTES:
     dance-single:
     :
     Medium:
     14:
     :
0000
0000
0000
0000
,
0000
0000
0000
0000
,
0000
0000
0000
0000
,
0000
0000
0000
0000
,
0000
0000
0000
0000
,
0000
0000
0000
0000
,
0001
0010
0100
1000
,
0001
0010
0100
1000
,
0001
0000
1001
0000
1000
0100
0000
0100
,
0000
0000
1001
0000
0001
0000
0001
0100
,
0010
0000
0000
1000
0000
0000
0010
0100
,
0010
0110
1001
0000
,
1000
1000
0100
0100
,
0010
0000
0010
0000
0001
0000
0001
1000
,
0001
0100
0010
0000
1000
0100
0010
0000
,
2002
0000
0000
3003
,
0101
0001
0100
0000
0101
0000
0001
0000
,
0101
0000
0100
0000
0101
0000
0001
1000
,
1100
0100
1100
1000
,
0100
1000
0100
0000
1100
0000
0000
0000
,
1010
0010
1010
1000
,
1010
0000
0010
0000
1010
0010
1000
0001
,
0011
0010
0011
0001
,
0010
0001
0010
0001
0011
0000
0000
0000
,
0110
0000
1001
0000
,
0001
0000
0000
0100
0000
0000
0010
0000
2000
0000
0000
0000
3000
0000
0000
0000
,
1000
0000
0000
0100
0000
0000
0010
0000
0001
0000
0000
0000
1001
0000
0000
0000
,
0110
0000
0000
0000
0000
0000
0010
0100
0010
0000
0000
0000
0000
0000
0000
0000
,
0110
0000
1001
0000
,
1000
0000
0000
0100
0000
0000
0010
0000
0002
0000
0000
0000
0003
0000
0000
0000
,
0001
0000
0000
0100
0000
0000
0010
0000
1000
0000
0000
0000
1001
0000
0000
0000
,
0220
0000
0330
0000
,
1001
0001
0011
1000
,
1010
0000
0000
0001
0000
0000
0011
0000
1000
0000
0001
0000
,
1001
1000
1100
0001
,
0101
0000
0000
1000
0000
0000
1100
0000
0001
0000
1000
0000
,
1001
0010
0110
1000
,
1001
0000
0000
0100
0000
0000
0110
0000
0010
0000
0100
0000
,
1001
0100
0110
0001
,
1001
0000
0000
0010
0000
0000
0110
0000
0100
0000
0010
0000
,
0200
0000
0000
0300
,
0020
0000
0000
0030
,
1001
1000
0001
1000
,
0001
0010
0001
0010
0200
0000
0000
0000
,
2300
0000
3001
0001
,
0200
0000
0310
0010
,
0110
0000
0000
0000
1001
0000
1000
0100
,
0020
0000
0000
0030
,
0001
0010
0001
0100
0010
1000
0100
0010
,
0001
1000
0010
0100
0001
1000
0010
0000
,
1000
0010
1000
0100
0010
0001
0100
0010
,
1000
0001
0010
0100
1000
0001
0010
0000
,
0001
1000
0100
1000
0010
0100
0001
0010
,
0001
1000
0100
0010
0100
0010
0100
0010
,
0100
0100
1000
1000
,
0001
0001
0010
0010
,
0001
0001
1000
1000
,
1001
0000
0110
0000
,
0001
0000
0000
0001
0000
0000
0001
0000
1000
0000
0000
1000
0000
0000
1000
0000
,
0010
0010
0000
0010
0100
0100
0000
0100
,
0001
0000
0001
1000
0000
1000
0100
0000
0100
0010
0000
0010
,
0000
0000
0000
0000
,
2002
0000
0000
0000
,
0000
0000
0000
3003
,
1000
0000
0100
0010
0000
0010
0001
0000
,
1000
0100
0001
0100
1000
0001
0010
0000
,
0001
0100
0010
0000
1000
0001
0000
1001
,
0000
1000
0001
0100
0000
0010
0100
0010
,
1000
0000
0100
0010
0000
0010
0001
0000
,
1000
0100
0001
0100
1000
0001
0010
0000
,
0011
0011
0101
0101
,
1010
1010
1100
1100
,
1010
0101
0011
1100
,
0001
0010
0100
1000
0001
1000
0001
0000
,
1000
0100
0010
0000
0001
1000
0000
1001
,
0000
0001
0100
0001
0000
1000
0100
0010
,
0001
1000
1000
0010
1000
1000
0100
1000
,
0002
0000
0000
0003
,
0001
0001
0001
0000
0101
0000
0110
0000
,
1001
0000
1010
0000
1000
1000
1000
0000
,
1100
0000
0000
0000
0110
0000
0000
0000
0011
0000
0000
0001
0010
0000
0001
0000
,
1000
0010
0001
0010
2000
0000
3001
0000
,
1010
0110
0101
1001
,
1100
0000
0110
0010
0001
1000
0001
0000
,
1100
0000
0001
0101
0000
1000
1010
0000
,
0001
1000
0001
1000
0001
1000
0001
1000
,
0002
0000
0000
0003
,
0011
0100
1010
0100
,
0011
0000
0000
0100
0000
0000
1010
0000
1000
0000
0100
0000
,
1100
0010
0101
0010
,
1100
0000
0000
0010
0000
0000
0101
0000
0001
0000
0010
0000
,
0011
0000
0000
0001
0010
0001
0010
0000
0000
0100
1000
0100
,
1000
0000
0000
0001
0010
0001
0010
0000
0100
0000
1000
0000
,
1010
0000
0000
1000
0010
1000
0010
0000
0000
0100
0001
0100
,
0001
0000
0000
1000
0010
1000
0010
0000
0100
0000
0001
0000
,
0000
0000
2002
0000
,
0000
0000
3003
0000
,
0000
0000
0000
0000
;
#NOTES:
     dance-single:
     :
     Hard:
     16:
     :
0000
0000
0000
0000
,
0000
0000
0000
0000
,
0000
0000
0000
0000
,
0000
0000
0000
0000
,
0000
0000
0000
0000
,
0000
0000
0000
0000
,
0011
0110
1100
1001
,
0011
0110
1100
1001
,
0001
0000
0001
0010
0100
1000
0000
1000
,
0000
0000
1000
0100
0010
0000
0001
1000
,
0001
0000
0000
0100
0000
0000
0010
0100
,
0010
0000
1000
0010
1000
0000
0001
0000
1000
0000
0000
0000
1000
0000
0100
0000
,
0010
0010
0011
0011
,
0001
0000
0000
0000
0001
0000
0000
0000
1001
0000
0000
0000
1001
0000
1000
0001
,
1000
0100
0010
0001
1000
0100
0010
0001
,
2000
0000
0000
3000
,
1000
0010
1010
0000
1100
0000
1010
0000
,
0101
0000
0000
0000
0011
0000
0000
0000
0101
0000
0000
0000
0011
0000
0001
1000
,
0001
0000
0001
0100
0010
1000
0001
0100
,
0010
0010
1010
0000
1001
0000
0000
0000
,
0011
0101
0011
0101
,
1010
0000
0000
0000
1100
0000
0000
0000
1010
0000
1000
0000
0010
0000
1000
0001
,
1000
0000
1000
0010
0100
0001
1000
0010
,
0100
0100
0001
0001
1001
0000
0000
0000
,
1001
0000
0000
0000
1000
0100
0010
0000
,
0001
0000
1000
0010
0000
1000
0010
0000
0100
0000
0000
0000
0001
1000
0001
1000
,
0001
0000
0100
0010
0000
0100
0010
0000
1000
0000
0000
0000
1000
0001
1000
0001
,
1000
0000
0000
0000
0100
0000
0010
0001
0010
0000
0000
0000
0001
0010
0100
1000
,
0001
0010
0011
0000
1000
0010
1010
0000
,
0001
0000
0000
0101
0000
0000
1000
0000
1100
0000
0000
0000
1000
0100
0010
0001
,
1000
0000
0000
0010
0000
0000
0100
0000
0110
0000
0000
0000
0001
1000
0001
1000
,
0002
0100
2003
0010
,
3001
0000
0000
0001
0010
0100
1000
0000
0000
1000
0010
0100
,
0001
0000
0000
0001
0010
0100
1000
0000
0010
0000
0110
0000
,
1001
0000
0000
1000
0100
0010
0001
0000
0000
0001
0100
0010
,
1000
0000
0000
1000
0100
0010
0001
1000
0100
0010
0001
1000
,
0100
0000
0000
1000
0001
0100
0010
0000
0000
1000
0001
0010
,
0100
0000
0000
1000
0001
0100
0010
0000
1000
0000
0001
0000
,
0110
0000
0000
0001
1000
0010
0100
0000
0000
0001
1000
0100
,
0010
0000
0000
0001
1000
0010
0100
0000
0100
0001
1000
0001
,
2000
0000
0000
3000
1000
0100
,
0020
0000
0032
0000
,
2003
0000
3020
0000
,
0130
0000
0000
0001
0000
0000
0100
0000
0000
0001
0000
0000
1000
0000
0000
0010
0000
0000
1000
0000
0010
0000
1000
0000
,
0020
0000
0030
0010
,
0200
0300
0110
0000
,
0001
0000
0000
0000
1000
0100
1000
0000
0100
0010
0100
0000
0010
0001
0010
0000
,
0002
0000
0000
0003
,
0001
0000
1000
0010
1000
0000
0001
0000
0100
0010
0100
0000
0001
0000
0000
0000
,
1000
0000
0001
0010
0001
0000
1000
0000
0100
0010
0100
0000
1000
0000
0000
0000
,
0001
0000
0100
0010
1000
0000
0001
0000
1000
0010
0100
0000
0001
0000
0000
0000
,
1000
0100
0001
0100
1100
0000
1001
0000
,
0001
0000
0100
0010
0100
0000
0001
0000
0010
0100
1000
0000
0100
0000
0000
0000
,
1000
0000
0010
0100
0010
0000
1000
0000
0001
1000
0001
1000
0001
1000
0001
0000
,
0100
0100
0100
0100
,
0100
0000
0100
0000
0100
0000
0100
0001
,
0010
0000
0010
0000
0011
0000
0010
1000
,
0010
0000
0110
0000
,
0001
0000
0000
1001
0000
0000
1000
0010
0100
0000
0000
0110
0000
0000
0010
1000
,
0001
0100
0000
0100
0010
1000
0000
1000
,
0100
0010
0100
0010
0100
0010
0001
1000
0001
1000
0001
1000
,
0000
0000
0000
0000
,
2002
0000
0000
0000
,
0000
0000
0000
3003
,
0001
0010
0100
1000
0000
1000
0010
0100
,
0001
0000
1000
0010
1000
0000
0100
0000
0010
0000
0001
0000
0100
0000
0001
0000
,
0010
0100
1000
0010
0100
0001
0000
1001
,
0000
0000
1000
0000
0010
0000
0001
0000
0010
0000
0100
0010
0100
0000
0000
0000
,
0002
0000
1000
2003
0000
0010
3010
1000
,
0100
0000
0010
0001
0010
0000
0001
0000
1000
0000
0010
0000
0100
0000
0001
0000
,
1000
0100
1100
1000
0001
0000
0011
0000
,
0101
0000
0100
0000
0001
0000
1000
0000
1010
0000
0010
1000
0010
0000
1000
0000
,
0010
0100
0010
0100
0001
1000
0001
1000
,
0100
0000
1000
0010
1000
0000
0001
0000
0100
0000
0010
0000
1000
0000
0100
0000
,
0010
0001
1000
0100
1000
0001
0000
1001
,
0000
0000
0001
0000
0100
0000
0010
1000
0010
0000
1000
0001
1000
0000
0100
0000
,
1000
0000
0100
0110
0000
0001
1001
1000
,
0002
0000
0023
0000
2030
0000
3020
0000
0032
0000
0000
0000
1003
0000
1000
0010
,
1000
0000
0100
0000
0110
0000
0000
0000
0001
1000
0000
0001
1000
0000
0001
0000
,
0100
0000
0010
0000
0110
0000
0000
0000
1000
0000
0010
0100
0001
0000
0010
0000
,
0100
0000
1000
0000
0010
0000
1000
0000
0100
0000
0010
0001
0000
0010
0001
0000
,
1000
1000
1100
0000
0110
0010
0001
1000
,
0001
0000
0100
0000
0110
0000
0000
0000
1000
0001
0000
1000
0001
0000
1000
0000
,
0100
0000
0010
0000
0110
0000
0000
0000
0001
0000
0010
0100
1000
0000
0010
0000
,
0110
1100
0110
0101
,
0001
0000
0100
0010
0000
0100
0010
0000
1000
0000
0100
0010
0000
0100
0010
0000
,
0001
0000
0100
0000
0010
0000
1000
0000
0001
0000
1000
0010
0100
0000
0001
0000
,
1001
0000
0000
1000
0100
0010
0001
0000
0000
0001
0100
0010
,
1000
0000
0000
1000
0100
0001
0100
0000
1100
0000
1010
0000
,
1001
0000
0000
0001
0100
0010
1000
0000
0000
1000
0001
0010
,
0100
0000
0000
0100
1000
0001
0100
0010
0100
0010
1000
0010
,
1000
0000
0000
0001
0100
1000
0100
0000
0000
0001
0100
1000
,
0100
0000
0000
0001
0100
1000
0100
0000
0101
0000
1001
0000
,
1010
0000
0000
1000
0010
0001
0010
0000
0000
1000
0010
0001
,
0010
0000
0000
1000
0010
0001
0010
0000
1010
0000
1001
0000
,
0000
0000
2002
0000
,
0000
0000
3003
0000
,
0000
0000
0000
0000
;
#NOTES:
     dance-double:
     :
     Easy:
     8:
     :
00000000
00000000
00000000
00000000
,
00000000
00000000
00000000
00000000
,
00000000
00000000
00000000
00000000
,
00000000
00000000
00000000
00000000
,
00000000
00000000
00000000
00000000
,
00000000
00000000
00000000
00000000
,
00001000
00001000
00001000
00000000
,
00010000
00010000
00010000
00000000
,
00011000
00000000
00011000
00000000
,
00001000
00010000
00100000
00000000
,
20000000
00000000
00000000
30000000
,
00020000
00000000
00000000
00030000
,
10010000
00000000
10010000
00000000
,
10000000
01000000
00100000
00000000
,
00002000
00000000
00000000
00003000
,
00020000
00000000
00000000
00030000
,
00011000
00000000
00011000
00000000
,
00001010
00000000
00001010
00000000
,
00000011
00000000
00000011
00000000
,
00001001
00000000
00000000
00000000
,
00000101
00000000
00000101
00000000
,
00001100
00000000
00001100
00000000
,
00011000
00000000
00011000
00000000
,
00011000
00000000
00000000
00000000
,
00011000
00000000
00000000
00000000
,
00001000
00010000
00001000
00000000
,
00001000
00100000
00010000
01000000
,
00020000
00000000
00000000
00030000
,
10010000
00000000
00000000
00000000
,
10000000
01000000
10000000
00000000
,
10000000
01000000
00100000
00001000
,
00020000
00000000
00000000
00030000
,
00011000
00000000
00101000
00000000
,
00011000
00000000
00000000
00000000
,
00011000
00000000
00010010
00000000
,
00011000
00000000
00000000
00000000
,
00011000
00000000
01001000
00000000
,
00011000
00000000
00000000
00000000
,
00011000
00000000
00010100
00000000
,
00011000
00000000
00000000
00000000
,
00020000
00000000
00000000
00030000
,
00002000
00000000
00000000
00003000
,
00000010
00000100
00000010
00000001
,
00002000
00000000
00000000
00003000
,
00000001
00000000
00001000
00000000
,
00000100
00000000
00010000
00000000
,
00001000
00010000
00001000
00000000
,
00022000
00000000
00000000
00033000
,
00010000
00001000
01000000
00000000
,
00010000
01000000
00100000
00000000
,
10000000
01000000
00100000
00010000
,
10000000
00100000
01000000
00000000
,
00010000
00100000
00010000
00000000
,
00100000
00001000
00010000
00000000
,
00001000
00010000
00000010
00001000
,
00000010
00000100
00000001
00000000
,
00000100
00000100
00000010
00000010
,
00001000
00000000
00000001
00000000
,
00001001
00000000
00001010
00000000
,
00010010
00000000
00011000
00000000
,
00010000
00001000
00100000
00010000
,
00000000
00000000
00000000
00000000
,
02200000
00000000
00000000
00000000
,
03300000
00000000
00000000
00000000
,
11000000
00000000
01010000
00000000
,
00011000
00000000
00000000
00000000
,
00010000
00001000
00010000
00000100
,
00001000
00000100
00000010
00000000
,
00000011
00000000
00001100
00000000
,
00001001
00000000
00000000
00000000
,
00000001
00000100
00000010
00000000
,
00001000
00000100
00000010
00000000
,
00000011
00000000
00001010
00000000
,
00011000
00000000
00000000
00000000
,
00001000
00010000
00100000
00000000
,
00010000
00100000
10000000
00000000
,
10100000
00000000
00110000
00000000
,
00011000
00000000
00000000
00000000
,
00001000
00100000
00010000
01000000
,
00010000
00100000
00001000
00000000
,
00010000
00000010
00001000
00000100
,
00001000
00000010
00010000
00000000
,
00001000
01000000
01010000
00000000
,
00010000
00100000
00110000
00000000
,
00100000
00001000
00010000
00000100
,
00001000
00001000
00000010
00000010
,
00000200
00000000
00000000
00000300
,
00000110
00000000
00001001
00000000
,
00000001
00001000
00000100
00000000
,
00010100
00000000
00011000
00000000
,
00010000
00001000
00100000
00000000
,
00110000
00000000
11000000
00000000
,
01000000
00100000
00010000
00000000
,
00110000
00000000
00101000
00000000
,
00100000
00001000
00010000
00001000
,
00000000
00000000
00022000
00000000
,
00000000
00000000
00033000
00000000
,
00000000
00000000
00000000
00000000
;
#NOTES:
     dance-double:
     :
     Medium:
     14:
     :
00000000
00000000
00000000
00000000
,
00000000
00000000
00000000
00000000
,
00000000
00000000
00000000
00000000
,
00000000
00000000
00000000
00000000
,
00000000
00000000
00000000
00000000
,
00000000
00000000
00000000
00000000
,
00001000
00010000
00001000
00010000
,
00100000
01000000
00100000
01000000
,
10000000
00000000
01000000
00000000
00010000
10000000
00000000
10000000
,
00000000
00000000
10000000
01000000
00100000
00000000
00010000
00100000
,
00001000
00000000
00000000
00011000
00000000
00000000
00010000
00000100
,
00010000
00000000
00000100
00001000
00000010
00000000
00000000
00000000
,
00001000
00001000
00000001
00000001
,
00000100
00000000
00000100
00000000
00000010
00000000
00000010
00001000
,
00000010
00010000
00001000
00000000
00010000
00001000
00010000
00000000
,
00022000
00000000
00000000
00033000
,
00011000
00011000
00011000
00001000
,
00100000
00010000
00110000
00110000
,
01010000
01010000
01100000
01100000
,
00100000
10000000
00100000
01000000
00100000
00000000
00000000
00000000
,
10010000
10010000
00110000
00110000
,
00101000
00000000
00101000
00000000
00001000
00010000
00001000
00010000
,
00000100
00000000
00001000
00000100
00000000
00000100
00000010
00000000
,
00000001
00000010
00000001
00000010
00000011
00000000
00000000
00000000
,
00001001
00000000
00000110
00000000
,
00000001
00000000
00000000
00000100
00000000
00000000
00001000
00000000
00020000
00000000
00000000
00000000
00030000
00000000
00000000
00000000
,
00001000
00000000
00000000
00010000
00000000
00000000
01000000
00000000
10000000
00000000
00000000
00000000
10010000
00000000
00000000
00000000
,
01100000
00000000
00000000
00000000
00000000
00000000
00100000
01000000
00100000
00000000
00000000
00000000
00000000
00000000
00000000
00000000
,
01100000
00000000
10010000
00000000
,
10000000
00000000
00000000
01000000
00000000
00000000
00010000
00000000
00002000
00000000
00000000
00000000
00003000
00000000
00000000
00000000
,
00010000
00000000
00000000
00001000
00000000
00000000
00000100
00000000
00000001
00000000
00000000
00000000
00001001
00000000
00000000
00000000
,
00000220
00000000
00000330
00000000
,
00001001
00001000
00001010
00000010
,
00010010
00000000
00000000
00010000
00000000
00000000
00011000
00000000
00001000
00000000
00010000
00000000
,
00011000
00001000
00101000
00100000
,
00110000
00000000
00000000
00010000
00000000
00000000
10010000
00000000
01000000
00000000
00100000
00000000
,
10010000
00010000
00110000
00100000
,
00101000
00000000
00000000
00001000
00000000
00000000
00011000
00000000
00010000
00000000
00001000
00000000
,
00011000
00010000
00010010
00000010
,
00001010
00000000
00000000
00001000
00000000
00000000
00001000
00000000
00000100
00000000
00000010
00000000
,
00000002
00000000
00000000
00000003
,
00002000
00000000
00000000
00003000
,
00020000
00000000
00000000
00030000
,
20000000
00000000
00000000
30000000
,
10000000
01000000
00100000
00000000
,
00010000
00001000
00000100
00000000
,
00000010
00000001
00000100
00001000
,
00020000
00000000
00000000
00030000
,
00010000
00001000
00100000
00010000
01000000
00010000
00100000
01000000
,
10000000
00100000
01000000
00010000
01000000
00100000
10000000
00000000
,
01000000
00100000
00010000
00100000
01000000
00100000
00001000
00010000
,
00001000
00000000
00011000
00000000
00010000
00000010
00001000
00000000
,
00000001
00000100
00000010
00001000
00000100
00001000
00000010
00000100
,
00000001
00000010
00000100
00000000
00001000
00000100
00010000
00001000
,
00010000
00010000
00001000
00001000
,
00100000
00100000
00010000
00010000
,
01000000
01000000
00100000
00100000
,
01100000
00000000
10010000
00000000
,
10000000
00000000
00000000
01000000
00000000
00000000
00100000
00000000
00001000
00000000
00000000
00010000
00000000
00000000
00001000
00000000
,
00010000
00000100
00000000
00000100
00001000
00000010
00000000
00000010
,
00000100
00000000
00000100
00000001
00000000
00000001
00000100
00000000
00000100
00001000
00000000
00001000
,
00000000
00000000
00000000
00000000
,
00022000
00000000
00000000
00000000
,
00000000
00000000
00000000
00033000
,
00001000
00000000
00010000
00100000
00000000
00100000
10000000
00000000
,
00010000
01000000
00100000
10000000
00010000
00000000
10010000
00000000
,
10000000
01000000
00100000
00000000
00010000
01000000
00000000
01100000
,
00000000
00100000
00010000
00001000
00000000
00001000
00010000
00000100
,
00001000
00000000
00000010
00000100
00000000
00000010
00000100
00000000
,
00000001
00000100
00001000
00000100
00000001
00000010
00000100
00000000
,
00000110
00000110
00001100
00010100
,
00011000
00011000
00110000
10100000
,
10010000
01100000
10010000
01100000
,
10000000
00100000
01000000
00010000
10000000
01000000
00100000
00000000
,
00010000
00100000
00001000
00000000
00010000
00001000
00000000
00011000
,
00000000
00010000
00001000
00000010
00000001
00001000
00000100
00000010
,
00000011
00000000
00000001
00000101
00000000
00001000
00001100
00000000
,
00000020
00000000
00000000
00000030
,
00000110
00000000
00000000
00000000
00000110
00000000
00000000
00000000
00000001
00000000
00000000
00001000
00000000
00000000
00000010
00000000
,
00001010
00000000
00001010
00000000
00001000
00000010
00001000
00000100
,
00001100
00000000
00000000
00000000
00010100
00000000
00000000
00000000
00011000
00000000
00000000
00010000
00001000
00000000
01000000
00000000
,
00010000
00100000
01000000
10000000
00020000
00000000
10030000
00000000
,
10100000
11000000
01100000
00110000
,
00101000
00000000
00011000
00010000
00000010
00001000
00000010
00000100
,
00000101
00000000
00000001
00000010
00000000
00000010
00001000
00000000
,
00010000
00001000
00010000
00001000
00010000
00001000
00010000
00001000
,
00020000
00000000
00000000
00030000
,
00011000
00100000
00011000
01000000
,
00011000
00000000
00000000
00100000
00000000
00000000
00011000
00000000
00010000
00000000
00001000
00000000
,
00011000
00000010
00011000
00000100
,
00011000
00000000
00000000
00000010
00000000
00000000
00011000
00000000
00001000
00000000
00010000
00000000
,
00011000
00000000
00000000
00010000
00000100
00010000
00000100
00000000
00000000
00001000
00000010
00001000
,
00000010
00000000
00000000
00010000
00001000
00010000
00001000
00000000
00010000
00000000
00001000
00000000
,
00011000
00000000
00000000
00001000
01000000
00001000
01000000
00000000
00000000
00010000
00100000
00010000
,
00100000
00000000
00000000
00001000
00010000
00001000
00010000
00000000
00001000
00000000
00010000
00000000
,
00000000
00000000
00022000
00000000
,
00000000
00000000
00033000
00000000
,
00000000
00000000
00000000
00000000
;
#NOTES:
     dance-double:
     :
     Hard:
     16:
     :
00000000
00000000
00000000
00000000
,
00000000
00000000
00000000
00000000
,
00000000
00000000
00000000
00000000
,
00000000
00000000
00000000
00000000
,
00000000
00000000
00000000
00000000
,
00000000
00000000
00000000
00000000
,
00000001
00000100
00000010
00001000
,
00010000
01000000
00100000
10000000
,
00010000
00000000
10000000
01000000
00100000
00010000
00000000
00110000
,
00000000
00000000
00100000
00001000
00010000
00000000
00010000
00001000
,
00000100
00000000
00000000
00000001
00000000
00000000
00001000
00000100
,
00000010
00000000
00000001
00000010
00000001
00000000
00001000
00000000
00000001
00000000
00000000
00000000
00001000
00000000
00000100
00000000
,
00001000
00001000
00001100
00001100
,
00000100
00000000
00000000
00000000
00000100
00000000
00000000
00000000
00010100
00000000
00000000
00000000
00010100
00000000
00010000
00001000
,
00010000
00001000
00100000
00010000
01000000
00100000
10000000
01000000
,
20000000
00000000
00000000
30000000
,
10000000
01000000
11000000
00000000
01100000
00000000
01100000
00000000
,
00110000
00000000
00101000
00000000
00011000
00000000
00101000
00100000
,
00010000
00000000
00100000
00001000
00010000
00001000
00000100
00000000
,
00000010
00001000
00000010
00000000
00001001
00000000
00000000
00000000
,
00000101
00000101
00000110
00000110
,
00001010
00000000
00010010
00000000
00011000
00001000
00010000
00000010
,
00001000
00000000
00000010
00010000
00001000
00010000
01000000
00000000
,
00100000
00010000
01000000
00100000
01000000
00000000
00000000
00000000
,
01100000
00000000
10010000
00000000
,
10000000
00000000
00000000
01000000
00000000
00000000
00010000
00000000
00001000
00000000
00000000
00000000
00010000
00001000
00010000
00001000
,
00010000
00000000
00000000
00001000
00000000
00000000
00000010
00000000
00000001
00000000
00000000
00000000
00001000
00000001
00001000
00000001
,
00001000
00000000
00000000
00000000
00000000
00000000
00000001
00000100
00000010
00000000
00000000
00000000
00001000
00000010
00010000
00001000
,
00010000
00000000
00011000
00000000
,
00001000
00000000
00000000
00010000
00000000
00000000
00100000
00000000
10000000
00000000
00000000
00000000
00100000
01000000
00100000
01000000
,
00100000
00000000
00000000
10000000
00000000
00000000
01000000
00000000
00010000
00000000
00000000
00000000
00001000
00010000
00001000
00010000
,
00002000
00000000
00020000
00033000
,
00011000
00000000
00000000
00010000
00000100
00001000
00000010
00000000
00000000
00000010
00001000
00000100
,
00010000
00000000
00000000
00010000
00000100
00001000
00000010
00000000
00000100
00000000
00000001
00000000
,
00001001
00000000
00000000
00000001
00001000
00000010
00010000
00000000
00000000
00010000
00000010
00001000
,
00000001
00000000
00000000
00000001
00001000
00000010
00010000
00001000
00010000
00000100
00010000
00001000
,
00010000
00000000
00000000
00001000
01000000
00010000
00100000
00000000
00000000
00100000
00010000
01000000
,
00001000
00000000
00000000
00001000
01000000
00010000
00100000
00000000
01000000
00000000
10000000
00000000
,
10010000
00000000
00000000
10000000
00010000
00100000
00001000
00000000
00000000
00001000
00100000
00010000
,
10000000
00000000
00000000
10000000
00010000
00100000
00001000
00010000
00001000
01000000
00001000
00010000
,
00002000
00000000
00000000
00003000
00010000
00001000
,
00000020
00000000
00000032
00000000
,
00002003
00000000
00003200
00000000
,
00010300
00000000
00000000
00001000
00000000
00000000
00010000
00000000
00000000
00001000
00000000
00000000
01000000
00000000
00000000
00010000
00000000
00000000
01000000
00000000
00100000
00000000
01000000
00000000
,
00200000
00000000
00300000
00100000
,
20000000
30000000
10010000
00000000
,
10000000
00000000
00000000
00000000
01000000
00100000
01000000
00000000
00100000
00010000
00100000
00000000
00001000
00010000
00001000
00000000
,
00020000
00000000
00000000
00030000
,
00010000
00000000
00000010
00001000
00000010
00000000
00001000
00000000
00000100
00001000
00000100
00000000
00001000
00000000
00000000
00000000
,
00000010
00000000
00000100
00000001
00000100
00000000
00000001
00000000
00000010
00000001
00000010
00000000
00000001
00000000
00000000
00000000
,
00001000
00000000
00000010
00000100
00000010
00000000
00001000
00000000
00000100
00010000
00000100
00000000
00010000
00000000
00001000
00000000
,
00100000
00010000
01000000
00100000
01000000
00001000
00011000
00000000
,
00001000
00000000
00100000
00010000
00100000
00000000
00010000
00000000
01000000
00010000
01000000
00000000
00010000
00000000
00000000
00000000
,
00100000
00000000
01000000
10000000
01000000
00000000
10000000
00000000
00100000
10000000
00100000
10000000
00100000
10000000
00100000
00000000
,
01000000
01000000
00010000
00010000
,
00100000
00000000
00100000
00000000
00001000
00000000
00001000
00010000
,
00000100
00000000
00000100
00000000
00001000
00000000
00001000
00000001
,
00000010
00000000
00000110
00000000
,
00000001
00000000
00000000
00000010
00000000
00000000
00000010
00000100
00001000
00000000
00000000
00000010
00000000
00000000
00000010
00010000
,
00001000
00010000
00000000
00010000
00001000
00100000
00000000
00100000
,
00010000
01000000
00010000
01000000
00010000
01000000
00100000
10000000
00100000
10000000
00100000
10000000
,
00000000
00000000
00000000
00000000
,
20020000
00000000
00000000
00000000
,
00000000
00000000
00000000
30030000
,
10000000
01000000
00100000
00010000
00000000
00010000
01000000
00100000
,
00010000
00000000
00001000
00010000
00001000
00000000
00010000
00000000
00000100
00000000
00001000
00000000
00000010
00000000
00000000
00000000
,
00001000
00000100
00000010
00000001
00000100
00000010
00000000
00000110
,
00000000
00000000
00000100
00000000
00000001
00000000
00001000
00000000
00000100
00000000
00001000
00000100
00001000
00000000
00000000
00000000
,
00000200
00000000
00010000
00020300
00000000
00001000
00031000
00000000
,
00010000
00000000
00001000
00100000
00001000
00000000
00010000
00000000
00100000
00000000
01000000
00000000
00010000
00000000
00000000
00000000
,
00100000
00010000
00110000
00000000
01010000
00000000
01100000
00000000
,
10100000
00000000
10000000
00000000
01000000
00000000
10000000
00000000
00100000
00000000
01000000
00010000
01000000
00000000
00010000
00000000
,
00100000
00001000
00010000
00001000
00000010
00000001
00001000
00000100
,
00000010
00000000
00000001
00000010
00000100
00000000
00001000
00000000
00000010
00000000
00000100
00000000
00000010
00000000
00000000
00000000
,
00000100
00000001
00000010
00000100
00001000
00000100
00000000
00010100
,
00000000
00000000
00010000
00000000
00001000
00000000
00010000
00000000
01000000
00000000
10000000
01000000
00100000
00000000
00010000
00000000
,
10000000
00000000
01000000
01100000
00000000
00100000
00001000
00010000
,
00000200
00002300
00003020
00020030
00030200
00000000
00000300
00000000
,
00001000
00000000
00001000
00000000
00001100
00000000
00000000
00000000
00001000
00000100
00000000
00000010
00000001
00000000
00001000
00000000
,
00000001
00000000
00000100
00000000
00000110
00000000
00000000
00000000
00000010
00000000
00000100
00001000
00000100
00000000
00001000
00000000
,
00010000
00000000
00100000
00000000
01000000
00000000
00100000
00000000
10000000
00000000
00010000
10000000
00000000
00010000
10000000
00000000
,
01000000
01000000
00100000
00100000
00110000
00010000
10010000
00000000
,
00010000
00000000
00010000
00000000
01010000
00000000
00000000
00000000
00010000
01000000
00000000
00100000
10000000
00000000
00010000
00000000
,
10000000
00000000
01000000
00000000
01100000
00000000
00000000
00000000
00100000
00000000
01000000
00010000
01000000
00000000
00010000
00000000
,
00001000
00000000
00000010
00000011
00000000
00000001
00001001
00000000
,
00000001
00000000
00000010
00000100
00000000
00000010
00000100
00000000
00001000
00000000
00000100
00010000
00000000
00000100
00010000
00000000
,
00001000
00000000
01000000
00000000
00100000
00000000
00010000
00000000
00001000
00000000
00010000
00001000
00010000
00001000
00010000
00000000
,
00011000
00000000
00000000
00010000
00000010
00001000
00000100
00000000
00000000
00000100
00001000
00000010
,
00010000
00000000
00000000
00010000
00000010
00001000
00000100
00000000
00000010
00000000
00000001
00000000
,
00001001
00000000
00000000
00000001
00001000
00000100
00010000
00000000
00000000
00010000
00000100
00001000
,
00000001
00000000
00000000
00000001
00001000
00000100
00010000
00001000
00010000
00000010
00010000
00001000
,
00010000
00000000
00000000
00001000
00100000
00010000
01000000
00000000
00000000
01000000
00010000
00100000
,
00001000
00000000
00000000
00001000
00100000
00010000
01000000
00000000
00100000
00000000
10000000
00000000
,
10010000
00000000
00000000
10000000
00010000
01000000
00001000
00000000
00000000
00001000
01000000
00010000
,
10000000
00000000
00000000
10000000
00010000
01000000
00001000
00010000
00001000
00100000
00001000
00010000
,
00000000
00000000
00022000
00000000
,
00000000
00000000
00033000
00000000
,
00000000
00000000
00000000
00000000
;
