
//----- song ID: blar -----//
#TITLE:Blizzard of Arrows;
#ARTIST:BEMANI Sound Team "KE!JU";
#BANNER:Blizzard of Arrows.png;
#BACKGROUND:Blizzard of Arrows-bg.png;
#CDTITLE:./CDTitles/DDR WORLD.png;
#MUSIC:Blizzard of Arrows.ogg;
#SAMPLESTART:24.686;
#SAMPLELENGTH:15;
#BPMS:0=87.5,20=175,48=87.5,50=175,82=87.5,86=175,174=87.5,182=175,261=350,261.25=175,261.375=87.5,261.625=175,261.75=350,262.5=175,262.75=87.5,263=175,263.5=175,264=350,264.5=175,264.75=87.5,265=175,266=350,266.5=175,266.75=87.5,267=175,270=350,270.5=175,270.75=87.5,271=175,272=350,272.5=175,272.75=87.5,273=175,274=350,274.5=175,274.75=87.5,275=175,284=350,288=175;
#NOTES:
     dance-single:
     :
     Beginner:
     4:
     :
0000
0000
0000
0000
,
0000
0000
0000
0000
,
0000
0000
0000
0000
,
0000
0000
0000
0000
,
0000
0000
0000
0000
,
1000
0000
0000
0000
,
1000
0000
0000
0000
,
0100
0000
0000
0000
,
0100
0000
0000
0000
,
0010
0000
0000
0000
,
0010
0000
0000
0000
,
0001
0000
0000
0000
,
0001
0000
0000
0000
,
0000
0000
0001
0000
,
0010
0000
0001
0000
,
0000
0000
0001
0000
,
0001
0000
0100
0000
,
0000
0000
0010
0000
,
0100
0000
0020
0000
,
0000
0000
0030
0000
,
0000
0000
1001
0000
,
0000
0000
1001
0000
,
0000
0000
1000
1000
,
0100
0000
1000
0000
,
0000
0000
0010
0000
,
0100
0000
0010
0000
,
0000
0000
0001
0000
,
0000
0000
0001
0000
,
0010
0000
0001
0001
,
0010
0000
0100
0000
,
0001
0000
0100
0100
,
0001
0000
0010
0000
,
0100
0000
0010
0000
,
0100
0000
1000
0000
,
0000
0000
1001
0000
,
0000
0000
1000
0000
,
0010
0000
1000
1000
,
0010
0000
0100
0000
,
1000
0000
0100
0100
,
1000
0000
0010
0000
,
0100
0000
0010
0000
,
0100
0000
0001
0000
,
0000
0000
0001
0000
,
0001
0000
1001
0000
,
0000
0000
0000
0000
,
0000
0000
1001
0000
,
0000
0000
0000
0000
,
0000
0000
0010
0000
,
0010
0000
0020
0000
,
0000
0000
0030
0000
,
0000
0000
0010
0000
,
0010
0000
0100
0000
,
0000
0000
0100
0000
,
0100
0000
1000
0000
,
0000
0000
1000
0000
,
0010
0000
1000
0000
,
0000
0000
1001
0000
,
0000
0000
0001
0000
,
0010
0010
0001
0000
,
0100
0000
0010
0000
,
0001
0000
0010
0010
,
0100
0000
1000
0000
,
0100
0100
1000
0000
,
1000
1000
0010
0000
,
0100
0000
0010
0000
,
0000
0000
0000
0000
,
0000
0000
0000
0000
,
0001
0001
0001
0000
,
0000
0000
0000
0000
,
1000
1000
1000
0000
,
0100
0000
0010
0000
,
0100
0000
0000
0000
,
0000
0000
0100
0000
,
0010
0000
0010
0000
,
0001
0000
0001
0000
,
1001
0000
0000
0000
,
0000
0000
0000
0000
;
#NOTES:
     dance-single:
     :
     Easy:
     8:
     :
0000
0000
0000
0000
,
0000
0000
0000
0000
,
0000
0000
0000
0000
,
0000
0000
0000
0000
,
0000
0000
0000
0000
,
0001
0000
0001
0000
,
0100
0010
0100
0010
,
1000
0000
1000
0000
,
0100
0010
0100
0010
,
0001
0010
0001
0000
,
1000
0010
1000
0000
,
0001
1000
0001
1000
,
0001
0000
1001
1000
,
0100
0100
0010
0001
,
0010
0000
1001
0001
,
0100
0100
0010
1000
,
0010
0000
1000
0100
,
0010
0001
1000
0100
,
0010
0000
0001
0100
,
0010
1000
0001
0100
,
0010
0000
2000
3010
,
0100
0001
0100
0000
0001
0000
0010
0000
,
0001
0010
0001
1000
,
0001
0000
2000
0000
,
3000
0110
0002
0000
,
0003
0110
1000
0010
,
0100
0001
0010
0100
,
0010
0000
0001
0100
,
0010
1000
0001
0100
,
0010
1000
0010
0000
1000
0000
0100
0000
,
0010
0001
1000
0100
,
0010
0001
0010
0000
0001
0000
1000
0000
,
0010
1000
0100
0010
,
0001
1000
0001
0000
1000
0000
0010
0000
,
0001
0000
0010
0000
1000
0001
1000
0000
,
0001
0000
1000
0010
,
0100
0001
1000
0010
,
0100
0001
0100
0000
0001
0000
0010
0000
,
0100
1000
0001
0010
,
0100
1000
0100
0000
1000
0000
0001
0000
,
0100
0001
0010
0100
,
1000
0001
1000
0000
0001
0000
0100
0000
,
1000
0000
0100
0000
0001
1000
0001
0000
,
1000
0000
0020
0000
,
0000
0030
0200
0000
,
0000
0300
0010
0100
,
0010
0000
0100
0010
,
0100
0000
0001
1000
,
0001
1000
2002
0000
,
0000
3003
1000
0001
,
0100
0010
1000
0001
,
0100
0010
0100
0000
0001
0000
1000
0000
,
0100
0010
0001
1000
,
0100
0010
0100
0000
2000
0000
3010
0000
,
0020
0130
0002
0013
,
0020
0130
1100
0000
,
0011
0000
0101
0000
,
1010
0000
2000
3001
,
0100
0001
0100
0000
0001
0000
1000
0000
,
0100
1000
0100
0000
1000
0000
0010
0000
,
0100
0001
0100
0000
0001
0000
0010
0000
,
0001
1000
0001
0000
1000
0000
0100
0000
,
1001
0000
0001
0010
,
1001
0000
0001
0100
,
1000
0100
0002
0000
,
0000
0003
1001
0000
,
0000
0000
1001
0000
,
0000
0000
0110
0000
,
0000
0000
0110
0000
,
0000
0000
1000
0010
,
0100
0001
0100
0000
0001
0000
1000
0000
,
0001
0000
0000
0000
,
0001
0000
0001
1000
,
0001
0010
0010
0010
,
0100
0100
0100
0000
,
1001
0000
0000
0000
,
0000
0000
0000
0000
;
#NOTES:
     dance-single:
     :
     Medium:
     12:
     :
0000
0000
0000
0000
,
0000
0000
0000
0000
,
0000
0000
0000
0000
,
0000
0000
0000
0000
,
0000
0000
0000
0000
,
1000
0100
1000
0010
,
1000
0000
0100
0000
1000
0000
0010
0100
,
0001
0010
0001
0100
,
0001
0000
0010
0000
0001
0000
0100
0010
,
1000
0100
1000
0100
1000
0001
1000
0000
,
0001
0010
0001
0010
0001
0100
0001
0000
,
1000
0100
0010
0001
0100
0010
1000
0100
,
0020
0000
0000
0030
1001
0000
0001
0100
,
1000
0100
0001
0000
1000
0100
0001
0100
,
1000
0100
0010
0000
1001
0000
1000
0010
,
0001
0010
1000
0000
0001
0010
1000
0010
,
0001
0000
0000
0010
0000
0000
0100
0000
1000
0000
0000
0000
0010
0000
1000
0000
,
0100
1000
0010
0000
0100
0001
0010
0001
,
0100
0000
0001
0000
0010
0000
0000
0000
0001
0000
0000
0100
0000
0000
0010
0000
,
0000
0100
0000
0000
0001
0000
0010
0000
0100
0000
0000
1000
0000
0000
0010
0000
,
0000
0000
1000
0000
0000
0000
0000
0000
0100
0000
0000
0000
0010
0000
0000
0000
0001
0000
0000
0000
0001
0000
0000
0100
0000
0000
0100
0000
0010
0000
0000
0000
,
1000
0000
0000
0000
1000
0000
0000
0100
0000
0000
0100
0000
0010
0000
0000
0000
0001
0000
0000
0000
1000
0000
0000
0000
0100
0000
0000
0000
0000
0000
0000
0000
,
1000
0001
0100
0000
0010
0010
0000
0100
,
0100
0110
0002
0203
,
1300
0100
0001
0000
2000
0000
3200
0000
,
0301
0000
0100
0000
1000
0000
0000
0000
0001
0000
0000
0010
0000
0000
0001
0000
,
0000
1000
0000
0000
0010
0000
1000
0000
0100
0000
0000
1000
0000
0000
0001
0000
,
0000
0100
0000
0000
0001
0000
0000
0000
1000
0000
0100
0000
0010
0000
0001
0000
,
0100
0010
1000
0000
0001
0010
0100
1000
,
0010
0100
0001
0000
1000
0100
1000
0010
,
0000
0010
1000
0010
0000
0010
1000
0010
,
0000
0010
0100
0100
0001
0010
0100
0010
,
0001
0100
0010
1000
0001
0100
0001
0010
,
0000
0010
0001
0000
1000
0010
0001
0010
,
1000
0010
0001
0010
1000
0001
0100
0010
,
1000
0000
0000
0001
0000
0000
1000
0000
0000
0000
0000
0000
1001
0000
0000
0000
,
0001
0100
0010
0000
1000
0100
0010
0001
,
0100
0010
1000
0000
0001
0010
0001
0100
,
0000
0100
0001
0100
0000
0100
0001
0100
,
0000
0100
0010
0010
1000
0100
0010
0100
,
1000
0010
0100
0001
1000
0010
1000
0100
,
0000
0100
1000
0000
0001
0100
1000
0100
,
0001
0100
1000
0100
0001
1000
0010
0100
,
0001
0000
0000
1000
0000
0000
0001
0000
0020
0000
0000
0000
0000
0000
0030
0000
,
0200
0000
0000
0300
2000
0000
0000
3000
,
0002
0000
0000
0003
2000
0000
0000
0000
,
3100
0110
0002
0000
,
0103
0110
1000
0010
,
0100
0001
2002
0000
,
0000
0000
3003
0000
1000
0010
0100
0010
,
1000
0100
0010
0001
1000
0100
0001
0000
,
0001
0100
1000
0000
0001
0010
0100
1000
,
0100
0010
0001
0100
1000
0100
0001
0000
,
1000
0100
0001
0000
0001
0100
0010
0001
,
0100
0001
0010
0100
1000
0010
0100
0001
,
0100
0000
1000
0000
0100
0000
0000
0000
0001
0000
0000
0001
0000
0000
0001
0000
,
0010
0000
0000
0010
0000
0000
0010
0000
0100
0000
0000
0100
0000
0000
0100
0000
,
1000
0000
0000
1000
0000
0000
1000
0000
0002
0000
0000
0000
1003
0000
0000
0000
,
0001
0010
0100
1000
0001
0010
1000
0000
,
1000
0010
0001
0000
1000
0100
0010
0001
,
0100
0000
0000
0010
0000
0000
1000
0000
0001
0000
0010
0000
1000
0000
0000
0000
,
1000
0010
0001
0000
0001
0010
0100
1000
,
0010
0010
0010
0000
1000
0100
0010
0001
,
2000
0000
0000
0000
3000
0000
0000
0000
1000
0000
0000
1000
0000
0000
0100
0000
,
0000
0100
0000
0000
0010
0000
0000
0000
0001
0000
0000
0001
0000
0000
0001
0000
,
0100
0000
0000
0100
0010
0000
0000
0000
0110
0000
0000
0000
0000
0000
0000
0000
,
1001
0000
0110
0000
,
0001
1000
1001
0000
0110
0000
0000
0000
,
1001
0000
0110
0000
,
1000
0001
1001
0000
2000
0000
3020
0000
,
0130
1000
0100
0001
0020
0000
0230
0000
,
2300
0000
0000
0000
,
3001
0000
0110
0000
1000
0100
0010
0001
,
1000
0000
0000
0001
0000
0001
0100
0000
0100
0010
0000
0000
,
1000
0000
1000
0100
0000
0100
0010
0001
0010
0001
0000
0000
,
1001
0000
0000
0000
,
0000
0000
0000
0000
;
#NOTES:
     dance-single:
     :
     Hard:
     15:
     :
0000
0000
0000
0000
,
0000
0000
0000
0000
,
0000
0000
0000
0000
,
0000
0000
0000
0000
,
0000
0000
0000
0000
,
0001
1000
0100
1000
0001
1000
0100
0000
,
1000
0001
0100
0001
1000
0001
0100
0000
,
0001
1000
0010
1000
0001
1000
0010
0000
,
1000
0001
0010
0001
1000
0001
0010
0000
,
0001
0100
0001
0100
0010
1000
0100
1000
,
0010
0100
0010
0100
0001
1000
0100
0010
,
0100
1000
0100
0000
0010
0001
0010
0000
0001
0100
0001
0000
1000
0010
1000
0000
,
0020
0000
0000
0000
0030
0000
0000
0000
1000
0100
0010
0000
1001
0000
0000
0000
1001
0000
0000
0000
0000
0000
0000
0000
1000
0000
0000
0000
0100
0000
0000
0000
,
0010
0001
0000
0100
0001
0000
0000
0000
1000
0100
0000
1000
0010
0000
0100
0000
,
0001
1000
0001
0000
1000
0000
0000
0000
0001
0000
0010
0000
1000
0000
0010
0000
,
0001
0100
0000
0010
1000
0000
0001
0000
0100
0010
1000
0000
0100
0010
0001
0000
,
1000
0000
0000
1000
0000
0000
1000
0000
0002
0000
0000
0000
0103
0010
0100
0000
,
0001
0010
0000
0100
1000
0000
0010
0000
2000
0000
3200
0000
0302
0000
0203
0000
,
2300
0000
3010
0100
0020
0000
0030
0000
1000
0000
0100
0010
0000
0100
0010
0000
,
0001
1000
0000
0001
1000
0000
0010
0000
0100
0000
0001
0100
0000
0001
0100
0000
,
0010
0000
1000
0000
0000
0000
0010
0000
1000
0000
0000
0000
0000
0000
0000
0000
0001
0000
0000
0000
0110
0000
0000
1000
0000
0010
1000
0000
0010
0000
0000
0000
,
1000
0000
0000
0000
0110
0000
0000
0001
0000
0010
0001
0000
0010
0000
0000
0000
0001
0000
0000
0000
0100
0000
0000
0000
1000
0000
0000
0000
0100
0000
0000
0000
,
0001
0100
1000
0100
0001
0011
0000
0010
,
0100
1000
1001
0000
0002
0000
0203
0000
,
1300
0001
0010
1000
0200
0000
0302
0000
,
1003
0000
0010
0000
0001
0000
1000
0000
0001
0000
0100
0010
0000
0100
0001
0000
,
0100
0010
0000
0100
0001
0000
1000
0000
0001
0000
1000
0100
0000
0010
0100
0000
,
1000
0100
0000
0010
0100
0000
0000
0000
1000
0010
1000
0000
0100
0000
0010
0000
,
0001
0010
1000
0010
0001
0100
1000
0100
,
0001
0000
0010
0000
0100
1000
0100
0000
1000
0000
0010
0000
0100
0000
0001
0010
,
0000
0000
0001
0000
0100
0000
0001
0010
0000
0000
0001
0000
0100
0000
0001
0010
,
0000
0000
0010
0000
0100
1000
0100
0000
1000
0000
0010
0000
0100
0000
0001
1000
,
0000
0001
1000
0000
0100
0000
0010
0000
0001
0000
0100
0000
0010
0000
1000
0010
,
0000
1000
0010
0000
0100
0000
0000
0000
0001
0010
0100
1000
0000
0000
0001
0010
,
0100
1000
0000
0000
0001
0010
0100
1000
0000
0000
1000
0000
0001
0000
0100
0000
,
0010
0000
0000
0010
0000
0000
0010
0000
0000
0000
0000
0000
1001
0000
0000
0000
,
1000
0100
0001
0100
1000
0010
0001
0010
,
1000
0000
0100
0000
0010
0001
0010
0000
0001
0000
0100
0000
0010
0000
1000
0100
,
0000
0000
1000
0000
0010
0000
1000
0100
0000
0000
1000
0000
0010
0000
1000
0100
,
0000
0000
0100
0000
0010
0001
0010
0000
0001
0000
0100
0000
0010
0000
1000
0001
,
0000
1000
0001
0000
0010
0000
0100
0000
1000
0000
0010
0000
0100
0000
0001
0100
,
0000
0001
0100
0000
0010
0000
0000
0000
1000
0100
0010
0001
0000
0000
1000
0100
,
0010
0001
0000
0000
1000
0100
0010
0000
0001
0000
0100
0010
0100
0000
0000
0000
,
0010
0000
0000
0010
0000
0000
0010
0000
2000
0000
0010
0000
3001
0000
0000
0000
,
0002
0010
1003
0000
2000
0100
3010
0000
,
0002
0100
0013
0000
0002
0000
0010
0000
,
1000
0100
2003
0010
,
0001
0100
3002
0103
,
2000
3100
2002
0000
,
0000
0000
0000
0000
3003
0000
0000
0000
1000
0000
0001
0100
0000
0001
0100
0000
,
0010
0000
1000
0100
0000
1000
0100
0000
0001
0000
0100
0010
0000
0100
0010
0000
,
0001
0000
1000
0001
0000
1000
0001
0000
1000
0000
0010
0100
0000
0001
0100
0000
,
0010
0000
1000
0001
0000
1000
0001
0000
0010
0000
0001
1000
0000
0100
1000
0000
,
0010
0000
0100
0010
0000
0100
0010
0000
1000
0000
0100
0010
0000
0001
0010
0000
,
0001
0000
0000
0101
0000
0000
1001
0000
0001
0000
0100
0010
0000
1000
0010
0000
,
1000
0000
0000
1100
0000
0000
1001
0000
0001
0000
0000
0011
0000
0000
1010
0000
,
1000
0000
0000
1100
0000
0000
0101
0000
0001
0100
0001
0000
1000
0100
1000
0000
,
0010
0000
0000
0010
0000
0000
0010
0000
1000
0100
0010
0001
1000
0000
0100
0000
,
0010
0001
0100
0001
0010
0100
0001
0100
,
0010
0000
0100
0000
1000
0000
0100
0000
0010
0000
0000
0001
0000
0000
0001
0000
,
0100
0000
0010
1000
0000
0010
0100
0000
0001
0000
0000
1000
0001
0000
1000
0000
,
0010
0000
0100
0001
0000
1000
0100
0000
0010
0000
0001
0000
0100
0000
0010
0000
,
1000
1000
1000
1000
0001
0100
1000
0100
,
0001
0000
0000
0000
0100
0000
0000
0000
0001
0000
0000
0000
0010
0000
0000
0000
0001
0000
0000
0000
0010
0000
0000
0000
0001
0000
0000
0000
0000
0000
0010
0000
0000
0100
0000
0000
0000
0000
0000
0010
0000
0000
0100
0000
0000
0000
0000
0000
,
1000
0001
0000
1000
0001
0000
0000
0000
0200
0000
0000
0000
0000
0000
0000
0000
,
0310
0000
1000
0001
1000
0000
0000
0000
1010
0000
0000
0000
0000
0000
0000
0000
,
0101
0000
0011
0000
,
1000
0001
1000
0001
1000
0000
0000
0000
0101
0000
0000
0000
0000
0000
0000
0000
,
1010
0000
1100
0000
,
0001
1000
0001
1000
0001
0000
1000
0000
0100
0000
0010
0000
0001
0100
0000
0100
,
0010
0000
1000
0000
0010
0000
0100
0000
0001
0000
0010
0000
0100
1000
0100
1000
,
0002
0000
0000
0000
,
1003
0000
0010
0000
0001
0000
0010
0000
0100
0001
0100
0001
0100
0000
0010
0000
,
1000
0000
0000
0001
0100
0001
1000
0010
1000
0010
0000
0000
,
1000
0100
1000
0100
1000
0100
0010
0001
0010
0001
0000
0000
,
1001
0000
0000
0000
,
0000
0000
0000
0000
;
#NOTES:
     dance-single:
     :
     Challenge:
     17:
     :
0000
0000
0000
0000
,
0000
0000
0000
0000
,
0000
0000
0000
0000
,
0001
0010
0100
1000
0001
0000
1000
0100
0010
0002
0000
0000
0000
0000
0003
0000
,
1000
0010
0100
0001
1000
0000
0001
0100
0010
0000
2000
0000
3200
0000
0320
0000
,
0031
0100
0001
0100
,
0010
0000
1000
0000
0010
0000
1000
0001
,
1000
0100
1000
0100
,
0010
0000
0001
0000
0010
0000
0001
0100
,
0010
1000
0100
0001
,
0010
1000
0100
0001
,
0010
1000
0100
0010
0001
0100
0010
1000
,
0200
0000
0000
0000
0301
0000
0100
1000
0001
0100
0001
0000
1001
0000
0000
0000
1000
0000
0010
0000
0100
0000
0000
0000
0001
0000
0010
0000
0001
0000
0010
0000
,
0100
1000
0000
1000
0010
0000
0100
0000
0010
0100
0010
1000
0100
0010
0001
0000
,
0010
1000
0000
1000
0010
0000
0002
0000
0103
0000
0002
0000
0013
0100
0010
0001
,
0010
0100
0000
0100
1000
0000
0001
0000
0010
0000
1000
0000
0010
0000
0001
0000
,
0200
0000
0000
0010
0000
0000
0310
0000
0010
0100
0000
0000
0001
0100
0010
1000
,
0010
1000
0000
1000
0100
0000
0010
0000
0002
0000
0013
0100
0010
0100
0010
0000
,
0001
1000
0000
1000
0002
0000
0003
0000
1000
0010
1000
0010
0100
0010
0100
0001
,
0100
0001
1000
0001
1000
0000
0010
0000
1000
0100
1000
0100
0010
0100
0010
0001
,
0010
0000
0001
0000
1000
0000
0001
0000
1000
0000
0000
0000
0001
0000
0000
0000
0100
0000
0010
1000
0001
0100
0001
0100
0000
0010
0000
0010
1000
0000
0001
0000
,
1001
0000
1000
0100
0010
0000
0001
0010
0001
1000
0001
1000
0001
0000
0100
0000
0110
0000
0000
0000
0010
0000
0000
0000
1000
0000
0000
0000
0010
0000
0000
0000
,
0110
0010
0001
0010
0110
0101
0000
0101
,
1001
0000
0100
0000
1001
0000
0000
0000
2000
0000
0000
0000
3001
0100
0010
0100
,
0001
0100
0010
1000
0010
0000
1000
0000
0002
0000
0000
0000
1003
0100
0010
0100
,
1000
0100
0010
0001
1000
0000
0000
0000
0001
0100
0010
0100
0010
1000
0010
1000
,
0001
1000
0001
0010
0001
0000
0100
0000
0220
0000
0000
0000
0330
0000
0000
0000
,
1000
0100
0010
0001
1000
0100
0010
0001
1000
0100
0010
0000
0001
0100
0001
0100
,
0000
0010
1000
0000
0001
0010
0100
1000
0000
0100
0010
0000
0001
1000
0001
1000
,
0000
0000
1001
0000
1000
0010
0100
0000
0002
0000
2003
0000
3010
0100
0001
2000
,
0000
0000
3001
0000
0010
0100
1000
0002
0000
0000
1003
0000
0010
0100
0001
2000
,
0000
0000
3100
0000
0010
0001
0100
0010
1000
0000
0000
0000
1000
0010
1000
0010
,
0000
0010
0100
0000
0002
0000
0023
0000
0130
0000
1000
0000
0001
0010
0001
0010
,
0000
0010
0100
0000
2000
0000
3020
0000
1030
0100
1000
0001
0100
0001
1000
0100
,
1000
0001
0100
0001
1000
0010
1000
0001
0010
0001
1000
0010
1000
0001
0010
0001
,
1000
0000
0000
1000
0000
0000
1000
0000
0001
0100
0010
0000
1000
0100
1000
0100
,
0000
0010
0001
0000
1000
0010
0100
0001
0000
0100
0010
0000
1000
0001
1000
0001
,
0000
0000
1001
0000
0001
0010
0100
0000
2000
0000
3002
0000
0013
0100
1000
0002
,
0000
0000
1003
0000
0010
0100
0001
2000
0000
0000
3001
0000
0010
0100
1000
0002
,
0000
0000
0103
0000
0010
1000
0100
0010
0001
0000
0000
0000
0001
0010
0001
0010
,
0000
0010
0100
0000
2000
0000
3020
0000
0130
0000
0001
0000
1000
0010
1000
0010
,
0000
0010
0100
0000
0002
0000
0023
0000
0031
0100
0001
1000
0100
1000
0001
0100
,
0001
1000
0100
1000
0001
0010
0001
1000
0010
1000
0001
0010
0001
1000
0010
1000
,
0001
0010
0100
1000
0010
0100
0001
0000
2000
0000
0000
0000
0000
0000
0000
0000
,
0000
3000
0002
0000
,
0000
0000
0000
0000
0003
0000
0000
0000
1000
0000
0000
0010
0000
0000
1000
0000
,
0100
0000
0000
0010
0000
0000
0001
0000
0100
0000
0000
0001
0000
0000
0100
0000
,
0001
0000
0000
0010
0000
0000
0100
0000
1000
0000
0010
1000
0000
0000
1010
0000
,
0001
0000
0010
0001
0000
0000
0011
0000
0001
0000
0100
0001
0000
0000
0101
0000
,
1000
0000
0000
0100
0000
0000
1100
0000
1000
0100
0010
0001
0000
0100
0010
0000
,
1000
0100
0010
0001
0000
0100
0010
0000
1000
0010
0100
0001
0000
0010
0100
0000
,
1000
0010
0100
0001
0000
0010
0100
0000
1000
0010
1000
0001
0000
0010
0100
0000
,
1000
0010
1000
0001
0000
0010
0100
0000
1000
0001
0100
0001
0000
0010
0100
0000
,
1000
0001
0100
0001
0000
0010
0100
0000
1000
0010
0100
0010
1000
0001
0010
0001
,
1000
0000
0000
1000
0000
0000
1000
0000
0001
0010
0100
0010
0001
1000
0010
1000
,
0001
0000
0000
0001
0000
0000
0001
0000
0100
0000
0010
1000
0000
0000
1010
0000
,
1000
0000
0100
0010
0000
0000
0011
0000
0001
0010
0100
1000
0100
0010
0001
1000
,
0100
0000
0000
0110
0000
0000
0110
0000
0010
0001
0100
0010
1000
0000
0100
0000
,
0010
0000
0001
0100
0000
0100
0001
0000
0010
0000
0100
1000
0000
1000
0100
0000
,
0010
0000
0001
1000
0000
1000
0001
0000
0100
0000
0010
1000
0000
1000
0010
0000
,
0110
0000
0000
0101
0000
0000
1001
0000
1000
0000
0100
0010
0000
0010
0001
0000
,
1000
0000
0001
0100
0000
0100
0010
0000
1000
0000
0001
0100
0000
0001
0100
0000
,
0010
1000
0010
0000
0010
1000
0010
0000
1000
0000
0100
0010
0000
0100
0010
0000
,
0001
0000
0000
0000
1000
0000
0000
0000
0100
0000
0000
0000
0001
0000
0000
0000
0100
0000
0000
0000
1000
0000
0000
0000
0001
0000
0000
0000
0000
0000
0100
0000
0000
0010
0000
0000
0000
0000
0000
0010
0000
0000
1000
0000
0000
0000
0000
0000
,
1000
0100
0000
0100
0010
0000
0001
0000
0200
0000
0000
0000
0000
0000
0000
0000
,
0000
0000
0000
0000
0300
0000
0000
0000
1001
0000
0000
0000
0001
0100
0010
0000
,
1001
0000
0000
0000
1000
0100
0010
0000
1001
0000
0000
0000
0001
0010
0100
0000
,
1000
0010
0100
0001
1000
0010
0100
0001
1000
0000
0000
0000
0001
1000
0010
0000
,
0110
0000
0000
0000
1000
0001
0010
0000
0110
0000
0000
0000
0001
1000
0100
0000
,
0010
0001
0010
0000
0001
0000
0000
0000
1000
0000
0000
0000
0001
0100
0001
0100
,
0010
1000
0001
1000
0010
0000
0100
0000
2000
0000
0000
0000
3100
0001
0100
0001
,
2000
3200
0302
0203
,
1300
0000
0000
0000
0001
0010
0001
0010
0100
1000
0100
1000
0001
0000
0100
0000
,
0110
0000
0000
1000
0010
0100
0001
0010
0100
1000
0000
0000
,
0001
0100
0010
1000
0100
0010
0001
0100
0010
0110
0000
0000
,
1001
0000
0000
0000
,
0000
0000
0000
0000
;
#NOTES:
     dance-double:
     :
     Easy:
     8:
     :
00000000
00000000
00000000
00000000
,
00000000
00000000
00000000
00000000
,
00000000
00000000
00000000
00000000
,
00000000
00000000
00000000
00000000
,
00000000
00000000
00000000
00000000
,
00001000
00000000
00010000
00000000
,
00001000
00010000
00001000
00100000
,
00010000
00000000
00010000
00000000
,
00100000
00010000
10000000
00000000
,
00010000
10000000
00010000
10000000
,
01000000
00100000
01000000
00100000
,
00001000
00010000
00001000
00010000
,
00001000
00000000
00011000
00000000
,
00010000
00001000
00010000
00000100
,
00001000
00000000
00001001
00000001
,
00000010
00000100
00001000
00001000
,
00000001
00000000
00001000
00000001
,
00000100
00000010
00010000
00001000
,
00010000
00000000
00001000
01000000
,
00010000
00100000
00010000
01000000
,
00100000
00000000
20000000
30010000
,
10000000
01000000
00100000
00000000
00010000
00000000
10000000
00000000
,
00010000
01000000
00001000
00010000
,
00001000
00000000
00010000
00000100
,
00001000
00000000
00000001
00001000
,
00000010
00000000
00001000
00000100
,
00000010
00000001
00000100
00000010
,
00001000
00000000
00000010
00010000
,
00001000
00010000
00000010
00010000
,
00001000
00010000
00001000
00000000
00100000
00000000
00010000
00000000
,
01000000
00001000
00100000
00010000
,
01000000
00100000
01000000
00000000
00010000
00000000
00100000
00000000
,
10000000
00100000
00010000
10000000
,
01000000
00100000
01000000
00000000
00100000
00000000
00100000
00000000
,
00001000
00000000
00001000
00000000
00010000
00001000
00010000
00000000
,
00001000
00000000
00001000
00010000
,
00000100
00001000
00000010
00010000
,
00000100
00001000
00000100
00000000
00001000
00000000
00000010
00000000
,
00000001
00000010
00001000
00000001
,
00000010
00000100
00000010
00000000
00000001
00000000
00001000
00000000
,
00000100
00000000
00000100
00010000
,
00001000
00000000
00010000
00001000
,
01000000
00000000
00010000
00000000
00100000
01000000
00100000
00000000
,
00010000
00000000
20000000
00000000
,
00000000
30000000
02000000
00000000
,
00000000
03000000
00200000
00000000
,
00000000
00300000
00002000
00000000
,
00000000
00000000
00003000
00000000
00010000
00001000
00010000
00000000
,
00001000
00010000
00001000
00000000
00022000
00000000
00000000
00000000
,
00000000
00033000
00001000
00010000
,
00000010
00001000
00000100
00010000
,
00001000
00010000
00001000
00000000
00010000
00000000
00000100
00000000
,
00001000
00000001
00000100
00001000
,
00000100
00000010
00002000
00003010
,
00000020
00010030
00020000
00031000
,
00002000
01003000
01010000
00000000
,
00110000
00000000
11000000
00000000
,
10100000
00000000
20000000
30010000
,
00100000
00010000
00100000
00000000
00010000
00000000
01000000
00000000
,
00001000
00010000
00001000
00000000
00010000
00000000
00000100
00000000
,
00001000
00000010
00001000
00000000
00000100
00000000
00000010
00000000
,
00000001
00001000
00000001
00000000
00000100
00000000
00001000
00000000
,
00011000
00000000
00010000
00100000
,
01100000
00000000
00100000
10000000
,
00010000
01000000
00200000
00000000
,
00000000
00300000
01100000
00000000
,
00000000
00000000
01100000
00000000
,
00000000
00000000
10010000
00000000
,
00000000
00000000
10010000
00000000
,
00000000
00000000
10000000
00100000
,
01000000
00010000
01000000
00000000
00001000
00000000
00010000
00000000
,
00011000
00000000
00000000
00000000
,
00011000
00000000
00001000
00010000
,
00000100
00001000
00001000
00001000
,
00000010
00000010
00000010
00000000
,
00001001
00000000
00000000
00000000
,
00000000
00000000
00000000
00000000
;
#NOTES:
     dance-double:
     :
     Medium:
     12:
     :
00000000
00000000
00000000
00000000
,
00000000
00000000
00000000
00000000
,
00000000
00000000
00000000
00000000
,
00000000
00000000
00000000
00000000
,
00000000
00000000
00000000
00000000
,
00010000
00001000
00010000
00001000
,
01000000
00000000
00010000
00000000
01000000
00000000
00010000
01000000
,
00100000
10000000
00100000
10000000
,
01000000
00000000
00100000
00000000
01000000
00000000
00100000
00010000
,
00100000
00001000
00100000
00001000
00010000
00001000
00010000
00000000
,
00001000
00010000
00001000
00010000
00000100
00001000
00000100
00000000
,
00001000
00000010
00000100
00000001
00000010
00000100
00001000
00000000
,
00000002
00000000
00000000
00000003
00001001
00000000
00000001
00000100
,
00000001
00000100
00000010
00000000
00000100
00000010
00000100
00001000
,
00010000
00000000
00001000
00000000
00011000
00000000
00010000
00001000
,
00100000
00010000
01000000
00100000
10000000
00100000
00010000
00100000
,
10000000
00000000
00000000
00010000
00000000
00000000
10000000
00000000
10010000
00000000
00000000
00000000
10000000
00000000
01000000
00000000
,
10000000
01000000
00100000
00000000
01000000
00100000
01000000
00010000
,
00001000
00000000
00000000
00000000
00011000
00000000
00000000
00000000
00001000
00000000
00000000
00010000
00000000
00000000
00000100
00000000
,
00000000
00001000
00000000
00000000
00000010
00000000
00001000
00000000
00000100
00000000
00000000
00000010
00000000
00000000
00001000
00000000
,
00000000
00000000
00000010
00000000
00000000
00000000
00000000
00000000
00000001
00000000
00000000
00000000
00000000
00000000
00000000
00000000
00001000
00000000
00000000
00000000
00000001
00000000
00000000
00000100
00000000
00000000
00000100
00000000
00000010
00000000
00000000
00000000
,
00010000
00000000
00000000
00000000
00001000
00000000
00000000
00100000
00000000
00000000
00100000
00000000
00010000
00000000
00000000
00000000
01000000
00000000
00000000
00000000
00100000
00000000
00000000
00000000
10000000
00000000
00000000
00000000
00100000
00000000
00000000
00000000
,
01000000
00010000
00100000
00000000
01000000
00010000
00001000
00000000
,
00011000
00000000
00020000
00032000
,
00003010
00000001
00000010
00000000
00002000
00000000
00023000
00000000
,
01030000
10000000
01000000
00000000
10000000
00100000
01000000
00010000
,
10000000
01000000
00100000
00000000
00001000
00010000
00000100
00001000
,
00000001
00000000
00000000
00000001
00000000
00000000
00000001
00000000
00001000
00000000
00000100
00000000
00000010
00000000
00000001
00000000
,
00000100
00000010
00001000
00000100
00000010
00000001
00000100
00000000
,
00001000
00010000
00001000
00000000
00010000
00100000
01000000
00100000
,
10000000
00100000
01000000
00100000
00010000
00100000
10000000
00000000
,
00010000
01000000
00100000
00000000
10000000
01000000
10000000
01000000
,
00100000
00010000
00100000
00000000
00001000
00010000
00001000
00010000
,
00000100
00001000
00000100
00000000
00000010
00000001
00000100
00000010
,
00001000
00000100
00010000
00001000
00100000
00010000
01000000
00100000
,
10000000
00000000
00000000
00010000
00000000
00000000
10000000
00000000
00000000
00000000
00000000
00000000
00010000
00000000
10000000
00000000
,
01000000
00100000
00010000
01000000
00100000
10000000
01000000
00000000
,
00010000
00001000
00010000
00000000
00001000
00000010
00000100
00000010
,
00000001
00000010
00000100
00000010
00001000
00000010
00000001
00000000
,
00001000
00000100
00000010
00000000
00000001
00000100
00000001
00000100
,
00000010
00001000
00000010
00000000
00010000
00001000
00010000
00001000
,
01000000
00010000
01000000
00000000
00100000
10000000
01000000
00100000
,
00010000
01000000
00001000
00010000
00000010
00001000
00000100
00000010
,
00000001
00000000
00000000
00001000
00000000
00000000
00000001
00000000
00000020
00000000
00000000
00000000
00000000
00000000
00000030
00000000
,
00000200
00000000
00000000
00000300
00020000
00000000
00000000
00030000
,
00002000
00000000
00000000
00003000
02000000
00000000
00000000
00000000
,
03010000
00010000
00200000
00000000
,
01300000
01000000
10000000
00100000
,
00010000
00001000
00022000
00000000
,
00000000
00000000
00033000
00000000
00001000
00010000
00000100
00001000
,
00000010
00000100
00001000
00000100
00000010
00001000
00000100
00010000
,
00001000
00100000
00010000
00000000
01000000
00100000
00010000
00100000
,
00010000
00001000
00000100
00000010
00001000
00000100
00010000
00000100
,
00001000
00000010
00000100
00000000
00000010
00001000
00000010
00010000
,
00001000
00100000
00010000
00000000
01000000
00010000
01000000
00001000
,
00010000
00000000
00000100
00000000
00001000
00000000
00000000
00000000
00000010
00000000
00000000
00000010
00000000
00000000
00000010
00000000
,
00000100
00000000
00000000
00000100
00000000
00000000
00000100
00000000
00001000
00000000
00000000
00001000
00000000
00000000
00001000
00000000
,
00010000
00000000
00000000
00010000
00000000
00000000
00010000
00000000
00200000
00000000
00000000
00000000
10300000
00000000
00000000
00000000
,
00010000
00100000
01000000
10000000
01000000
00100000
01000000
00100000
,
00010000
00100000
00001000
00000000
00010000
00000100
00010000
00000100
,
00001000
00000000
00000000
00001000
00000000
00000000
00001000
00000000
00000010
00000000
00000100
00000000
00000001
00000000
00001000
00000000
,
00000010
00000100
00000001
00000000
00000010
00000100
00001000
00000100
,
00000010
00000000
00000110
00000000
00000100
00001000
00000100
00010000
,
00002000
00000000
00000000
00000000
00003000
00000000
00000000
00000000
00010000
00000000
00000000
00001000
00000000
00000000
01000000
00000000
,
00000000
00010000
00000000
00000000
00100000
00000000
00000000
00000000
01000000
00000000
00000000
10000000
00000000
00000000
00010000
00000000
,
02000000
03100000
01100000
00000000
,
10010000
00000000
01100000
00000000
,
00011000
00011000
00011000
00000000
,
00000110
00000000
00000110
00000000
,
00000001
00001000
00000001
00000000
00002000
00000000
00003002
00000000
,
00000013
00000100
00000010
00000000
00000001
00000100
00001000
00000000
,
00020000
00000000
00000000
00000000
,
00031000
00000000
00011000
00000000
00010000
00001000
00100000
00000000
,
00010000
00000000
00000000
00100000
00000000
00100000
01000000
00000000
01000000
10000000
00000000
00000000
,
01000000
00000000
01000000
00010000
00000000
00010000
00001000
00000000
00001000
00000010
00000000
00000000
,
00000110
00000000
00000000
00000000
,
00000000
00000000
00000000
00000000
;
#NOTES:
     dance-double:
     :
     Hard:
     15:
     :
00000000
00000000
00000000
00000000
,
00000000
00000000
00000000
00000000
,
00000000
00000000
00000000
00000000
,
00000000
00000000
00000000
00000000
,
00000000
00000000
00000000
00000000
,
00001000
00010000
00001000
00000000
00010000
00001000
00010000
00000000
,
00001000
00100000
00001000
00000000
00100000
00010000
00100000
00000000
,
00010000
01000000
00010000
00000000
10000000
01000000
10000000
00000000
,
00010000
00100000
01000000
10000000
01000000
00100000
00001000
00000000
,
00010000
00000100
00010000
00000100
00001000
00000100
00001000
00000100
,
00000010
00000001
00000010
00000001
00000100
00000001
00000100
00000000
,
00000010
00001000
00000010
00000000
00001000
00000001
00001000
00000000
00000100
00001000
00000100
00000000
00010000
00001000
00010000
00000000
,
00002000
00000000
00000000
00000000
00003000
00000000
00000000
00000000
00010000
00001000
00010000
00001000
00010000
00000000
00000000
00000000
00011000
00000000
00000000
00000000
00000000
00000000
00000000
00000000
00001000
00000000
00000000
00000000
00010000
00000000
00000000
00000000
,
00100000
01000000
00000000
00100000
10000000
00000000
00000000
00000000
00010000
00100000
00000000
01000000
10000000
00000000
00010000
00000000
,
10000000
01000000
00010000
00000000
00001000
00000010
00000001
00000010
,
00001000
00000000
00010000
00001000
00010000
00000000
00001000
00000000
00000100
00000000
00000010
00001000
00000010
00000000
00000100
00000001
,
00000100
00000000
00000000
00000001
00000000
00000000
00001000
00000000
00000002
00000000
00000000
00000000
00000103
00000010
00000100
00000000
,
00000001
00000010
00000000
00000100
00001000
00000000
00000000
00000000
00000002
00000000
00000203
00000000
00002300
00000000
00023000
00000000
,
00230000
00000000
20300000
00000000
30010000
00000000
00000000
00000000
10000000
00000000
01000000
00100000
00000000
01000000
00100000
00000000
,
00010000
00100000
00000000
00010000
00100000
00000000
00001000
00000000
00010000
00000000
00000100
00001000
00000000
00000100
00001000
00000000
,
00000001
00000000
00000010
00000000
00000000
00000000
00000001
00000000
00000010
00000000
00000000
00000000
00000000
00000000
00000000
00000000
00000001
00000000
00000100
00000000
00000010
00000000
00001000
00000010
00000000
00010000
00001000
00000000
00010000
00000000
00000000
00000000
,
00001000
00000000
01000000
00000000
00010000
00000000
00100000
01000000
00000000
00100000
00010000
00000000
10000000
00000000
00000000
00000000
00010000
00000000
00000000
00000000
01000000
00000000
00000000
00000000
00001000
00000000
00000000
00000000
00100000
00000000
00000000
00000000
,
00010000
01000000
00100000
10000000
01000000
01100000
00000000
00100000
,
00001000
00010000
00011000
00000000
00002000
00000000
00003200
00000000
,
00000301
00000010
00001000
00000000
00020000
00000000
02030000
00000000
,
13000000
00000000
00100000
00000000
00010000
00000000
00000000
00000000
00001000
00000000
00010000
00000010
00000000
00010000
00000010
00000000
,
00001000
00000010
00000000
00001000
00000010
00000000
00000100
00000000
00000001
00000000
00000010
00000100
00000000
00000010
00000100
00000000
,
00001000
00000001
00000000
00001000
00000001
00000000
00000000
00000000
00001000
00000100
00001000
00000000
00000001
00000000
00000100
00000000
,
00000010
00001000
00000010
00000100
00001000
00010000
00100000
00010000
,
00001000
00000000
00010000
00000000
00100000
00000000
00000000
00000000
10000000
00000000
01000000
00000000
00010000
00000000
00001000
00010000
,
00000000
00000000
01000000
00000000
00010000
00000000
00001000
00010000
00000000
00000000
01000000
00000000
00010000
00000000
00001000
00010000
,
00000000
00000000
00001000
00000000
00011000
00000000
00000000
00000000
00010000
00000000
00001000
00000000
00000010
00000000
00000001
00000010
,
00000000
00000001
00001000
00000000
00000010
00000000
00000100
00000000
00000001
00000000
00000100
00000000
00001000
00000000
00000100
00000010
,
00000000
00000100
00000010
00000000
00001000
00000000
00000000
00000000
00000001
00000100
00000001
00000000
00000010
00000000
00000100
00001000
,
00000100
00000000
00010000
00000000
00001000
00010000
00001000
00000000
00100000
00000000
00010000
01000000
00010000
00000000
00100000
00000000
,
01000000
00000000
00000000
01000000
00000000
00000000
01000000
00000000
00000000
00000000
00000000
00000000
10000000
00000000
01000000
00000000
,
00100000
00010000
00100000
01000000
00010000
00001000
00000010
00001000
,
00010000
00000000
00001000
00000000
00000010
00000000
00000000
00000000
00000001
00000000
00000100
00000000
00001000
00000000
00010000
00001000
,
00000000
00000000
00000100
00000000
00001000
00000000
00010000
00001000
00000000
00000000
00000100
00000000
00001000
00000000
00010000
00001000
,
00000000
00000000
00010000
00000000
00011000
00000000
00000000
00000000
00001000
00000000
00010000
00000000
00100000
00000000
10000000
00100000
,
00000000
10000000
00010000
00000000
00100000
00000000
01000000
00000000
10000000
00000000
01000000
00000000
00010000
00000000
01000000
00100000
,
00000000
01000000
00100000
00000000
00010000
00000000
00000000
00000000
10000000
01000000
10000000
00000000
00100000
00000000
01000000
00010000
,
01000000
00000000
00001000
00000000
00010000
00001000
00010000
00000000
00000010
00000000
00001000
00000100
00001000
00000000
00000010
00000000
,
00000100
00000000
00000000
00000100
00000000
00000000
00000100
00000000
00000002
00000000
00000010
00000000
00002003
00000000
00000010
00000000
,
00003200
00001000
00020300
00000100
00032000
00010000
00203000
00010000
,
02300000
10000000
03200000
00310000
00010000
10000000
01000000
00100000
,
00010000
10000000
01000000
00000000
00100000
00001000
00010000
00000100
,
00001000
00000010
00000100
00000000
00000001
00000100
00001000
00000000
,
00010000
00100000
10000000
00000000
02200000
00000000
00000000
00000000
,
00000000
00000000
00000000
00000000
03300000
00000000
00000000
00000000
10000000
00000000
00010000
01000000
00000000
00010000
01000000
00000000
,
00100000
00000000
10000000
01000000
00000000
10000000
01000000
00000000
00100000
00000000
00001000
00010000
00000000
00001000
00010000
00000000
,
00000100
00000000
00001000
00000010
00000000
00001000
00000010
00000000
00000100
00000000
00000001
00000010
00000000
00000001
00000010
00000000
,
00000100
00000000
00001000
00000010
00000000
00001000
00000010
00000000
00000100
00000000
00000001
00000000
00000010
00000000
00001000
00000000
,
00010000
00000000
01000000
00000000
10000000
00000000
00000000
00000000
00010000
00000000
10000000
01000000
00000000
00100000
00010000
00000000
,
01000000
00000000
00000000
01010000
00000000
00000000
01001000
00000000
00001000
00000000
00010000
00000100
00000000
00010000
00001000
00000000
,
00010000
00000000
00000000
00010010
00000000
00000000
00001010
00000000
00001000
00000000
00000100
00000010
00000000
00000000
00000001
00000000
,
00000100
00000000
00001000
00010000
00000000
00000000
00011000
00000000
00001000
00010000
00001000
00000000
00100000
00010000
00100000
00000000
,
00010000
00000000
01000000
00000000
10000000
00000000
01000000
00000000
00010000
01000000
00010000
01000000
00010000
00000000
10000000
00000000
,
01000000
00010000
01000000
10000000
00100000
01000000
00100000
00010000
,
00001000
00000000
00000100
00000000
00000010
00000000
00000100
00000000
00000001
00000000
00000000
00000010
00000000
00000000
00000010
00000000
,
00001000
00000000
00000000
00010000
00000000
00000000
01000000
00000000
10000000
00000000
00000000
00100000
00000000
00000000
00100000
00000000
,
00010000
00000000
00000000
00001000
00000000
00000000
00000100
00000000
00000001
00000000
00000010
00000100
00000000
00001000
00000100
00000000
,
00010000
00000000
00010000
00000000
00010000
00000000
00010000
00000000
00001000
00000000
01000000
00010000
00000000
00100000
01000000
00000000
,
00100000
00000000
00000000
00000000
00010000
00000000
00000000
00000000
00100000
00000000
00000000
00000000
00010000
00000000
00000000
00000000
10000000
00000000
00000000
00000000
00010000
00000000
00000000
00000000
10000000
00000000
00000000
00000000
00000000
00000000
00100000
00000000
00000000
01000000
00000000
00000000
00000000
00000000
00000000
00010000
00000000
00000000
01000000
00000000
00000000
00000000
00000000
00000000
,
00010000
00100000
00000000
00001000
00100000
00000000
00000000
00000000
00002000
00000000
00000000
00000000
00000000
00000000
00000000
00000000
,
00013000
00000000
00001000
00010000
00001000
00000000
00000000
00000000
00011000
00000000
00000000
00000000
00000000
00000000
00000000
00000000
,
00000110
00000000
00001001
00000000
,
00000001
00001000
00000001
00001000
00000001
00000000
00000000
00000000
00000110
00000000
00000000
00000000
00000000
00000000
00000000
00000000
,
00011000
00000000
01100000
00000000
,
10000000
00010000
10000000
00010000
10000000
00000000
00010000
00000000
00100000
00000000
01000000
00000000
10000000
00010000
00000000
00010000
,
01000000
00000000
00100000
00000000
00010000
00000000
00001000
00000000
00010000
00000000
00000100
00010000
00000100
00000000
00010000
00001000
,
00020000
00000000
00000000
00000000
,
00031000
00000000
00000000
00000000
00010000
00000100
00010000
00000000
00000100
00001000
00000100
00000000
00000010
00000001
00000010
00000000
,
00000001
00000000
00000000
00000001
00000100
00000010
00001000
00000100
00010000
00001000
00000000
00000000
,
00100000
00010000
10000000
00100000
01000000
00010000
00100000
00001000
00010000
00001000
00000000
00000000
,
00011000
00000000
00000000
00000000
,
00000000
00000000
00000000
00000000
;
#NOTES:
     dance-double:
     :
     Challenge:
     17:
     :
00000000
00000000
00000000
00000000
,
00000000
00000000
00000000
00000000
,
00000000
00000000
00000000
00000000
,
00001000
00000000
00010000
00000000
00100000
01000000
00100000
00000000
10000000
00000000
00010000
00000000
00100000
01000000
00100000
00000000
,
00001000
00000000
00010000
00000000
00000100
00000010
00000100
00000000
00001000
00000000
00000002
00000000
00000023
00000000
00000230
00000000
,
00001300
00001000
00000100
00000100
,
00010000
00010000
00001000
00001000
,
00100000
00100000
00010000
00010000
,
01000000
01000000
00100000
00100000
,
10000000
01000000
00100000
00000000
00010000
01000000
00100000
00000000
,
10000000
01000000
00010000
00000000
00001000
00000010
00000001
00000000
,
00001000
00000010
00001000
00000010
00010000
00001000
00010000
00001000
,
00020000
00000000
00000000
00000000
00031000
00000000
00100000
00010000
00100000
00000000
00010000
01000000
00010000
00000000
00000000
00000000
01100000
00000000
00000000
00000000
00000000
00000000
00000000
00000000
10000000
00000000
00100000
00000000
10000000
00000000
00100000
00000000
,
01000000
00010000
00000000
00010000
00100000
00000000
01000000
00000000
00100000
00010000
00100000
00001000
00010000
00001000
00010000
00000000
,
00000100
00001000
00000000
00001000
00000010
00000000
00000200
00000000
00001300
00000000
00000200
00000000
00000301
00000010
00000001
00000010
,
00000100
00001000
00000000
00001000
00000001
00000000
00000100
00000000
00000010
00000000
00001000
00000000
00010000
00000000
01000000
00000000
,
00200000
00000000
00000000
01000000
00000000
00000000
01300000
00000000
01100000
00000000
00000000
00000000
00100000
10000000
00100000
00000000
,
01000000
00010000
00000000
00010000
10000000
00000000
02000000
00000000
03100000
00010000
00100000
00001000
00010000
00001000
00010000
00000000
,
00000100
00001000
00000000
00001000
00000020
00000000
00000030
00000000
00000100
00000001
00000100
00000010
00001000
00000010
00010000
00001000
,
00010000
00001000
00100000
00001000
00010000
00000000
00001000
00000000
00010000
00000000
00100000
10000000
00000000
10000000
01000000
00000000
,
01000000
00000000
00010000
00000000
00000000
00000000
00010000
00000000
00001000
00000000
00000000
00000000
00000010
00000000
00000000
00000000
00000001
00000000
00000100
00000001
00001000
00000100
00001000
00000100
00000000
00000010
00000000
00000010
00000001
00000000
00001000
00000000
,
00000020
00000000
00000000
00000000
00000130
00000001
00001000
00000001
00000100
00000000
00000010
00001000
00000010
00010000
00001000
00000000
00011000
00000000
00000000
00000000
00010000
00000000
00000000
00000000
01000000
00000000
00000000
00000000
00100000
00000000
00000000
00000000
,
00101000
00001000
01000000
00100000
00010000
00011000
00000000
00010010
,
00001010
00000000
00001000
00000000
00000001
00000000
00000000
00000000
00002000
00000000
00000000
00000000
00003010
00000100
00000010
00001000
,
00000010
00000100
00000010
00000000
00010000
00000000
00001000
00000000
00200000
00000000
00000000
00000000
00310000
10000000
00010000
01000000
,
00010000
10000000
00010000
00000000
01000000
00000000
00000000
00000000
00100000
10000000
00100000
01000000
00010000
01000000
00001000
00010000
,
00001000
00010000
00000100
00010000
00000100
00000000
00001000
00000000
00000001
00000010
00000100
00000000
00001000
00000010
00000100
00000000
,
00000010
00010000
00000010
00010000
00001000
00010000
00001000
00010000
00001000
00000000
00010000
00000000
00001000
01000000
00010000
01000000
,
00000000
00100000
10000000
00000000
00010000
00100000
01000000
10000000
00000000
01000000
00100000
00000000
00010000
10000000
00010000
10000000
,
00000000
00000000
01000000
00000000
00010000
00000000
00001000
00000000
00000020
00000000
00000031
00000000
00000100
00000000
00001000
00000100
,
00000000
00000001
00000020
00000000
00001030
00000000
00010000
01000000
00000000
10000000
00020000
00000000
01030000
00000000
10000000
01000000
,
00000000
00010000
01000000
00000000
00001000
00010000
00001000
00000000
00011000
00000000
00000000
00000000
00010000
00000010
00010000
00000010
,
00000000
00000010
00001000
00000000
00000200
00000000
00000320
00000000
00000031
00000000
00000100
00000000
00000010
00001000
00000010
00001000
,
00000000
00001000
00000100
00000000
00020000
00000000
00031000
00000000
00100000
00001000
00100000
00001000
00010000
00000000
00000010
00010000
,
00000010
00010000
00001000
00000000
01000000
00001000
01000000
00001000
00010000
00000000
00000100
00010000
00000100
00010000
00001000
00000000
,
00010000
00001000
00100000
00010000
10000000
00100000
01000000
00010000
10000000
00000000
00100000
00000000
10000000
01000000
10000000
01000000
,
00000000
00100000
00010000
00000000
00100000
00001000
00010000
00001000
00000000
00001000
00010000
00000000
00000010
00001000
00000010
00001000
,
00000000
00000000
00000100
00000000
00000010
00000001
00000010
00000000
00000002
00000000
00002003
00000000
00003010
00000100
00000001
00002000
,
00000000
00000000
00003010
00000000
00001000
00000010
00010000
00002000
00000000
00000000
00013000
00000000
00001000
00100000
00010000
00200000
,
00000000
00000000
01300000
00000000
10000000
00010000
10000000
00010000
10000000
00000000
00000000
00000000
00010000
10000000
01000000
00100000
,
00000000
00100000
00010000
00000000
00200000
00000000
00302000
00000000
00013000
00000000
00000100
00000000
00001000
00000010
00001000
00000010
,
00000000
00000010
00000100
00000000
00000002
00000000
00002003
00000000
00003001
00000010
00000001
00000010
00000100
00001000
00000100
00001000
,
00000100
00010000
00001000
00010000
00001000
00100000
00001000
00000000
00010000
00001000
01000000
00010000
01000000
00100000
10000000
00010000
,
00100000
01000000
10000000
00100000
01000000
00010000
10000000
00000000
02000000
00000000
00000000
00000000
00000000
00000000
00000000
00000000
,
00000000
03000000
00200000
00000000
,
00000000
00000000
00000000
00000000
00300000
00000000
00000000
00000000
00100000
00000000
00000000
00001000
00000000
00000000
00010000
00000000
,
00001000
00000000
00000000
00010000
00000000
00000000
00000010
00000000
00000100
00000000
00000000
00000010
00000000
00000000
00001000
00000000
,
00000100
00000000
00000000
00010000
00000000
00000000
00001000
00000000
00100000
00000000
00010000
01000000
00000000
00000000
01100000
00000000
,
00100000
00000000
10000000
00010000
00000000
00000000
00110000
00000000
00100000
00000000
00001000
00010000
00000000
00000000
00011000
00000000
,
00001000
00000000
00000000
00010000
00000000
00000000
00000100
00000000
00001000
00000100
00000010
00000001
00000000
00000100
00000010
00000000
,
00001000
00000100
00000010
00000001
00000000
00000100
00000010
00000000
00001000
00000000
00000001
00000000
00000010
00000000
00001000
00000000
,
00010000
01000000
00100000
00000000
00010000
01000000
00100000
00000000
10000000
00100000
01000000
00010000
00000000
00100000
01000000
00000000
,
10000000
00100000
01000000
00010000
00000000
00100000
01000000
00000000
10000000
00000000
00100000
00000000
00010000
00000000
00001000
00000000
,
00000100
00000010
00001000
00000000
00000100
00000010
00001000
00000000
00000010
00000001
00000010
00000001
00001000
00000010
00001000
00000010
,
00000100
00000000
00000000
00000100
00000000
00000000
00000100
00000000
00000010
00010000
00000010
00010000
00001000
00010000
00001000
00010000
,
00001000
00000000
00000000
00001000
00000000
00000000
00001000
00000000
00100000
00000000
00010000
01000000
00000000
00000000
01010000
00000000
,
00100000
00000000
10000000
01000000
00000000
00000000
11000000
00000000
10000000
01000000
10000000
01000000
00100000
00001000
00100000
00001000
,
00010000
00000000
00000100
00001000
00000000
00001000
00000001
00000000
00001000
00000001
00001000
00000001
00001000
00000000
00000001
00000000
,
00000100
00000000
00001000
00010000
00000000
00010000
00100000
00000000
10000000
00000000
01000000
00010000
00000000
00010000
00001000
00000000
,
00000010
00000000
00000001
00001000
00000000
00001000
00000001
00000000
00000010
00000000
00001000
00010000
00000000
00010000
01000000
00000000
,
10000000
00000000
00100000
10000000
00000000
00100000
10000000
00000000
00100000
00000000
00010000
00001000
00000000
00001000
00000100
00000000
,
00000001
00000000
00000010
00000001
00000000
00000010
00000001
00000000
00001000
00000000
00000100
00000010
00000000
00000100
00000010
00000000
,
00000001
00000100
00000001
00000000
00001000
00000100
00001000
00000000
00000001
00000000
00000100
00001000
00000000
00001000
00010000
00000000
,
00100000
00000000
00000000
00000000
10000000
00000000
00000000
00000000
00010000
00000000
00000000
00000000
01000000
00000000
00000000
00000000
10000000
00000000
00000000
00000000
01000000
00000000
00000000
00000000
00010000
00000000
00000000
00000000
00000000
00000000
10000000
00000000
00000000
01000000
00000000
00000000
00000000
00000000
00000000
01000000
00000000
00000000
00010000
00000000
00000000
00000000
00000000
00000000
,
00010000
00001000
00000000
00001000
00000010
00000000
00000001
00000000
00002000
00000000
00000000
00000000
00000000
00000000
00000000
00000000
,
00000000
00000000
00000000
00000000
00003000
00000000
00000000
00000000
00001001
00000000
00000000
00000000
00000001
00000100
00000010
00000000
,
00001010
00000000
00000000
00000000
00001000
00000100
00010000
00000000
00011000
00000000
00000000
00000000
00001000
00100000
00010000
00000000
,
00100000
01000000
00100000
01000000
10000000
00010000
10000000
00010000
10000000
00000000
00000000
00000000
00010000
01000000
00100000
00000000
,
01100000
00000000
00000000
00000000
01000000
00001000
00010000
00000000
00011000
00000000
00000000
00000000
00001000
00010000
00000100
00000000
,
00001000
00000010
00001000
00000000
00000100
00000000
00000000
00000000
00000110
00000000
00000000
00000000
00000010
00000001
00000010
00000001
,
00001000
00000100
00000000
00000100
00010000
00001000
00010000
00000000
00002000
00000000
00000000
00000000
00013000
00100000
10000000
00000000
,
00020000
02030000
23000000
32000000
,
03010000
00000000
00000000
00000000
10000000
01000000
00000000
01000000
00100000
00010000
00000000
00010000
00100000
00000000
00001000
00000000
,
00011000
00000000
00000000
00010000
00001000
00000010
00000001
00000010
00001000
00010000
00000000
00000000
,
00001000
00010000
00100000
10000000
00100000
00010000
00001000
00010000
00001000
00010000
00000000
00000000
,
00011000
00000000
00000000
00000000
,
00000000
00000000
00000000
00000000
;
