
//----- song ID: blli -----//
#TITLE:Blinding Lights;
#ARTIST:The Weeknd;
#BANNER:Blinding Lights.png;
#BACKGROUND:Blinding Lights-bg.png;
#CDTITLE:./CDTitles/DDR WORLD.png;
#MUSIC:Blinding Lights.ogg;
#SAMPLESTART:46.307;
#SAMPLELENGTH:15;
#BPMS:0=171;
#NOTES:
     dance-single:
     :
     Beginner:
     3:
     :
0000
0000
0000
0000
,
0000
0000
0000
0000
,
0000
0000
0000
0000
,
0000
0000
0000
0000
,
0000
0000
0000
0000
,
0001
0000
0000
0000
,
0001
0000
0000
0000
,
0010
0000
0000
0000
,
0000
0000
0000
0000
,
1000
0000
0000
0000
,
1000
0000
0000
0000
,
0010
0000
0000
0000
,
0000
0000
0000
0000
,
1000
0000
0000
0000
,
0010
0000
0000
0000
,
1000
0000
0000
0000
,
0000
0000
0000
0000
,
0010
0000
0000
0000
,
0010
0000
0000
0000
,
0001
0000
0000
0000
,
0000
0000
0000
0000
,
0010
0000
0000
0000
,
0001
0000
0000
0000
,
0010
0000
0000
0000
,
0000
0000
0000
0000
,
0002
0000
0000
0000
,
0003
0000
0000
0000
,
0020
0000
0000
0000
,
0030
0000
0000
0000
,
2000
0000
0000
0000
,
3000
0000
0000
0000
,
0010
0000
0000
0000
,
0000
0000
0000
0000
,
1001
0000
0000
0000
,
0000
0000
0000
0000
,
0001
0000
0001
0000
,
0010
0000
0000
0000
,
0020
0000
0000
0000
,
0030
0000
0000
0000
,
1001
0000
0000
0000
,
0000
0000
0000
0000
,
1001
0000
0000
0000
,
0000
0000
0000
0000
,
1000
0000
1000
0000
,
0010
0000
0000
0000
,
0020
0000
0000
0000
,
0030
0000
0000
0000
,
1001
0000
0000
0000
,
0000
0000
0000
0000
,
1000
0000
1000
0000
,
0010
0000
0000
0000
,
1000
0000
0010
0000
,
1000
0000
0000
0000
,
0010
0000
0010
0000
,
0010
0000
0000
0000
,
1001
0000
0000
0000
,
0000
0000
0000
0000
,
0001
0000
0001
0000
,
0010
0000
0000
0000
,
0001
0000
0010
0000
,
0001
0000
0000
0000
,
0010
0000
0010
0000
,
0010
0000
0000
0000
,
1001
0000
0000
0000
,
0000
0000
0000
0000
,
0001
0000
0000
0000
,
0010
0000
0000
0000
,
0001
0000
0001
0000
,
0010
0000
0000
0000
,
0100
0000
0000
0000
,
0010
0000
0000
0000
,
1001
0000
0000
0000
,
0000
0000
0000
0000
,
1000
0000
0000
0000
,
0010
0000
0000
0000
,
1000
0000
1000
0000
,
0010
0000
0000
0000
,
0100
0000
0000
0000
,
0010
0000
0000
0000
,
1001
0000
0000
0000
,
0000
0000
0000
0000
,
0001
0000
0000
0000
,
0010
0000
0000
0000
,
1000
0000
0000
0000
,
0000
0000
0000
0000
,
1000
0000
0000
0000
,
0010
0000
0000
0000
,
0002
0000
0000
0000
,
0000
0000
0000
0000
,
0003
0000
0000
0000
,
0000
0000
0000
0000
;
#NOTES:
     dance-single:
     :
     Easy:
     6:
     :
0000
0000
0000
0000
,
0000
0000
0000
0000
,
0000
0000
0000
0000
,
0000
0000
0000
0000
,
0000
0000
0000
0000
,
1000
0000
0000
0000
,
0100
0000
0000
0000
,
0020
0000
0000
0000
,
0030
0000
0000
0000
,
0001
0000
1000
0000
,
0001
1000
0001
0000
,
0100
0000
0010
0000
,
0100
0010
0100
0000
,
0001
0000
0100
0000
,
0001
0100
0001
0000
,
1000
0000
0010
0000
,
1000
0010
1000
0000
,
0001
0000
0100
0000
,
0001
1000
0001
0000
,
1000
0000
0100
0000
,
1000
0001
1000
0000
,
0001
0000
0010
0000
,
0001
1000
0001
0000
,
1000
0000
0010
0000
,
1000
0001
1000
0000
,
0002
0000
0000
0003
,
0001
0001
0001
0000
,
2000
0000
0000
3000
,
1000
1000
1000
0000
,
0020
0000
0000
0030
,
0010
0010
0010
0000
,
0200
0000
0000
0300
,
0110
0000
0000
0000
,
1000
0010
0100
0001
,
1000
0010
0100
0000
,
0001
0010
0100
1000
,
0001
0010
0100
0000
,
1000
0100
1000
0001
,
0100
0001
1000
0000
,
2002
0000
0000
0000
,
3003
0000
0000
0000
,
0001
0100
0010
1000
,
0001
0100
0010
0000
,
1000
0100
0010
0001
,
1000
0100
0010
0000
,
0001
0010
0001
1000
,
0010
1000
0001
0000
,
2002
0000
0000
0000
,
3003
0000
0000
0000
,
1000
0001
0100
0010
,
1000
0100
0010
0000
,
0001
1000
0010
0100
,
0001
1000
0100
0000
,
1000
1000
1000
0000
,
0001
0001
0001
0000
,
1001
0000
0110
0000
,
1001
0000
0000
0000
,
0001
1000
0010
0100
,
0001
0010
0100
0000
,
1000
0001
0100
0010
,
1000
0001
0010
0000
,
0001
0001
0001
0000
,
1000
1000
1000
0000
,
1001
0000
0000
0110
,
0000
1001
0000
0110
,
0001
0100
0001
0100
,
0010
1000
0010
0000
,
1000
0100
1000
0100
,
0010
0001
0010
0000
,
0001
0010
1000
0000
,
1000
0010
0001
0000
,
1000
0010
0001
0000
,
0001
0010
1000
0000
,
0001
1000
0100
0001
,
0100
1000
0001
0000
,
1000
0001
0100
1000
,
0100
0001
1000
0000
,
0001
0001
0010
0100
,
1000
1000
0010
0100
,
0001
1000
0001
0000
,
1000
0001
1000
0000
,
0002
0000
0000
0000
,
0003
0000
0000
0000
,
2000
0000
0000
0000
,
3000
0000
0000
0000
,
0020
0000
0000
0000
,
0030
0000
0000
0000
,
0200
0000
0000
0000
,
0000
0000
0000
0000
,
0300
0000
0000
0000
,
0000
0000
0000
0000
;
#NOTES:
     dance-single:
     :
     Medium:
     9:
     :
0000
0000
0000
0000
,
0000
0000
0000
0000
,
0000
0000
0000
0000
,
0000
0000
0000
0000
,
0000
0000
0000
0000
,
0001
0000
0000
1000
0000
1000
0000
0000
,
0100
0000
0000
0010
0000
0010
0000
0020
,
0000
0000
0000
0000
,
0000
0000
0030
0000
,
0001
1000
0001
0000
,
1000
0001
1000
0000
,
0100
0010
0100
0000
,
0010
0100
0010
0000
,
0001
0000
1000
0001
0000
1000
0001
0000
,
0000
0000
1000
0010
,
0200
0000
0000
0000
,
0300
0000
0000
0000
0001
1000
0001
0000
,
1000
0001
1000
0000
,
0001
1000
0001
0000
,
0010
0100
0010
0000
,
0100
0010
0100
0000
,
1000
0000
0001
1000
0000
0001
1000
0000
,
0000
0000
0001
0100
,
0020
0000
0000
0000
,
0030
0000
0000
0000
1000
0001
1000
0000
,
0001
0000
0100
0000
0010
1000
0000
0001
,
0000
0001
0000
1000
0000
1000
0000
0000
,
0001
1000
0001
0000
1000
0100
0000
0010
,
0000
0010
0000
0001
0000
0001
0000
0000
,
1000
0000
0010
0000
0100
0001
0000
1000
,
0000
1000
0000
0100
0000
0100
0000
0000
,
1001
0000
0110
0000
,
1001
0000
0000
0000
,
1000
0000
0100
0000
0010
0001
1000
0000
,
0001
0000
0010
0000
0100
1000
0001
0000
,
1000
0000
0100
0010
0000
0100
0010
0000
,
0000
0000
0000
0000
0000
1001
0000
0000
,
0001
0010
0000
1000
0000
0010
0000
0000
,
0001
0100
0000
1000
0000
0100
0000
0000
,
0002
0000
0000
0000
,
1003
0000
0000
0001
0000
1000
0000
0000
,
0001
0000
0010
0000
0100
1000
0001
0000
,
1000
0000
0100
0000
0010
0001
1000
0000
,
0001
0000
0010
0100
0000
0010
0100
0000
,
0000
0000
0000
0000
0000
1001
0000
0000
,
1000
0100
0000
0001
0000
0100
0000
0000
,
1000
0010
0000
0001
0000
0010
0000
0000
,
2000
0000
0000
0000
,
3001
0100
0010
0000
1000
0100
0010
0000
,
0001
0000
0100
0010
0000
1000
0010
0000
,
1000
0000
0100
0010
0000
0001
0010
0000
,
0001
0000
0010
0100
0000
1000
0100
0000
,
1000
0000
0010
0100
0000
0001
0100
0000
,
0001
0000
1000
0001
0000
1000
0001
0000
,
0000
0000
0000
0000
1000
0100
0001
0100
,
1000
0000
0001
0010
0000
1000
0010
0000
,
0001
0000
0000
1000
0000
1000
0000
0000
,
0001
0000
0100
0000
0010
1000
0010
0000
,
1000
0000
0001
0000
0010
0100
0010
0000
,
0001
0000
1000
0100
0000
1000
0010
0000
,
0100
0000
0001
0000
1000
0001
1000
0000
,
0001
0010
0000
0100
0000
1000
0000
0000
,
0010
1000
0000
0001
0000
0100
0000
0000
,
0002
0000
0000
1003
,
0000
0001
0000
1000
,
0001
0000
0100
0000
0010
0000
0000
1000
,
0010
1000
0000
0001
0000
0001
0000
0000
,
1000
0000
0100
0000
0010
0000
0000
0001
,
0010
0001
0000
1000
0000
1000
0000
0000
,
0001
0100
0000
0010
0000
0100
0000
0000
,
0001
0010
0000
0100
0000
1000
0000
0001
,
0010
0100
1000
1010
,
0000
0110
0000
0101
,
1000
0000
0100
0000
0010
0000
0000
0001
,
0010
0001
0000
1000
0000
1000
0000
0000
,
0001
0000
0100
0000
0010
0000
0000
1000
,
0010
1000
0000
0001
0000
0001
0000
0000
,
1000
0100
0000
0010
0000
0100
0000
0000
,
1000
0010
0000
0100
0000
0001
0000
1000
,
0010
0100
0001
0010
,
0100
0000
1000
0001
0000
1000
0001
0000
,
2000
0000
0000
0000
,
0000
0000
0000
0000
,
3020
0000
0000
0000
,
0000
0000
0000
0000
,
0230
0000
0000
0000
,
0000
0000
0000
0000
,
0302
0000
0000
0000
,
0000
0000
0000
0000
,
0003
0000
0000
0000
,
0000
0000
0000
0000
;
#NOTES:
     dance-single:
     :
     Hard:
     12:
     :
0000
0000
0000
0000
,
0000
0000
0000
0000
,
0000
0000
0000
0000
,
0000
0000
0000
0000
,
0000
0000
0000
0000
,
0001
0010
0000
0100
0000
1100
0000
0000
,
1000
0010
0000
0100
0000
0101
0000
2002
,
0000
0000
0000
0000
,
0000
0000
3003
0000
0001
1000
0001
0000
,
2000
0010
0000
0100
,
0000
0000
3010
0000
0100
0010
0100
0000
,
0002
0010
0000
0100
,
0000
0000
0013
0000
0100
0010
0100
0000
,
1000
0000
0100
0001
0000
0100
1000
0000
,
0001
0000
0100
0000
0010
0100
0010
0000
,
2000
0010
0000
0001
,
0000
0000
3100
0000
0010
0001
0100
0000
,
0002
0100
0000
1000
,
0000
0000
0103
0000
0010
1000
0100
0000
,
2000
0010
0000
0001
,
0000
0000
3100
0000
0010
0001
0100
0000
,
0001
0000
0010
1000
0000
0010
0001
0000
,
1000
0000
0010
0000
0100
0010
0100
0000
,
0002
0010
0000
0100
,
0000
0000
0013
0100
0010
0100
0010
0100
,
0010
0001
1000
0000
0010
0100
0001
1000
,
0000
1000
0001
0100
0000
0010
1000
0001
,
0010
0000
0110
0000
0100
1000
0001
0100
,
0000
0100
0010
1000
0100
1000
0010
0000
,
0100
0000
0101
0000
0001
0010
0100
1000
,
0000
1000
0001
0100
0001
0010
0100
0000
,
1000
0000
0001
0000
,
1001
0000
0000
0000
,
0001
0010
0001
0010
0001
0100
0001
1000
,
0100
1000
0010
1000
0100
0010
0001
0000
,
1000
0010
1000
0010
1000
0100
1000
0001
,
0100
0001
0010
0001
0100
0010
1000
0000
,
0001
0100
0010
1000
0100
0010
0001
0000
,
1000
0010
0100
0001
0010
0100
1000
0000
,
0002
0100
2003
0100
,
3001
0100
0010
1000
0000
1001
0000
0000
,
1000
0010
1000
0100
1000
0010
0100
0001
,
0010
0100
1000
0100
0010
0001
1000
0000
,
0001
0010
0001
0100
0001
0010
0100
1000
,
0010
0100
0001
0100
0010
1000
0001
0000
,
1000
0010
0100
0001
0010
0100
1000
0000
,
0001
0100
0010
1000
0100
0010
0001
0000
,
2000
0010
3002
0010
,
1003
0100
0010
0001
1000
0100
0010
0000
,
0001
0100
0010
1000
0001
0100
1000
0100
,
0001
1000
0100
0010
0001
0010
0100
0000
,
1000
0100
0010
0001
1000
0100
0001
0100
,
1000
0001
0100
0010
1000
0010
0100
0000
,
0001
0100
1000
0100
0001
0100
1000
0100
,
0001
1000
0100
0001
0100
1000
0100
0001
,
0100
1000
0100
1000
0001
0100
0001
0100
,
0010
0000
1000
0001
0000
1001
0000
0000
,
1000
0010
0100
0001
0010
1000
0010
0001
,
1000
0100
0001
0100
1000
0001
0100
0000
,
0001
0010
0100
1000
0010
0001
0010
1000
,
0001
0100
1000
0100
0001
1000
0100
0000
,
1000
0001
0100
1000
0100
0001
1000
0000
,
0001
0010
1000
0010
0001
1000
0001
0000
,
0200
0010
0000
0010
,
0000
0010
0000
0310
,
0010
1000
0010
0100
0001
0100
0001
0010
,
0100
1000
0001
0100
0001
1000
0100
0000
,
1000
0001
0010
0001
1000
0100
0010
0001
,
0010
1000
0010
0001
1000
0100
0010
0000
,
0001
1000
0100
1000
0000
0001
0100
0010
,
1000
0100
0010
0001
0000
0010
1000
0010
,
0002
1000
0000
1000
,
0000
1000
0000
1003
,
1000
0001
0010
0100
1000
0100
1000
0010
,
0100
0001
1000
0100
1000
0001
0100
0000
,
0001
1000
0010
1000
0001
0100
0010
1000
,
0010
0001
0010
1000
0001
0100
0010
0000
,
1000
0001
0100
0001
0000
1000
0100
0010
,
0001
0100
0010
1000
0000
0010
0001
0010
,
2000
0001
0000
3001
,
1000
0001
1000
0001
0000
0100
0010
0100
,
0020
0000
0000
0000
,
0000
0000
0000
0000
,
2030
0000
0000
0000
,
0000
0000
0000
0000
,
3002
0000
0000
0000
,
0000
0000
0000
0000
,
0203
0000
0000
0000
,
0000
0000
0000
0000
,
0300
0000
0000
0000
,
0000
0000
0000
0000
;
#NOTES:
     dance-double:
     :
     Easy:
     6:
     :
00000000
00000000
00000000
00000000
,
00000000
00000000
00000000
00000000
,
00000000
00000000
00000000
00000000
,
00000000
00000000
00000000
00000000
,
00000000
00000000
00000000
00000000
,
00001000
00000000
00010000
00000000
,
00001000
00000000
00000000
00000000
,
00020000
00000000
00000000
00000000
,
00030000
00000000
00000000
00000000
,
00001000
00000000
00100000
00000000
,
00010000
00000000
01000000
00000000
,
00100000
00000000
10000000
00000000
,
00010000
00000000
00000000
00000000
,
10000000
00000000
01000000
00000000
,
00100000
00000000
00001000
00000000
,
00010000
00000000
00000100
00000000
,
00001000
00000000
00000000
00000000
,
00000001
00000000
00000100
00000000
,
00000001
00000010
00000001
00000000
,
00001000
00000000
00000100
00000000
,
00010000
00000000
00000000
00000000
,
00001000
00000000
00010000
00000000
,
00001000
01000000
00001000
00000000
,
01000000
00000000
00010000
00000000
,
10000000
00000000
00000000
00000000
,
00020000
00000000
00000000
00030000
,
00100000
00100000
00100000
00000000
,
00002000
00000000
00000000
00003000
,
00010000
00010000
00010000
00000000
,
00020000
00000000
00000000
00030000
,
00000010
00000010
00000010
00000000
,
00002000
00000000
00000000
00003000
,
00001001
00000000
00000000
00000000
,
00000001
00000010
00000001
00000010
,
00000100
00001000
00000100
00000000
,
00001000
00000100
00001000
00000100
,
00010000
00001000
00010000
00000000
,
00001000
01000000
00010000
01000000
,
00001000
01000000
00010000
00000000
,
02200000
00000000
00000000
00000000
,
03300000
00000000
00000000
00000000
,
10000000
00010000
01000000
00100000
,
10000000
00010000
00100000
00000000
,
00010000
00100000
00001000
00010000
,
00001000
00010000
00000010
00000000
,
00001000
00000010
00001000
00000001
,
00000100
00000010
00000100
00000000
,
00000220
00000000
00000000
00000000
,
00000330
00000000
00000000
00000000
,
00000001
00001000
00000100
00000000
,
00001000
00000001
00000100
00000000
,
00001000
00010000
00001000
00000000
,
00010000
00001000
00010000
00000000
,
00100000
10000000
00010000
00000000
,
00100000
00010000
10000000
00000000
,
00200000
00000000
00000000
00300000
,
02000000
00000000
00000000
03000000
,
00010000
10000000
00010000
00100000
,
01000000
00100000
00001000
00000000
,
00010000
00001000
00010000
00000010
,
00001000
00000100
00001000
00000000
,
00000001
00000100
00001000
00000000
,
00010000
00100000
10000000
00000000
,
10010000
00000000
00000000
10010000
,
00000000
01100000
00000000
10010000
,
10000000
01000000
00100000
00010000
,
00100000
00001000
00010000
00000000
,
00001000
00010000
00000010
00001000
,
00000010
00000100
00000001
00000000
,
00000001
00000100
00001000
00000000
,
00001000
00000100
00000001
00000000
,
00000100
00000010
00010000
00001000
,
00010000
00000010
00000100
00000000
,
00000001
00000100
00000010
00001000
,
00000010
00010000
00001000
00000000
,
00010000
00001000
00100000
00010000
,
00100000
01000000
10000000
00000000
,
10000000
01000000
00010000
00000000
,
00010000
01000000
10000000
00000000
,
01000000
00100000
00001000
00010000
,
00001000
00100000
01000000
00000000
,
20000000
00000000
00000000
00000000
,
30000000
00000000
00000000
00000000
,
02000000
00000000
00000000
00000000
,
03000000
00000000
00000000
00000000
,
00020000
00000000
00000000
00000000
,
00030000
00000000
00000000
00000000
,
00002000
00000000
00000000
00000000
,
00000000
00000000
00000000
00000000
,
00003000
00000000
00000000
00000000
,
00000000
00000000
00000000
00000000
;
#NOTES:
     dance-double:
     :
     Medium:
     9:
     :
00000000
00000000
00000000
00000000
,
00000000
00000000
00000000
00000000
,
00000000
00000000
00000000
00000000
,
00000000
00000000
00000000
00000000
,
00000000
00000000
00000000
00000000
,
00001000
00000000
00000000
00010000
00000000
00010000
00000000
00000000
,
00001000
00000000
00000000
00100000
00000000
00010000
00000000
00200000
,
00000000
00000000
00000000
00000000
,
00000000
00000000
00300000
00000000
,
00010000
10000000
00010000
00000000
,
10000000
01000000
00100000
00000000
,
01000000
00100000
01000000
00000000
,
00100000
00001000
00010000
00000000
,
00001000
00000000
00010000
00001000
00000000
00010000
00001000
00000000
,
00000000
00000000
00010000
00000010
,
00000200
00000000
00000000
00000000
,
00000300
00000000
00000000
00000000
00000001
00001000
00000001
00000000
,
00000010
00000100
00000010
00000000
,
00000100
00010000
00001000
00000000
,
00010000
00001000
00010000
00000000
,
00001000
01000000
00010000
00000000
,
01000000
00000000
00100000
01000000
00000000
00100000
01000000
00000000
,
00000000
00000000
00010000
10000000
,
02000000
00000000
00000000
00000000
,
03000000
00000000
00000000
00000000
10000000
00010000
10000000
00000000
,
00010000
00000000
01000000
00000000
00001000
00010000
00000000
00000100
,
00000000
00000100
00000000
00001000
00000000
00001000
00000000
00000000
,
00000001
00000000
00000010
00000000
00000100
00001000
00000000
00000100
,
00000000
00000100
00000000
00010000
00000000
00010000
00000000
00000000
,
00001000
00000000
01000000
00000000
00010000
01000000
00000000
00100000
,
00000000
00100000
00000000
10000000
00000000
10000000
00000000
00000000
,
10010000
00000000
01100000
00000000
,
10010000
00000000
00000000
00000000
,
10000000
01000000
00010000
00001000
,
00000010
00000000
00000001
00000000
00001000
00000100
00000010
00000000
,
00000001
00000000
00001000
00000001
00000000
00001000
00000001
00000000
,
00000000
00000000
00000000
00000000
00000000
00001001
00000000
00000000
,
00000001
00000100
00000000
00001000
00000000
00010000
00000000
00000000
,
00010000
00001000
00000000
00000010
00000000
00000001
00000000
00000000
,
00002000
00000000
00000000
00000000
,
00003001
00000000
00000000
00000100
00000000
00000100
00000000
00000000
,
00000001
00000100
00001000
00010000
,
00100000
00000000
10000000
00000000
00010000
01000000
00100000
00000000
,
10000000
00000000
00010000
10000000
00000000
00010000
10000000
00000000
,
00000000
00000000
00000000
00000000
00000000
10010000
00000000
00000000
,
10000000
01000000
00000000
00010000
00000000
00001000
00000000
00000000
,
00001000
00010000
00000000
00100000
00000000
10000000
00000000
00000000
,
00020000
00000000
00000000
00000000
,
10030000
00000000
00000000
01000000
00000000
00000000
01000000
00000000
,
10000000
00000000
00010000
00000000
00100000
01000000
00100000
00000000
,
00010000
00000000
00100000
00000000
00001000
00010000
00001000
00000000
,
00010000
00000000
00000010
00000000
00001000
00000010
00001000
00000000
,
00000010
00000000
00000100
00000000
00000001
00001000
00000001
00000000
,
00001000
00000000
00000100
00010000
00000000
00000100
00010000
00000000
,
00000000
00000000
00000000
00000000
00001000
00010000
00001000
00000000
,
00010000
00000000
01000000
10000000
00000000
00010000
01000000
00000000
,
00100000
00000000
00000000
10000000
00000000
10000000
00000000
00000000
,
00010000
00000000
10000000
00000000
01000000
00100000
01000000
00000000
,
00010000
00000000
00001000
00000000
00010000
00001000
00010000
00000000
,
00001000
00000000
00000010
00000000
00000100
00000010
00000100
00000000
,
00000010
00000000
00000001
00000000
00001000
00000001
00001000
00000000
,
00000001
00000100
00000000
00000010
00000000
00001000
00000000
00000000
,
00000010
00010000
00000000
00001000
00000000
00010000
00000000
00000000
,
00002000
00000000
00000000
00013000
,
00000000
00001000
00000000
00010000
,
00001000
00000000
01000000
00000000
00010000
00000000
00000000
01000000
,
00100000
01000000
00000000
00010000
00000000
10000000
00000000
00000000
,
10000000
00000000
01000000
00000000
00100000
00000000
00000000
00001000
,
00100000
00001000
00000000
00010000
00000000
00010000
00000000
00000000
,
00001000
00010000
00000000
00000010
00000000
00001000
00000000
00000000
,
00000001
00000100
00000000
00001000
00000000
00010000
00000000
00001000
,
00000000
00000000
00000000
00101000
,
00000000
01001000
00000000
00011000
,
00010000
00000000
00000100
00000000
00001000
00000000
00000000
00000100
,
00000010
00000100
00000000
00001000
00000000
00000001
00000000
00000000
,
00000001
00000000
00000100
00000000
00000010
00000000
00000000
00010000
,
00000010
00010000
00000000
00001000
00000000
00001000
00000000
00000000
,
00010000
00001000
00000000
00100000
00000000
00010000
00000000
00000000
,
10000000
01000000
00000000
00010000
00000000
00001000
00000000
00010000
,
00000000
00000000
00000000
00000000
,
00001000
00000000
00010000
00001000
00000000
00000010
00000001
00000000
,
00002000
00000000
00000000
00000000
,
00000000
00000000
00000000
00000000
,
00003200
00000000
00000000
00000000
,
00000000
00000000
00000000
00000000
,
00020300
00000000
00000000
00000000
,
00000000
00000000
00000000
00000000
,
00032000
00000000
00000000
00000000
,
00000000
00000000
00000000
00000000
,
00003000
00000000
00000000
00000000
,
00000000
00000000
00000000
00000000
;
#NOTES:
     dance-double:
     :
     Hard:
     12:
     :
00000000
00000000
00000000
00000000
,
00000000
00000000
00000000
00000000
,
00000000
00000000
00000000
00000000
,
00000000
00000000
00000000
00000000
,
00000000
00000000
00000000
00000000
,
00001000
00010000
00000000
00001000
00000000
00100000
00000000
00000000
,
00010000
00100000
00000000
01000000
00000000
10000000
00000000
20020000
,
00000000
00000000
00000000
00000000
,
00000000
00000000
30030000
00000000
00010000
10000000
00010000
00000000
,
20000000
32000000
03200000
00320000
,
00130000
00001000
00100000
00000000
00001000
00010000
00001000
00000000
,
00020000
00030200
00002300
00003020
,
00000130
00000001
00000100
00000000
00000001
00001000
00000001
00000000
,
00002000
00003200
00020300
00032000
,
00013000
00001000
00010000
00000000
00001000
00100000
00001000
00000000
,
00200000
00320000
02030000
03200000
,
10300000
00000000
00010000
00000000
01000000
00100000
01000000
00010000
,
20000000
30200000
02300000
03020000
,
01030000
00001000
01000000
00000000
00001000
00010000
00001000
00000000
,
00020000
00030020
00002030
00003200
,
00000310
00000001
00000010
00000000
00000001
00001000
00000001
00000000
,
00002000
00003020
00020030
00032000
,
00013000
00001000
00010000
00000000
00001000
01000000
00001000
00000000
,
02000000
03020000
00230000
02300000
,
13000000
00000000
00010000
00000000
00100000
01000000
00100000
00000000
,
00010000
00000000
10000000
00000000
01000000
00100000
00001000
00010000
,
00000000
00010000
00000100
00001000
00000000
00000010
00001000
00000000
,
00000001
00000100
00000001
00000000
00000010
00000100
00001000
00000100
,
00000000
00000100
00010000
00001000
00000000
00010000
00001000
00000000
,
01000000
00000000
00010000
00000000
10000000
01000000
00100000
00010000
,
00000000
00010000
01000000
00001000
00000000
00010000
00001000
00000000
,
00010000
00000000
00001000
00000000
,
00011000
00000000
00000000
00000000
,
00001000
00010000
00001000
00010000
00000100
00001000
00000100
00001000
,
00000100
00000010
00000100
00000010
00000001
00001000
00000001
00000000
,
00001000
00000100
00001000
00000100
00010000
00000100
00010000
00000100
,
00010000
00001000
00010000
00001000
01000000
00001000
01000000
00000000
,
00010000
01000000
00010000
01000000
00100000
10000000
00100000
10000000
,
00010000
10000000
00010000
10000000
01000000
00100000
01000000
00000000
,
10000000
01000000
00100000
00000000
00010000
00100000
01000000
00000000
,
10000000
00000000
01000000
00010000
00000000
00001000
00010000
00000000
,
00001000
00010000
00001000
00010000
00000010
00001000
00000010
00001000
,
00000010
00000100
00000010
00000100
00000001
00001000
00000001
00000000
,
00001000
00000010
00001000
00000010
00010000
00000010
00010000
00000010
,
00010000
00001000
00010000
00001000
00100000
00001000
00100000
00000000
,
00010000
00100000
00010000
00100000
01000000
10000000
01000000
10000000
,
00010000
10000000
00010000
10000000
00100000
01000000
00100000
00000000
,
10000000
00100000
01000000
00000000
00010000
01000000
00100000
00000000
,
10000000
00000000
00100000
00010000
00000000
00001000
00010000
00000000
,
00001000
00010000
00000100
00001000
00000010
00000100
00000001
00000000
,
00000010
00000100
00001000
00000100
00000010
00000001
00001000
00000000
,
00000010
00000100
00001000
00000100
00001000
00010000
00001000
00000000
,
00010000
00001000
00010000
00100000
01000000
00100000
10000000
00000000
,
00010000
01000000
10000000
01000000
00010000
00000000
10000000
00000000
,
01000000
00010000
00001000
00010000
01000000
00000000
00010000
00000000
,
00001000
00000010
00001000
00010000
00001000
00000000
00000010
00000000
,
00000001
00000000
00000100
00000010
00000000
00001000
00000001
00000000
,
00001000
00000010
00001000
00000100
00010000
00001000
00100000
00010000
,
01000000
00010000
00100000
01000000
10000000
00100000
01000000
00000000
,
00010000
10000000
01000000
00100000
00010000
00100000
10000000
00100000
,
00010000
00100000
00001000
00010000
00001000
00000010
00000001
00000000
,
00001000
00000100
00000001
00000100
00001000
00000000
00000100
00000000
,
00010000
00001000
00000010
00001000
00010000
00000000
00001000
00000000
,
02000000
00100000
00000000
00100000
,
00000000
00100000
00000000
03100000
,
10000000
00100000
01000000
00010000
00100000
01000000
00010000
00000000
,
00001000
00000010
00000001
00001000
00000100
00000010
00000001
00000000
,
00001000
00000010
00000100
00000001
00000010
00000100
00001000
00000000
,
00000010
00000100
00001000
00010000
00100000
01000000
00010000
00000000
,
10000000
01000000
10000000
01000000
00000000
00100000
00010000
00000000
,
00001000
00000100
00001000
00000100
00000000
00000010
00000001
00000010
,
00000002
00001000
00000000
00001000
,
00000000
00001000
00000000
00001003
,
00000001
00000010
00000100
00001000
00000010
00000100
00001000
00000000
,
00010000
00100000
10000000
00010000
01000000
00100000
10000000
00000000
,
00010000
00100000
01000000
10000000
00100000
01000000
00010000
00000000
,
00100000
01000000
00010000
00001000
00000010
00000100
00001000
00000000
,
00000001
00000100
00000001
00000100
00000000
00000010
00001000
00000000
,
00010000
01000000
00010000
01000000
00000000
00100000
10000000
00100000
,
20000000
00010000
00000000
30010000
,
10000000
00000000
01000000
00100000
00000000
00010000
00100000
00000000
,
00002000
00000000
00000000
00000000
,
00000000
00000000
00000000
00000000
,
00023000
00000000
00000000
00000000
,
00000000
00000000
00000000
00000000
,
00030020
00000000
00000000
00000000
,
00000000
00000000
00000000
00000000
,
00002030
00000000
00000000
00000000
,
00000000
00000000
00000000
00000000
,
00003000
00000000
00000000
00000000
,
00000000
00000000
00000000
00000000
;
