
//----- song ID: baaw -----//
#TITLE:バッドユース・アウェイク;
#ARTIST:みーに feat. はらもりよしな;
#TITLETRANSLIT:Bad youth awake;
#ARTISTTRANSLIT:Mini feat. Haramori Yoshina;
#BANNER:Bad youth awake.png;
#BACKGROUND:Bad youth awake-bg.png;
#CDTITLE:./CDTitles/DDR WORLD.png;
#MUSIC:Bad youth awake.ogg;
#SAMPLESTART:3.367;
#SAMPLELENGTH:15;
#BPMS:0=115;
#BGSTAGE:4;
#NOTES:
     dance-single:
     :
     Beginner:
     2:
     :
0000
0000
0000
0000
,
0000
0000
0000
0000
,
0000
0000
0000
0000
,
0000
0000
0000
0000
,
0000
0000
0000
0000
,
0010
0000
0000
0000
,
0000
0000
0000
0000
,
1000
0000
0001
0000
,
0010
0000
0010
0000
,
1001
0000
0000
0000
,
0000
0000
0000
0000
,
1000
0000
1000
0000
,
1000
0000
0000
0000
,
0010
0000
0000
0000
,
0010
0000
0000
0000
,
0100
0000
0000
0000
,
0100
0000
0000
0000
,
0001
0000
0001
0000
,
0001
0000
0000
0000
,
1000
0000
0000
0000
,
0001
0000
0000
0000
,
0010
0000
0010
0000
,
0100
0000
0100
0000
,
0010
0000
0010
0000
,
0100
0000
0000
0000
,
1000
0000
0000
0000
,
0001
0000
0000
0000
,
0010
0000
0010
0000
,
0010
0000
0000
0000
,
1001
0000
0000
0000
,
1001
0000
0000
0000
,
1001
0000
0000
0000
,
1001
0000
0000
0000
,
0001
0000
0000
0000
,
1000
0000
0000
0000
,
0001
0000
0000
0000
,
1000
0000
0000
0000
,
0010
0000
0000
0000
,
0100
0000
0000
0000
,
0010
0000
0000
0000
,
1001
0000
0000
0000
,
1001
0000
0000
0000
,
0001
0000
0000
0000
,
0001
0000
0000
0000
,
1000
0000
0000
0000
,
1000
0000
0000
0000
,
0010
0000
0000
0000
,
0100
0000
0000
0000
,
0010
0000
0000
0000
,
1001
0000
0000
0000
,
0010
0000
0000
0000
,
1001
0000
0000
0000
,
1000
0000
1000
0000
,
0001
0000
0001
0000
,
0010
0000
0000
0000
,
0010
0000
0000
0000
,
0000
0000
0000
0000
;
#NOTES:
     dance-single:
     :
     Easy:
     5:
     :
0000
0000
0000
0000
,
0000
0000
0000
0000
,
0000
0000
0000
0000
,
0000
0000
0000
0000
,
0000
0000
0000
0000
,
0010
0000
0010
1001
,
2000
0000
0000
3000
0002
0000
0000
0003
,
0100
0001
1000
0010
,
1001
0000
0110
0000
,
2002
0000
0000
0000
,
0000
0000
0000
3003
,
0001
0010
0100
1000
,
1001
0000
0000
1000
,
0010
0100
0001
0001
,
0001
0010
0100
1000
,
1000
0000
0010
0000
,
0000
0100
0000
0100
0000
0100
0000
0100
,
0000
0220
0000
0330
,
1001
0010
0000
0010
,
1001
1000
0000
1000
,
1100
0000
0001
0000
,
1001
0001
1000
0001
,
0010
0100
0010
0100
,
1000
0001
1000
0001
,
1001
0000
0110
0000
,
2002
0000
0000
0000
0000
0000
0000
0003
,
0020
0000
0000
3030
,
1000
1000
0001
0001
,
0002
0000
2000
3003
,
1001
0000
0000
0011
0000
0000
0000
0000
,
1001
0000
0000
1100
0000
0000
0000
0000
,
1001
0000
0000
0110
0000
0000
1001
0000
,
2002
0000
0000
3003
,
1000
0000
1000
0001
,
0010
0000
0010
0100
,
1000
0000
1000
0001
,
0100
0000
0000
0100
0000
0100
0000
0000
,
0001
0000
0001
0100
,
0001
0000
1000
0100
,
1000
0000
0010
0010
,
0220
0000
0000
0330
,
2002
0000
0000
3003
,
0010
1100
0101
1001
,
0001
1000
0001
1000
,
0001
0100
0010
0100
,
0002
0000
0000
1000
0000
0000
0003
0000
,
0001
0000
0001
0010
,
0100
0100
0100
0100
,
1000
0010
0000
1000
,
2002
0000
0000
3003
,
1000
0010
0100
0001
,
0220
0000
0000
0330
,
1001
0000
0010
0100
,
1001
0000
1000
0001
,
1001
2000
0000
3000
,
0002
0000
0000
2000
0000
0000
3003
0000
,
0000
0000
0000
0000
;
#NOTES:
     dance-single:
     :
     Medium:
     8:
     :
0000
0000
0000
0000
,
0000
0000
0000
0000
,
0000
0000
0000
0000
,
0000
0000
0000
0000
,
0000
0000
0000
0000
,
0001
0000
0100
0000
0001
0100
1001
0000
,
2000
0000
0010
3000
0020
0000
0100
0030
,
0100
0101
0001
0011
,
1100
0000
1000
0001
0011
0000
1001
0000
,
1000
1000
0100
0100
,
0010
0010
0011
0000
0001
0001
1001
0000
,
0002
0023
0230
2300
,
3001
0000
0000
0001
1000
0000
1000
0000
,
0010
0000
0010
0000
1000
0100
1100
0000
,
0100
0000
0100
0000
0010
0001
0011
0000
,
1000
1100
2002
3003
,
0000
0110
0000
1001
0000
0110
0000
1001
,
0001
2100
0001
3010
,
0110
0000
0011
0000
1010
1000
1000
0000
,
1100
0000
0110
0000
0101
0001
0001
0000
,
0100
1001
0010
1001
,
0001
0010
0001
0000
0001
0100
0001
0000
,
1000
0010
1000
0000
1000
0100
1000
0000
,
0010
0000
0100
0000
0001
1000
0001
1000
,
0010
0000
0010
0000
0100
0001
0010
0000
,
0200
1000
0000
0010
,
0000
0001
0000
0310
,
0001
0010
1001
0000
1000
0100
1001
0000
,
1000
1000
0001
0001
2002
0000
3003
0000
,
1000
0000
0000
1000
0000
0000
0001
0000
0000
0001
0000
0000
1001
0000
0000
0000
,
0010
0000
0000
0010
0000
0000
0100
0000
0000
0100
0000
0000
1001
0000
0000
0000
,
1001
0000
0000
0010
0000
0000
1001
0000
0000
0100
0000
0000
1001
0000
0000
0000
,
2002
0000
0000
3003
,
1000
0001
0100
0001
,
0100
0001
1000
0010
,
1001
0000
0110
0000
,
1000
0000
0000
0001
0000
0000
1000
0000
0000
0000
1001
0000
0000
0000
0000
0000
,
0001
0000
0010
0000
0001
0001
0011
0000
,
1000
0000
0100
0000
1000
1000
1100
0000
,
0100
0000
0010
0000
0001
1000
0001
1000
,
0200
0000
0000
0001
0000
0000
0001
0000
0000
0000
0010
0000
0310
0000
0000
0000
,
0020
0000
0000
1000
0000
0000
1000
0000
0000
0000
0100
0000
0130
0000
0000
0000
,
0010
0001
1000
0100
,
0010
0100
0000
1001
0000
0100
0010
0000
,
0100
0000
0010
0000
0100
0010
0100
0000
,
1001
0000
0000
1000
0000
0000
0001
0000
0000
0000
1000
0000
1001
0000
0000
0000
,
1000
1000
0001
0001
,
1000
0100
0001
0100
1000
0100
0001
0000
,
0100
0010
0000
0110
0000
0010
0100
0010
,
0001
0000
0000
0001
0000
0000
0101
0000
0000
0000
0100
0000
0010
0000
0000
0000
,
1000
0100
1000
0000
1000
0010
0001
0010
,
2000
0001
0100
3010
,
0100
0001
0101
0000
0000
0001
0011
0000
,
1000
0010
1010
0000
0000
1000
1100
0000
,
1000
0001
0120
0000
0001
0000
1030
0000
,
1000
0000
0000
0001
0000
0000
2002
0000
0000
0000
0000
0000
3003
0000
0000
0000
,
0000
0000
0000
0000
;
#NOTES:
     dance-single:
     :
     Hard:
     13:
     :
0000
0000
0000
0000
,
0000
0000
0000
0000
,
0000
0000
0000
0000
,
0000
0000
0000
0000
,
0000
0000
0000
0000
,
1001
0000
0000
0110
0000
0000
1001
0000
0000
0000
0010
0000
1001
0000
0000
0000
,
0110
0000
0000
0000
0000
0000
0000
0000
0000
0001
0000
1000
0001
0000
0000
0000
0000
0000
0010
0000
0000
0010
0000
0000
,
1001
0000
0000
0000
0000
1000
0000
0000
0000
0000
0000
0100
1000
0000
0001
0100
0000
0000
0010
0000
0000
0100
0000
0100
,
0001
0000
0000
0000
0000
0000
1000
0000
0100
0000
0000
0100
0001
0000
0000
0100
0000
0000
1000
0000
0000
0000
0000
0000
,
0001
0100
0010
1000
,
0010
0000
0000
0100
0000
0000
0001
0000
0000
1000
0000
0000
0001
0000
0010
0100
0000
0100
1000
0000
0000
0000
0000
0000
,
1000
0000
0100
1000
0000
0100
0001
0000
0100
0001
0000
0100
0010
0000
0100
0010
0000
0100
1000
0000
0100
1000
0000
0000
,
1001
0000
0001
0010
0100
0010
0001
0000
,
0011
0000
0000
0000
0000
0010
0001
0000
0000
0000
0000
0001
0010
0000
0010
0100
0000
0000
1000
0000
0000
0000
0000
0000
,
1100
0000
0000
0000
0000
0100
1000
0000
0000
0000
0000
1000
0100
0000
0000
0010
0000
0000
0100
0000
0000
0000
0000
0000
,
1001
0000
0000
0000
0000
0001
1000
0000
0000
0000
0000
0000
0010
0000
0100
0000
0100
0000
0010
0000
0000
0000
0000
0000
,
1000
0110
0001
0110
1000
0110
0001
0110
,
1001
0000
0000
0001
0000
0000
1000
0000
0100
0000
0001
0000
1000
0000
0010
0000
0001
0000
0100
0000
0000
0000
0000
0000
,
1010
0000
0000
0000
0000
0010
1000
0000
0000
0000
0000
0001
0010
0000
1000
0010
0000
0000
0001
0000
0000
0100
0000
0100
,
1000
0000
0000
0000
0000
1000
0100
0000
0000
0000
0000
0100
0010
0000
1000
0000
0100
0000
0010
0000
0000
0000
0000
0000
,
0001
0000
0000
0100
0000
0000
1000
0000
0001
0000
0000
0010
0000
0000
0000
0000
0000
0000
1000
0000
0000
0000
0000
0000
,
0001
0000
1001
0000
1000
0100
0010
0100
,
1000
0000
0000
0001
0000
0000
0010
0000
0000
0100
0000
0000
1000
0000
0000
0001
0000
0000
1000
0000
0000
0100
0000
0100
,
1000
0000
0000
0000
0000
0000
0001
0000
0000
0000
0000
0000
0001
0000
0000
0100
0000
0000
0001
0000
0100
0000
0000
0100
,
1000
0000
0000
0100
0000
0000
1001
0000
0000
0000
1100
0000
0100
0000
0000
0000
,
2010
0000
0001
3000
0102
0000
1000
0003
,
2100
0000
0001
3000
0012
0000
1000
1003
,
1000
0000
0000
0001
0000
0000
0100
0000
0000
0001
0000
0000
1000
0000
0000
0010
0000
0000
1000
0000
0000
0001
0000
1000
,
0010
0000
0100
0001
0000
1000
0010
0000
0100
0001
0000
1000
0020
0000
0000
0000
0000
0000
0130
0000
0000
0000
0000
0000
,
1001
0000
0000
1100
0000
0000
1001
0000
0000
0101
0000
0000
1001
0000
0000
0000
,
1001
0000
0000
0011
0000
0000
1001
0000
0000
0101
0000
0000
1001
0000
0000
0000
,
1001
0000
0000
0110
0000
0000
1001
0000
0000
0110
0000
0000
1001
0000
0000
0000
,
0001
0100
1000
0001
0010
1000
0001
0000
,
1001
0000
0001
0100
0001
0100
0010
1000
,
0010
1000
0100
0010
1000
0010
0100
1000
,
0001
0010
0001
1000
0010
0001
0010
1000
,
1001
0000
0000
1100
0000
0000
0101
0000
0000
0000
0110
0000
1001
0000
0000
0000
,
1000
0000
0000
0000
0000
0100
1000
0000
0000
0000
0000
0010
0000
0000
0000
0001
0000
0000
0000
0000
0000
0010
0000
0000
,
0100
0000
0000
0000
0000
0001
0000
0000
0000
0000
0000
0100
0000
0000
0010
1000
0000
0000
0010
0000
0100
0001
0000
0100
,
0010
0000
0000
0000
0000
1000
0100
0000
0000
0000
0000
0010
0001
0000
0000
0010
0000
0100
1000
0000
0100
0010
0000
0000
,
0110
0000
0000
0011
0000
0000
1001
0000
0000
0000
1100
0000
0101
0000
0000
0000
,
1001
0000
0000
0011
0000
0000
1010
0000
0000
0000
1100
0000
0101
0000
0000
0000
,
1001
0000
2010
3001
0012
0103
0210
0301
,
2002
0000
0000
3003
0000
0000
0000
0000
0001
1000
0000
0000
0000
0000
0010
1000
0000
0000
0000
0000
0100
1000
0000
0000
,
0010
0000
0000
0100
0000
0000
0001
0000
0010
0100
0000
0000
1000
0000
0010
0100
0000
0000
0001
0000
0010
0100
0000
0000
,
1100
0000
0000
0101
0000
0000
1001
0000
0000
0000
0110
0000
1001
0000
0000
0000
,
0001
0000
0000
1000
0000
0000
0010
0000
1000
0001
0000
0000
0100
0000
1000
0001
0000
0000
0010
0000
1000
0001
0000
0000
,
1000
0000
0000
0000
0000
0100
0000
0000
0010
0000
0000
0100
0000
0000
0010
0001
0000
0000
1000
0000
0100
0000
0000
0000
,
0010
0000
0000
0000
0000
0000
0001
0000
0010
0100
0000
0000
1000
0000
0010
0100
0000
0000
0010
0000
0100
0000
0000
0100
,
0010
0000
0000
1100
0000
0000
0101
0000
0000
0000
1100
0000
1001
0000
0000
0000
,
0001
0000
0000
0100
0000
0000
1000
0000
0100
0000
0000
0001
0000
0000
0100
1000
0000
0000
0100
0000
0000
0100
0000
0000
,
0100
0000
0100
0000
0100
0010
1001
0000
,
1000
0000
0000
0100
0000
0010
0001
0000
0000
0000
0000
0001
0100
0000
0100
1000
0000
0000
0100
0000
0000
0000
0000
0000
,
0001
0000
0000
0000
0000
0100
0010
0000
0000
0000
0000
0100
1000
0000
0000
0100
0000
0000
1000
0000
0100
0001
0000
0000
,
1000
0000
0000
0010
0100
0001
0010
0100
0001
1000
0010
0001
,
1001
0000
0000
0110
0000
0000
2002
0000
0000
0000
0000
0000
3003
0000
0000
0000
,
0000
0000
0000
0000
;
#NOTES:
     dance-double:
     :
     Easy:
     4:
     :
00000000
00000000
00000000
00000000
,
00000000
00000000
00000000
00000000
,
00000000
00000000
00000000
00000000
,
00000000
00000000
00000000
00000000
,
00000000
00000000
00000000
00000000
,
00010000
00000000
00010000
00011000
,
00000020
00000000
00000000
00000030
00002000
00000000
00000000
00003000
,
00000100
00001000
00000001
00000010
,
00000011
00000000
00001100
00000000
,
00020200
00000000
00000000
00000000
00000000
00000000
00000000
00000300
,
00002000
00000000
00000000
00033000
,
00001000
00010000
00001000
00010000
,
00011000
00000000
00000000
00001000
,
00100000
00010000
10000000
00010000
,
00100000
00100000
00001000
00000000
,
00010000
00000000
00000100
00000000
,
00000000
00000010
00000000
00000010
00000000
00000010
00000000
00000010
,
00000000
00000220
00000000
00000330
,
00001001
00000010
00000000
00000010
,
00001001
00001000
00000000
00000001
,
00001001
00000000
00001000
00000000
,
00001000
00000100
00010000
00001000
,
00100000
00010000
10000000
01000000
,
10000000
10000000
00010000
00010000
,
10010000
00000000
01100000
00000000
,
20020000
00000000
00000000
00000000
00000000
00000000
00000000
30000000
,
02000000
00000000
00000000
03030000
,
00010000
00010000
00100000
00100000
,
00002000
00000000
00020000
00033000
,
00011000
00000000
00000000
00000100
00000000
00000000
00000000
00000000
,
00011000
00000000
00000000
00100000
00000000
00000000
00000000
00000000
,
00011000
00000000
00000000
00000100
00000000
00000000
00010000
00000000
,
00022000
00000000
00000000
00033000
,
00010000
00000000
00010000
00000010
,
00001000
00000000
00000001
00000100
,
00000010
00000000
00010000
00001000
,
00100000
00000000
00000000
00010000
00000000
00010000
00000000
00000000
,
00100000
00000000
00100000
00000000
,
00010000
01000000
10000000
01000000
,
00100000
00000000
00010000
00001000
,
00002000
00000000
00000000
00000000
,
00020000
00000000
00000000
00033000
,
00010000
00000100
00000010
00001001
,
00001000
00000100
00010000
00001000
,
00010000
00001000
00100000
00010000
,
02000000
00000000
00000000
00100000
00000000
00000000
03000000
00000000
,
10000000
00000000
10000000
01000000
,
10000000
01000000
01000000
01000000
,
00100000
00001000
00000000
00010000
,
00022000
00000000
00000000
00033000
,
00010000
00000100
00001000
00000010
,
00000220
00000000
00000000
00000330
,
00001001
00000000
00001000
00000100
,
00010000
00000000
00001000
01000000
,
00010000
20000000
00000000
30000000
,
00020000
00000000
00000000
20000000
00000000
00000000
30030000
00000000
,
00000000
00000000
00000000
00000000
;
#NOTES:
     dance-double:
     :
     Medium:
     8:
     :
00000000
00000000
00000000
00000000
,
00000000
00000000
00000000
00000000
,
00000000
00000000
00000000
00000000
,
00000000
00000000
00000000
00000000
,
00000000
00000000
00000000
00000000
,
00000001
00000000
00001000
00000000
00000010
00001000
00001010
00000000
,
00002000
00000000
00000000
00003000
00000200
00000000
00000000
00000300
,
00010000
00001000
00100000
00010000
,
10010000
00000000
10000000
00010000
00110000
00000000
10010000
00000000
,
00001000
00010000
00000100
00001000
,
00001000
00001000
00001010
00000000
00000010
00000010
00000110
00000000
,
00000020
00020030
00032000
00203000
,
01300000
00000000
00000000
01000000
00100000
00000000
00001000
00000000
,
00010000
00000000
00000100
00000000
00000010
00000001
00000011
00000000
,
00000001
00000000
00001000
00000000
00000100
00001000
00001100
00000000
,
00000100
00000010
00000220
00000330
,
00000000
00000110
00000000
00001100
00000000
00010100
00000000
00101000
,
00001000
00120000
10000000
01030000
,
01100000
00000000
00110000
00000000
10100000
10000000
10000000
00000000
,
11000000
00000000
01100000
00000000
01010000
00010000
00010000
00000000
,
00010000
00011000
00001000
00011000
,
00010000
00000100
00010000
00000000
00000010
00001000
00000010
00000000
,
00000100
00000001
00000100
00000000
00000001
00000100
00001000
00000000
,
00010000
00000000
00001000
00000000
00100000
00010000
00100000
00010000
,
00100000
00000000
00100000
00000000
01000000
10000000
01000000
00000000
,
00200000
01000000
00302000
00010000
,
00003200
00000010
00000302
00000103
,
00000001
00000100
00000010
00000000
00010000
00001000
00100000
00000000
,
00001000
00001000
00010000
00010000
00022000
00000000
00033000
00000000
,
00011000
00000000
00000000
00000010
00000000
00000000
00011000
00000000
00000000
00100000
00000000
00000000
00011000
00000000
00000000
00000000
,
00011000
00000000
00000000
01000000
00000000
00000000
00011000
00000000
00000000
00000100
00000000
00000000
00011000
00000000
00000000
00000000
,
00011000
00000000
00000000
00010100
00000000
00000000
00011000
00000000
00000000
00101000
00000000
00000000
00011000
00000000
00000000
00000000
,
00022000
00000000
00000000
00033000
,
00010000
00001000
00000010
00000100
,
00010000
00001000
01000000
00100000
,
01100000
00000000
10010000
00000000
,
00100000
00000000
00000000
01000000
00000000
00000000
00100000
00000000
00000000
00000000
10010000
00000000
00000000
00000000
00000000
00000000
,
00010000
00000000
00100000
00000000
00001000
00010000
00011000
00000000
,
00010000
00000000
00000010
00000000
00001000
00000001
00001001
00000000
,
00000001
00000000
00000010
00000000
00001000
00010000
00001000
00010000
,
00000200
00000000
00000000
00000010
00000000
00000000
00000010
00000000
00000000
00000000
00010000
00000000
00010300
00000000
00000000
00000000
,
00020000
00000000
00000000
00001000
00000000
00000000
00001000
00000000
00000000
00000000
01000000
00000000
01030000
00000000
00000000
00000000
,
00100000
00001000
00010000
00000100
,
00000010
00000100
00000000
00001001
00000000
00000001
00001000
00000000
,
00000100
00000000
00010000
00000000
00001000
00010000
00001000
00000000
,
00011000
00000000
00000000
00001000
00000000
00000000
00100000
00000000
00000000
00000000
00010000
00000000
10010000
00000000
00000000
00000000
,
10000000
10000000
00010000
00010000
,
00100000
00001000
00010000
00000100
00010000
00001000
01000000
00000000
,
00100000
01000000
00000000
01100000
00000000
00100000
01000000
00100000
,
00010000
00000000
00000000
00001000
00000000
00000000
00011000
00000000
00000000
00000000
00010000
00000000
00000100
00000000
00000000
00000000
,
00000010
00000001
00000010
00000000
00000100
00001000
00000100
00010000
,
00002000
00100000
00010000
01003000
,
00010000
01000000
10010000
00000000
00000000
10000000
11000000
00000000
,
00010000
00100000
00101000
00000000
00000000
00001000
00011000
00000000
,
00010000
00001000
00000200
00000000
00000001
00000000
00001300
00000000
,
00001000
00000000
00000000
00010000
00000000
00000000
00022000
00000000
00000000
00000000
00000000
00000000
00033000
00000000
00000000
00000000
,
00000000
00000000
00000000
00000000
;
#NOTES:
     dance-double:
     :
     Hard:
     13:
     :
00000000
00000000
00000000
00000000
,
00000000
00000000
00000000
00000000
,
00000000
00000000
00000000
00000000
,
00000000
00000000
00000000
00000000
,
00000000
00000000
00000000
00000000
,
10010000
00000000
00000000
01100000
00000000
00000000
10010000
00000000
00000000
00000000
00010000
00000000
00100000
00000000
00000000
00000000
,
00110000
00000000
00000000
00000000
00000000
00000000
00000000
00000000
00000000
00100000
00000000
00010000
00100000
00000000
00000000
00000000
00000000
00000000
00001000
00000000
00000000
00010000
00000000
00000000
,
00011000
00000000
00000000
00000000
00000000
00001000
00000000
00000000
00000000
00000000
00000000
00000100
00000010
00000000
00000010
00000100
00000000
00000000
00000010
00000000
00000000
00000100
00000000
00000100
,
00001000
00000000
00000000
00000000
00000000
00000000
00010000
00000000
00100000
00000000
00000000
00100000
01000000
00000000
00000000
00100000
00000000
00000000
10000000
00000000
00000000
00000000
00000000
00000000
,
00010000
01000000
00100000
00010000
,
00001000
00000000
00000000
00010000
00000000
00000000
00100000
00000000
00000000
00010000
00000000
00000000
00001000
00000000
00000010
00001000
00000000
00001000
00010000
00000000
00000000
00000000
00000000
00000000
,
00100000
00000000
00100000
00010000
00000000
00000000
00001000
00000000
00001000
00000010
00000000
00000000
00001000
00000000
00001000
00010000
00000000
00000000
00100000
00000000
00100000
00010000
00000000
00000000
,
00011000
00000000
00001000
00000100
00000001
00000010
00001000
00000000
,
00011000
00000000
00000000
00000000
00000000
00010000
00100000
00000000
00000000
00000000
00000000
00100000
01000000
00000000
01000000
00100000
00000000
00000000
10000000
00000000
00000000
00000000
00000000
00000000
,
11000000
00000000
00000000
00000000
00000000
10000000
01000000
00000000
00000000
00000000
00000000
01000000
10000000
00000000
00000000
01000000
00000000
00000000
00010000
00000000
00000000
00000000
00000000
00000000
,
00011000
00000000
00000000
00000000
00000000
00001000
00010000
00000000
00000000
00000000
00000000
00000000
00010000
00000000
00001000
00000000
00001000
00000000
00010000
00000000
00000000
00000000
00000000
00000000
,
00011000
00000010
00011000
00100000
00011000
00000100
00011000
01000000
,
00011000
00000000
00000000
00001000
00000000
00000000
00010000
00000000
00001000
00000000
00000100
00000000
00001000
00000000
00010000
00000000
01000000
00000000
10000000
00000000
00000000
00000000
00000000
00000000
,
10100000
00000000
00000000
00000000
00000000
00100000
10000000
00000000
00000000
00000000
00000000
00010000
00100000
00000000
10000000
00100000
00000000
00000000
00010000
00000000
00000000
01000000
00000000
01000000
,
00001000
00000000
00000000
00000000
00000000
00010000
00000100
00000000
00000000
00000000
00000000
00000100
00000010
00000000
00000001
00000000
00000100
00000000
00000010
00000000
00000000
00000000
00000000
00000000
,
00001000
00000000
00000000
00000100
00000000
00000000
00000001
00000000
00000100
00000000
00000000
00001000
00000000
00000000
00000000
00000000
00000000
00000000
00000010
00000000
00000000
00000000
00000000
00000000
,
00010000
00000000
00011000
00000000
00010000
00100000
10000000
01000000
,
00010000
00000000
00000000
00001000
00000000
00000000
00000100
00000000
00000000
00000001
00000000
00000000
00000010
00000000
00000000
00000100
00000000
00000000
00000001
00000000
00000000
00000100
00000000
00000100
,
00001000
00000000
00000000
00000000
00000000
00000000
00000010
00000000
00000000
00000000
00000000
00000000
00001000
00000000
00000000
00000001
00000000
00000000
00000100
00000000
00001000
00000000
00000000
00010000
,
00100000
00000000
00000000
01000000
00000000
00000000
10010000
00000000
00000000
00000000
10000000
00000000
01000000
00000000
00100000
00000000
,
00001000
00010000
00100000
00001000
00000010
00001000
00000100
00010000
,
01000000
00100000
00010000
10000000
01000000
00100000
00001000
00000010
,
00000001
00000000
00000000
00001000
00000000
00000000
00000100
00000000
00000000
00000001
00000000
00000000
00000100
00000000
00000000
00001000
00000000
00000000
00000010
00000000
00000000
00010000
00000000
00001000
,
00000010
00000000
00001000
00010000
00000000
00100000
00010000
00000000
00001000
00000010
00000000
00001000
00020000
00000000
00000000
00000000
00000000
00000000
00031000
00000000
00000000
00000000
00000000
00000000
,
00011000
00000000
00000000
00101000
00000000
00000000
00011000
00000000
00000000
00010010
00000000
00000000
00011000
00000000
00000000
00000000
,
00011000
00000000
00000000
00010100
00000000
00000000
00011000
00000000
00000000
01001000
00000000
00000000
00011000
00000000
00000000
00000000
,
00011000
00000000
00000000
00101000
00000000
00000000
00011000
00000000
00000000
00010100
00000000
00000000
00001001
00000000
00000000
00000000
,
00000001
00000010
00001000
00010000
01000000
10000000
00100000
00000000
,
10010000
00000000
00010000
01000000
00010000
01000000
00100000
00010000
,
00001000
00000100
00000010
00000100
00000001
00000010
00001000
00010000
,
00001000
00000010
00000100
00001000
00000010
00000001
00001000
00000100
,
00000101
00000000
00000000
00001100
00000000
00000000
00000110
00000000
00000000
00000000
00000110
00000000
00001001
00000000
00000000
00000000
,
00000001
00000000
00000000
00000000
00000000
00000100
00001000
00000000
00000000
00000000
00000000
00000001
00000000
00000000
00000000
00000010
00000000
00000000
00000000
00000000
00000000
00001000
00000000
00000000
,
00010000
00000000
00000000
00000000
00000000
01000000
00000000
00000000
00000000
00000000
00000000
00010000
00000000
00000000
00100000
00010000
00000000
00000000
00100000
00000000
01000000
10000000
00000000
01000000
,
00100000
00000000
00000000
00000000
00000000
00001000
00010000
00000000
00000000
00000000
00000000
00000100
00000010
00000000
00000000
00000100
00000000
00000010
00000001
00000000
00000010
00000100
00000000
00000000
,
00000110
00000000
00000000
00001001
00000000
00000000
00000110
00000000
00000000
00000000
00001001
00000000
00000011
00000000
00000000
00000000
,
00001001
00000000
00000000
00010100
00000000
00000000
00011000
00000000
00000000
00000000
00101000
00000000
01010000
00000000
00000000
00000000
,
00101000
00000000
00021000
00000010
00032000
00100000
00023000
00000100
,
00002000
00000000
00000000
00033000
00000000
00000000
00000000
00000000
00001000
00010000
00000000
00000000
00000000
00000000
00010000
00100000
00000000
00000000
00000000
00000000
00100000
01000000
00000000
00000000
,
00010000
00000000
00000000
10000000
00000000
00000000
01000000
00000000
00100000
00010000
00000000
00000000
00001000
00000000
00000100
00000010
00000000
00000000
00000001
00000000
00000100
00000010
00000000
00000000
,
00001010
00000000
00000000
00010100
00000000
00000000
00011000
00000000
00000000
00000000
00101000
00000000
00011000
00000000
00000000
00000000
,
00001000
00000000
00000000
01000000
00000000
00000000
00100000
00000000
10000000
01000000
00000000
00000000
00100000
00000000
00010000
01000000
00000000
00000000
00001000
00000000
00010000
00000100
00000000
00000000
,
00000010
00000000
00000000
00000000
00000000
00000001
00000000
00000000
00001000
00000000
00000000
00000001
00000000
00000000
00001000
00000100
00000000
00000000
00010000
00000000
00001000
00000000
00000000
00000000
,
00010000
00000000
00000000
00000000
00000000
00000000
00001000
00000000
00010000
01000000
00000000
00000000
00010000
00000000
00001000
00000100
00000000
00000000
00000010
00000000
00000100
00000000
00000000
00000100
,
00000010
00000000
00000000
00000101
00000000
00000000
00000110
00000000
00000000
00000000
00001001
00000000
00000101
00000000
00000000
00000000
,
00000001
00000000
00000000
00000100
00000000
00000000
00001000
00000000
00010000
00000000
00000000
00001000
00000000
00000000
00000010
00000001
00000000
00000000
00001000
00000000
00000000
00001000
00000000
00000000
,
00001000
00000000
00000100
00000000
00010000
00001000
00011000
00000000
,
00100000
00000000
00000000
00010000
00000000
10000000
00100000
00000000
00000000
00000000
00000000
01000000
00100000
00000000
00100000
10000000
00000000
00000000
01000000
00000000
00000000
00000000
00000000
00000000
,
00010000
00000000
00000000
00000000
00000000
00010000
00001000
00000000
00000000
00000000
00000000
00000010
00001000
00000000
00000000
00010000
00000000
00000000
00100000
00000000
00010000
00001000
00000000
00000000
,
00010000
00000000
00000000
00100000
10000000
01000000
00010000
00001000
00000010
00000001
00000100
00001000
,
00011000
00000000
00000000
00011000
00000000
00000000
00022000
00000000
00000000
00000000
00000000
00000000
00033000
00000000
00000000
00000000
,
00000000
00000000
00000000
00000000
;
