
//----- song ID: badm -----//
#TITLE:Bad Maniacs;
#ARTIST:kors k as teranoid;
#BANNER:Bad Maniacs.png;
#BACKGROUND:Bad Maniacs-bg.png;
#CDTITLE:./CDTitles/bm IIDX 17 SIRIUS.png;
#MUSIC:Bad Maniacs.ogg;
#SAMPLESTART:87.384;
#SAMPLELENGTH:15;
#BPMS:0=195;
#BGSTAGE:29;
#NOTES:
     dance-single:
     :
     Beginner:
     4:
     :
0000
0000
0000
0000
,
0000
0000
0000
0000
,
0000
0000
0000
0000
,
0000
0000
0000
0000
,
0000
0000
0000
0000
,
0000
0000
0000
0000
,
0000
0000
0000
0000
,
0000
0000
0000
0000
,
0000
0000
0000
0000
,
0000
0000
0000
0000
,
0000
0000
0000
0000
,
0000
0000
0000
0000
,
0000
0000
0000
0000
,
0000
0000
0000
0000
,
0000
0000
0000
0000
,
1000
0000
0001
0000
,
0100
0000
0000
0000
,
0001
0000
1000
0000
,
0100
0000
0000
0000
,
1000
0000
0001
0000
,
0010
0000
0000
0000
,
0001
0000
1000
0000
,
0010
0000
0100
0000
,
0010
0000
1000
0000
,
0001
0000
0000
0000
,
1000
0000
0100
0000
,
0010
0000
0100
0000
,
0010
0000
0001
0000
,
1000
0000
0000
0000
,
1001
0000
0000
0000
,
0000
0000
0000
0000
,
0001
0000
1000
0000
,
0002
0000
0000
0003
,
0100
0000
0010
0000
,
0200
0000
0000
0300
,
0001
0000
1000
0000
,
0002
0000
0000
0003
,
0010
0000
0100
0000
,
0000
0000
0000
0000
,
1000
0000
0100
0000
,
0010
0000
0001
0000
,
1000
0000
0100
0000
,
0010
0000
0001
0000
,
1000
0000
0010
0000
,
0100
0000
0001
0000
,
1000
0000
0001
0000
,
0100
0100
0100
0000
,
0001
0000
1000
0000
,
0010
0000
0100
0000
,
0001
0000
1000
0000
,
0010
0000
0100
0000
,
0010
0000
1000
0000
,
0001
0000
0100
0000
,
0001
0000
1000
0000
,
0100
0000
0010
0000
,
0002
0000
0000
0000
,
0000
0000
0000
0000
,
0000
0000
0000
0000
,
0003
0000
0000
0000
,
1000
0000
0001
0000
,
1001
0000
0000
0000
,
0100
0000
0010
0000
,
0110
0000
0000
0000
,
0001
0000
0100
0000
,
0001
0000
0100
0000
,
0010
0000
1000
0000
,
0010
0000
1000
0000
,
0001
0000
0010
0000
,
0001
0000
1000
0000
,
0010
0000
0100
0000
,
0020
0000
0000
0030
,
1000
0000
0001
0000
,
0100
0100
0100
0000
,
0001
0000
1000
0000
,
0100
0100
0100
0000
,
0001
0000
1000
0000
,
0010
0010
0010
0000
,
1000
0000
0001
0000
,
0010
0010
0010
0000
,
1000
0000
0100
0000
,
0010
0010
0010
0000
,
0001
0000
1000
0000
,
0010
0010
0010
0000
,
0100
0000
0001
0000
,
1000
1000
1000
0000
,
0001
0000
0100
0000
,
0010
0010
0010
0000
,
0110
0000
0000
0000
,
0000
0000
0000
0000
,
0000
0000
0000
0000
,
0000
0000
0000
0000
,
0000
0000
0000
0000
,
0000
0000
0000
0000
,
0000
0000
0000
0000
,
0000
0000
0000
0000
,
0000
0000
0000
0000
,
0001
1000
0001
1000
,
0001
0000
0000
0000
,
0000
0000
0000
0000
;
#NOTES:
     dance-single:
     :
     Easy:
     11:
     :
0000
0000
0000
0000
,
0000
0000
0000
0000
,
0000
0000
0000
0000
,
0000
0000
0000
0000
,
0000
0000
0000
0000
,
0000
0000
0000
0000
,
0000
0000
0000
0000
,
0000
0000
0000
0000
,
0000
0000
0000
0000
,
0000
0000
0000
0000
,
0000
0000
0000
0000
,
0000
0000
0000
0000
,
0000
0000
0000
0000
,
0000
0000
0000
0000
,
0000
0000
0000
0000
,
1000
0100
1000
0001
,
0100
0010
0110
0000
,
0001
0010
0001
1000
,
0100
0000
0010
0000
0100
0010
0100
0000
,
1000
0010
0100
0001
,
1000
0001
1001
0000
,
0001
0100
0010
1000
,
0001
0100
0001
0000
1000
0010
1000
0000
,
0100
0010
0100
0000
1000
0000
0001
0000
,
0100
0010
0110
0000
,
1000
0001
1000
0001
0100
0000
0010
0000
,
1000
0000
0010
0000
0100
0001
1000
0000
,
0100
0010
0100
0000
1000
0000
0010
0000
,
0100
0001
1001
0000
,
1000
0000
0000
1000
0000
0000
1000
0000
0000
0100
0000
0000
0100
0000
0000
0100
,
0000
0000
0010
0000
0000
0010
0000
0000
0010
0000
0000
0000
0000
0000
0000
0000
,
0001
0100
0001
0000
1000
0010
1000
0000
,
0010
0100
0002
0000
0023
0000
0230
0000
,
1300
0010
1000
0000
0001
0010
0001
0000
,
0010
0100
2000
0000
3002
0000
0203
0000
,
0310
1000
0010
0000
0100
0001
0100
0000
,
0001
0000
0000
0000
0000
0000
0000
0000
0000
0000
0000
0000
0000
0000
0000
0000
0000
0000
0000
0000
0000
0000
0000
0000
0010
0000
0000
0000
0000
0000
0000
0000
0000
0000
0000
0000
0000
0000
0000
0000
0000
0000
0000
0000
0000
0000
0000
0000
0200
0000
0000
0000
0000
0000
0000
0000
0000
0000
0000
0000
0000
0000
0000
0000
0000
0000
0000
0000
0000
0000
0000
0000
0000
0000
0000
0000
0000
0000
0000
0000
0000
0000
0000
0000
0000
0000
0000
0000
0000
0000
0000
0000
0000
0000
0000
0000
2300
0000
0000
0000
0000
0000
0000
0000
0000
0000
0000
0000
0000
0000
0000
0000
0000
0000
0000
0000
0000
0000
0000
0000
0000
0000
0000
0000
0000
0000
0000
0000
0000
0000
0000
0000
0000
0000
0000
0000
0000
0000
0000
0000
0000
0000
0000
0000
3002
0000
0000
0000
0000
0000
0000
0000
0000
0000
0000
0000
0000
0000
0000
0000
0000
0000
0000
0000
0000
0000
0000
0000
0000
0000
0000
0000
0000
0000
0000
0000
0000
0000
0000
0000
0000
0000
0000
0000
0000
0000
0000
0000
0000
0000
0000
0003
,
0100
0010
0100
0000
0001
1000
0001
1000
,
0000
0000
0000
0000
,
0001
0010
0100
1000
0100
0000
1000
0000
,
0010
0100
0020
0000
2030
0000
3002
0000
,
1003
0100
0010
0001
0010
0000
0001
0000
,
0100
0010
0200
0000
0302
0000
2003
0000
,
3001
0100
0010
1000
0010
0000
1000
0000
,
0100
0010
0200
0000
2300
0000
3002
0000
,
0103
0010
0100
0000
0001
1000
0001
0000
,
0010
0100
0010
0000
0001
0000
1000
0000
,
0001
0100
0001
0000
1000
0010
1000
0010
,
0100
0010
0100
0001
1000
0000
1001
0000
,
1000
0010
1000
0000
0001
0100
0001
0100
,
0010
0100
0010
1000
0001
0000
1001
0000
,
0010
0100
0010
0000
0110
0000
1001
0000
,
1000
0100
0010
0000
0011
0000
1001
0000
,
1000
0010
1000
0000
0010
0100
0010
0000
,
0100
0001
0100
0000
0001
1000
0001
0000
,
2000
0000
0000
0000
,
0000
0000
0000
0000
,
0000
0000
0000
0000
,
0000
0000
0000
0000
,
3001
0100
0001
0000
1000
0100
1000
0000
,
1001
0000
0000
0000
,
0001
0010
0001
0000
1000
0010
1000
0000
,
1001
0000
0000
0000
,
0001
0010
0001
0000
0010
0100
0010
0000
,
0001
0100
0001
0000
0100
0010
0100
0000
,
0010
1000
0010
0000
1000
0100
1000
0000
,
0010
0100
0010
0000
1000
0001
1000
0000
,
0001
0010
0100
0000
0010
0100
1000
0000
,
0001
0100
0010
0000
0100
0010
1000
0000
,
0001
0100
0010
1000
0001
0100
0010
1000
,
0002
0000
0000
1003
,
0001
0100
0001
0000
0110
0000
1010
0000
,
1000
0100
1000
0000
0001
0100
0001
0000
,
1000
0010
1000
0000
0110
0000
0101
0000
,
0001
0010
0001
0000
1000
0100
1000
0000
,
0001
0010
0001
0000
0110
0000
1100
0000
,
1000
0010
1000
0000
0001
0010
0001
0000
,
1000
0100
1000
0000
0110
0000
0011
0000
,
0001
0100
0001
0100
0010
1000
0010
0000
,
1000
0100
0010
0000
0011
0000
1100
0000
,
0001
0100
0010
0000
0100
0010
1000
0000
,
0001
0010
0100
0000
1100
0000
0011
0000
,
1000
0010
0100
0000
0010
0100
0001
0000
,
0100
0001
0010
0000
0110
0000
1001
0000
,
0001
0100
0010
0000
1000
0100
0010
0000
,
0100
1000
0010
0000
0110
0000
1001
0000
,
1000
0100
1000
0100
0010
0001
0010
0000
,
1001
0000
0000
0000
,
0000
0000
0000
0000
,
0000
0000
0000
0000
,
0000
0000
0000
0000
,
0000
0000
0000
0000
,
0000
0000
0000
0000
,
0000
0000
0000
0000
,
0000
0000
0000
0000
,
0000
0000
0000
0000
,
0100
0010
0100
0010
0100
0010
0100
0010
,
0100
0000
0000
0000
,
0000
0000
0000
0000
;
#NOTES:
     dance-single:
     :
     Medium:
     13:
     :
0000
0000
0000
0000
,
0000
0000
0000
0000
,
0000
0000
0000
0000
,
0000
0000
0000
0000
,
0000
0000
0000
0000
,
0000
0000
0000
0000
,
0000
0000
0000
0000
,
0000
0000
0000
0000
,
0000
0000
0000
0000
,
0000
0000
0000
0000
,
0000
0000
0000
0000
,
0000
0000
0000
0000
,
0000
0000
0000
0000
,
0000
0000
0000
0000
,
0000
0000
0000
0000
,
1001
0001
0010
0100
,
1001
0000
0011
0000
1010
0000
1000
0001
,
1001
1000
0100
0010
,
1001
0000
1010
0000
0100
0010
0100
0010
,
0110
0100
0010
1000
,
0011
0000
1100
0000
0110
0000
0010
0100
,
0110
0001
1000
0100
,
1000
0001
1001
0000
1000
0001
1000
0001
,
0100
0010
0110
0000
1100
0000
0011
0000
,
1000
0010
0100
1001
,
0010
0100
0010
0100
0110
0000
1001
0000
,
1010
0000
0011
0000
1000
0100
0010
0001
,
1000
0001
1000
0000
0110
0000
0101
0000
,
1010
0000
1100
0000
0011
0000
1000
0010
,
0110
0000
0000
0001
0000
0000
1000
0000
0000
1001
0000
0000
0100
0000
0000
0010
,
0000
0000
0110
0000
0000
0001
0000
0000
1000
0000
0000
0000
0000
0000
0000
0000
,
1000
0010
1000
0010
0100
0001
0100
0001
,
0010
0100
2000
0000
3002
0000
0023
0000
,
0130
0010
0100
0010
1000
0100
1000
0010
,
0100
0001
2000
0000
3200
0000
0320
0000
,
0031
0100
0001
0100
0010
1000
0010
1000
,
0001
0000
0000
0000
0000
0000
0000
0000
0000
0000
0000
0000
0000
0000
0000
0000
0000
0000
0000
0000
0000
0000
0000
0000
0010
0000
0000
0000
0000
0000
0000
0000
0000
0000
0000
0000
0000
0000
0000
0000
0000
0000
0000
0000
0000
0000
0000
0000
0200
0000
0000
0000
0000
0000
0000
0000
0000
0000
0000
0000
0000
0000
0000
0000
0000
0000
0000
0000
0000
0000
0000
0000
0000
0000
0000
0000
0000
0000
0000
0000
0000
0000
0000
0000
0000
0000
0000
0000
0000
0000
0000
0000
0000
0000
0000
0000
2300
0000
0000
0000
0000
0000
0000
0000
0000
0000
0000
0000
0000
0000
0000
0000
0000
0000
0000
0000
0000
0000
0000
0000
0000
0000
0000
0000
0000
0000
0000
0000
0000
0000
0000
0000
0000
0000
0000
0000
0000
0000
0000
0000
0000
0000
0000
0000
3002
0000
0000
0000
0000
0000
0000
0000
0000
0000
0000
0000
0000
0000
0000
0000
0000
0000
0000
0000
0000
0000
0000
0000
0000
0000
0000
0000
0000
0000
0000
0000
0000
0000
0000
0000
0000
0000
0000
0000
0000
0000
0000
0000
0000
0000
0000
0003
,
0100
0010
0100
0001
1000
0100
0010
0001
,
0000
0000
0000
0000
,
1000
0100
1000
0010
0100
0001
0100
0001
,
0010
0100
2000
0000
3002
0000
0203
0000
,
0310
1000
0100
1000
0001
0010
0001
0100
,
0010
1000
0002
0000
0023
0000
0230
0000
,
1300
0010
0001
0010
0100
0010
1000
0010
,
0100
0001
0020
0000
0230
0000
2300
0000
,
3001
0010
0001
0000
1000
0010
1000
0000
,
0001
1000
0001
0000
2002
0000
3003
0000
,
1000
0010
0100
0001
1000
0010
0100
0001
,
1000
1000
0001
0001
0101
0000
1100
0000
,
0001
0010
0100
1000
0001
0010
0100
1000
,
0001
1000
1001
0000
1010
0000
0011
0000
,
0001
0100
0010
1000
0001
0100
0010
1000
,
0001
0001
1000
1000
1010
0000
0011
0000
,
1000
0100
1000
0100
0010
0001
0010
0001
,
1000
0010
0100
0001
1000
0010
0100
0001
,
2000
0000
0000
0000
,
0000
0000
0000
0000
,
0000
0000
0000
0000
,
0000
0000
0000
0000
,
3010
0100
0010
0000
1000
0100
0010
0001
,
1000
0000
0000
0000
,
0100
0010
0100
0000
1000
0010
0100
0001
,
1000
0000
0000
0000
,
0001
0010
0100
1000
1100
0000
0011
0000
,
0001
0100
0010
1000
1010
0000
0101
0000
,
0001
0010
0100
1000
1010
0000
0101
0000
,
0001
0100
0010
1000
1100
0000
0011
0000
,
0001
0100
0001
1000
0010
0100
0001
0010
,
0100
1000
0100
0010
0001
0100
1000
0100
,
0010
1000
0100
0010
0100
0010
0100
0010
,
0002
0000
0000
1003
,
0001
0100
0010
0000
1010
0000
1100
0000
,
1000
0001
0100
0001
0010
0100
1000
0001
,
1000
0010
0100
0000
0110
0000
0101
0000
,
0001
0010
1000
0010
0100
1000
0010
0100
,
0001
1000
0100
0000
1100
0000
1010
0000
,
0010
1000
0100
0010
0001
0100
0010
1000
,
0100
0010
0001
0000
0011
0000
0101
0000
,
0100
0010
0100
1000
0100
0010
0100
0001
,
1000
0100
0010
0000
0110
0000
0011
0000
,
0001
1000
0010
0100
0001
0010
0100
1000
,
0001
0010
0100
0000
0110
0000
1100
0000
,
1000
0010
0100
0001
0010
0100
1000
0001
,
0010
0100
1000
0000
1010
0000
0101
0000
,
1000
0100
0001
0100
0010
0001
0100
0010
,
1000
0001
0100
0000
0101
0000
1010
0000
,
0001
0100
1000
0100
0001
1000
0100
0001
,
0100
0000
0000
0000
,
0000
0000
0000
0000
,
0000
0000
0000
0000
,
0000
0000
0000
0000
,
0000
0000
0000
0000
,
0000
0000
0000
0000
,
0000
0000
0000
0000
,
0000
0000
0000
0000
,
0000
0000
0000
0000
,
1000
0000
0001
0000
1000
0000
0001
0000
1000
0001
1000
0001
1000
0001
1000
0001
,
1000
0000
0000
0000
,
0000
0000
0000
0000
;
#NOTES:
     dance-single:
     :
     Hard:
     16:
     :
0000
0000
0000
0000
,
0000
0000
0000
0000
,
0000
0000
0000
0000
,
0000
0000
0000
0000
,
0000
0000
0000
0000
,
0000
0000
0000
0000
,
0000
0000
0000
0000
,
0000
0000
0000
0000
,
0000
0000
0000
0000
,
0000
0000
0000
0000
,
0000
0000
0000
0000
,
0000
0000
0000
0000
,
0000
0000
0000
0000
,
0000
0000
0000
0000
,
0000
0000
0000
0000
,
1100
0000
0011
0000
1001
0010
0110
0000
,
1001
0000
0000
0000
0101
0000
0000
0000
1010
0000
0000
0000
0010
0100
0010
0000
,
1010
0000
0101
0000
0011
0001
1100
1000
,
1001
0000
0000
0000
0101
0000
0000
0000
1010
0000
1000
0000
0001
0010
0001
0000
,
1001
0000
0110
0000
1010
0001
0101
0000
,
1100
0000
0000
0000
0101
0000
0000
0000
0011
0000
0000
0000
0010
0100
0010
0000
,
0110
0000
1100
0000
0011
1000
1010
0000
,
0110
0000
0110
0000
0110
0000
0000
0000
0101
0000
0101
0000
0001
1000
0001
0000
,
1100
1100
0110
0000
0011
0001
1001
1000
,
1010
0000
0000
0000
0101
0000
0000
0000
1001
0000
0000
0000
1000
0001
1000
0000
,
1010
1010
0001
0001
0011
0100
0110
0000
,
1100
0000
0000
0000
0011
0000
0000
0000
1001
0000
1001
0000
0001
1000
0001
0000
,
0101
0101
0110
0000
1010
1000
1001
0000
,
0101
0000
0001
0000
1001
0000
0000
0000
1001
0000
0000
0000
1000
0001
1000
0000
,
1100
0000
0000
0110
0000
0000
0011
0000
0000
1001
0000
0000
0101
0000
0000
0110
,
0000
0000
1010
0000
0000
1001
0000
0000
1100
0000
0000
0000
0000
0000
0000
0000
,
0100
0010
0100
0010
0100
0000
0010
0000
0001
0010
0001
0000
1000
0100
1000
0100
,
1000
0100
2000
0000
3200
0000
0320
0000
,
0031
0100
0001
0100
0001
0000
0100
0000
0010
1000
0010
0000
1000
0100
1000
0100
,
1000
0100
0020
0000
0032
0000
2003
0000
,
3100
0010
0100
0010
0100
0000
0010
0000
0001
0010
0001
0000
1000
0010
1000
0010
,
1000
0010
2000
0000
3200
0000
0320
0000
,
0031
1000
0001
1000
0001
0000
0010
0000
0100
0010
0100
0000
1000
0001
1000
0002
,
0000
0000
0000
0003
,
1000
0010
1000
0010
0100
0000
0010
0000
1000
0000
0100
0000
0010
0001
0010
0000
,
0001
1000
0020
0000
0230
0000
0302
0000
,
0013
0100
0010
0100
1000
0000
0100
0000
1000
0000
0001
0000
0100
0010
0100
0000
,
0010
1000
0002
0000
0023
0000
0230
0000
,
1300
0001
1000
0001
0010
0000
0001
0000
0100
0000
0010
0000
0100
0001
0100
0000
,
0001
0010
0200
0000
2300
0000
3020
0000
,
0130
0001
0100
0001
1000
0000
0001
0000
0010
0100
0010
0100
0010
0000
0100
0000
,
1000
0001
1000
0001
1000
0000
0000
0000
2002
0000
0000
0000
3003
0000
0000
0000
,
1000
0100
1000
0000
0001
0100
0001
0000
1000
0100
1000
0000
0001
0100
0001
0000
,
1000
0100
1000
0000
0001
0100
0001
0000
1100
0000
0000
0000
0101
0000
0000
0000
,
1000
0010
1000
0000
0001
0010
0001
0000
1000
0010
1000
0000
0001
0010
0001
0000
,
0011
0011
0002
0000
1003
0010
0100
0001
,
1000
0010
0100
0000
0001
0010
0100
0000
1000
0010
0100
0000
0001
0010
0100
0000
,
0010
0001
1000
0000
0010
0100
0001
0000
0010
0100
1000
0000
0010
0100
0001
0000
,
1000
0100
0010
0001
1000
0100
0010
0001
,
1000
0100
0001
0010
1000
0100
0001
0010
,
0200
0000
0000
0000
,
0000
0000
0000
0000
,
0000
0000
0000
0000
,
0000
0000
0000
0000
,
0310
0000
0010
0000
1001
0000
0000
0000
1000
0100
1000
0000
0001
0100
0001
0100
,
0001
0000
0000
0000
,
0010
0000
0010
0000
1001
0000
0000
0000
0001
0100
0001
0000
1000
0010
1000
0010
,
1000
0000
0000
0000
,
0001
0100
0001
0000
0100
0010
0100
0000
0110
0000
0000
0000
1010
0000
0000
0000
,
1000
0100
1000
0000
0100
0010
0100
0000
0110
0000
0000
0000
0011
0000
0000
0000
,
0001
1000
0001
0000
0100
0010
0100
0000
1010
0000
0000
0000
0101
0000
0000
0000
,
1000
0001
1000
0000
0100
0010
0100
0000
0011
0000
0000
0000
1100
0000
0000
0000
,
1000
0100
1000
0000
0100
0010
0100
0000
0010
0001
0010
0000
0001
1000
0001
0000
,
1000
0100
0010
0000
0100
0010
0001
0000
0010
0001
1000
0000
0001
1000
0100
0000
,
1000
0000
0000
0100
0000
0000
0010
0000
0000
0001
0000
0000
1000
0000
0010
0000
1000
0000
0001
0000
0100
0000
0001
0000
,
0020
0000
0000
0130
,
0100
0000
1000
0000
1100
0000
0000
0000
0011
0000
0001
0000
1000
0010
0100
0000
,
0001
0000
1000
0000
0010
0000
0100
0000
0001
0000
1000
0000
0100
0010
0100
0010
,
0100
0000
0010
0000
0011
0000
0000
0000
1100
0000
0100
0000
1000
0001
0100
0000
,
0020
0000
2030
0000
3002
0000
2003
0000
3010
0100
0010
0000
0100
0001
0100
0001
,
0100
0000
0001
0000
0011
0000
0000
0000
0110
0000
0010
0000
0001
0100
0010
0000
,
1000
0000
0100
0000
0010
0000
0001
0000
0100
0010
0100
0000
0010
1000
0010
1000
,
0010
0000
1000
0000
1100
0000
0000
0000
0110
0000
0100
0000
1000
0010
0100
0000
,
0001
0010
0001
0010
0100
0000
1000
0000
0010
0100
0010
0100
0001
0100
0001
0100
,
0001
0000
1000
0000
1010
0000
0000
0000
0101
0000
0001
0000
0010
0001
0100
0000
,
0001
0000
1000
0000
0010
0000
0100
0000
0001
0000
1000
0000
0100
0010
0100
0010
,
0001
0000
0100
0000
0101
0000
0000
0000
1010
0000
0010
0000
0100
0001
0010
0000
,
0001
0000
1000
0000
0010
0000
0100
0000
0001
0000
1000
0000
0100
0010
0100
0010
,
0001
0000
1000
0000
1010
0000
0000
0000
0101
0000
0001
0000
0010
0001
0100
0000
,
0010
0000
1000
0000
0100
0000
0010
0000
0001
0000
0100
0000
0010
0100
0010
0100
,
0001
0000
1000
0000
1100
0000
0000
0000
0011
0000
0001
0000
0100
0001
0010
0000
,
0100
1000
0100
1000
0001
0010
0001
0010
0001
1000
0010
0100
0001
0000
0000
0000
,
1001
0000
0000
0000
,
0000
0000
0000
0000
,
0000
0000
0000
0000
,
0000
0000
0000
0000
,
0000
0000
0000
0000
,
0000
0000
0000
0000
,
0000
0000
0000
0000
,
0000
0000
0000
0000
,
0000
0000
0000
0000
,
0100
0010
0100
0010
0100
0010
0100
0010
0100
0010
0100
0010
0100
0010
0100
0010
,
0100
0000
0000
0000
,
0000
0000
0000
0000
;
#NOTES:
     dance-single:
     :
     Challenge:
     18:
     :
0000
0000
0000
0000
,
0000
0000
0000
0000
,
0000
0000
0000
0000
,
0000
0000
0000
0000
,
0000
0000
0000
0000
,
0000
0000
0000
0000
,
0000
0000
0000
0000
,
0000
0000
0000
0000
,
0000
0000
0000
0000
,
0000
0000
0000
0000
,
0000
0000
0000
0000
,
0000
0000
0000
0000
,
0000
0000
0000
0000
,
0000
0000
0000
0000
,
0000
0000
0000
0000
,
2001
0000
0000
0000
3010
0000
0100
0000
0010
1000
0100
0000
0010
0001
0100
0000
,
0001
0100
0010
0000
1000
0100
0010
0000
1002
0000
0000
0000
1003
0001
1000
0001
,
2000
0000
0000
0000
3001
0000
1000
0000
0010
1000
0100
0000
0010
0001
0100
0000
,
0010
1000
0001
0000
0010
0001
1000
0000
1001
0000
1001
0000
0001
0100
0010
1000
,
0002
0000
0000
0000
1003
0000
0010
0000
0100
0001
0010
0000
0100
1000
0010
0000
,
0100
0010
1000
0000
0100
0010
0001
0000
0020
0000
0000
0000
0130
0010
0100
0010
,
0200
0000
0000
0000
0310
0000
0001
0000
1000
0100
0010
0000
0001
0010
0100
0000
,
1100
0000
1100
0000
0010
0000
0010
0000
0101
0000
0101
0000
1000
0100
1000
0100
,
1000
1000
1100
0100
0110
0010
0011
0001
,
1000
0010
0100
0000
0001
0010
0100
0000
0220
0000
0000
0000
0330
0000
0000
0000
,
0011
0011
0100
0100
1010
1010
0100
0100
,
0001
0010
0100
0000
1000
0010
0100
0000
0110
0000
1001
0000
0002
0000
0000
0000
,
1003
0001
0101
0100
0110
0010
1010
1000
,
1000
0010
0100
0000
0001
0010
0100
0000
0210
0000
0000
0000
0310
0100
1000
0001
,
0011
0000
0000
0110
0000
0000
1100
0000
0000
1010
0000
0000
0110
0000
0000
0101
,
0000
0000
0011
0000
0000
0101
0000
0000
1100
0000
0000
0000
0000
0000
0000
0000
,
1000
0100
0010
0001
1000
0000
0010
0000
0100
0010
0100
0000
0001
0100
0010
1000
,
0001
1000
0002
0000
0023
0000
0230
0000
,
1300
0010
0100
0001
1000
0000
0010
0000
0100
0010
0100
0000
0001
0010
0100
1000
,
0001
1000
1010
0000
0110
0000
0101
0000
,
0001
1000
0010
0100
0001
0000
0010
0000
0100
0010
0100
0000
1000
0001
0010
0100
,
1000
0001
2000
0000
3200
0000
0320
0000
,
0031
0010
0100
1000
0001
0000
0100
0000
0010
0100
0010
0000
1000
0100
0001
0200
,
0000
0000
0000
0300
,
1000
0010
0001
0010
1000
0000
0100
0000
0010
0100
0010
0000
0001
0010
1000
0010
,
0001
1000
0200
0000
0320
0000
0032
0000
,
1003
0100
0001
0100
1000
0000
0100
0000
0010
0100
0010
0000
0001
0100
1000
0100
,
0001
0100
0101
0000
0110
0000
1010
0000
,
0001
0100
1000
0100
0001
0000
0010
0000
0100
0010
0100
0000
1000
0100
0001
0100
,
1000
0001
0020
0000
0230
0000
2300
0000
,
3001
0010
1000
0010
0001
0000
0010
0000
0100
0010
0100
0000
1000
0010
0001
0010
,
1000
0001
1000
0001
1000
0000
0000
0000
2002
0000
0000
0000
3003
0000
0000
0000
,
0001
0100
0010
0000
1000
0010
0100
0000
0001
0010
0100
0000
1000
0100
0010
0000
,
0011
1000
0011
0100
0011
1000
0001
0100
,
0001
0000
0100
0001
0010
0000
0100
0000
0010
0001
0100
0000
0010
1000
0100
0000
,
0110
0110
0200
0300
1001
1001
0001
1000
,
0001
0100
0001
0000
0100
0010
0100
0000
0010
1000
0010
0000
1000
0100
1000
0000
,
1100
0001
1100
0010
1100
0001
1100
1000
,
0100
0100
0010
0010
0001
0001
1000
1000
,
0010
0010
0100
1000
0100
0001
0010
1000
,
0200
0000
0000
0000
,
0000
0000
0000
0000
,
0000
0000
0000
0000
,
0000
0000
0000
0000
,
0310
0000
0010
0000
1001
0000
0000
0000
1000
0100
1000
0000
0001
0100
1000
0100
,
0001
0000
0000
0000
,
0100
0000
0100
0000
1001
0000
0000
0000
0001
0100
0001
0000
1000
0100
0001
0100
,
1000
0000
0000
0000
,
1000
0100
1000
0100
0010
0000
0001
0100
0001
0100
0010
0000
0100
0001
0010
0100
,
1000
0001
1000
0001
0100
0000
0001
1000
0001
1000
0010
0000
0100
0001
0010
0100
,
1000
0001
0100
0010
1000
0000
0001
0010
0100
1000
0001
0000
0100
0001
0010
0100
,
1000
0010
0100
0001
1000
0000
0001
0010
0100
1000
0001
0000
0010
0001
0100
0010
,
1000
0100
1000
0001
1000
0000
0010
0100
0001
0100
0001
1000
0001
0010
0100
0000
,
0010
0001
0100
0010
1000
0001
0100
0010
1000
0000
0001
0010
0001
0100
0010
0000
,
1010
0000
0000
1010
0000
0000
0101
0000
0000
0101
0000
0000
1000
0000
0010
0000
0100
0000
0001
0000
0010
0000
0100
0000
,
1000
0100
1000
0010
1000
0001
0100
0010
1000
0001
0010
0100
2000
0000
0000
0000
,
3001
0000
0001
0000
1000
0010
1000
0000
0001
0100
0001
0000
1000
0100
1000
0001
,
0010
0100
1000
0001
1000
0000
0001
0100
0010
1000
0010
0000
1000
0100
0010
0100
,
1000
0000
1000
0000
0001
0010
0001
0000
1000
0100
1000
0000
0001
0100
0001
1000
,
0100
0010
0001
1000
0020
0000
0230
0000
0301
1000
0100
0000
1000
0010
0100
0001
,
1000
0000
1000
0000
0001
0010
0100
0000
0010
0100
1000
0000
0001
0010
0001
1000
,
0010
0100
0001
1000
0001
0000
1000
0100
0010
0001
0010
0000
0001
0100
1000
0100
,
0001
0000
0001
0000
1000
0100
0010
0000
0100
0010
0001
0000
1000
0010
0100
0000
,
0101
0101
0110
0110
1010
1001
1100
0110
,
0010
0000
0010
0000
0001
0010
1000
0000
0001
0100
1000
0000
0001
0100
0010
1000
,
0100
0010
0001
1000
0010
0000
1000
0100
0010
0001
0010
0000
0001
0100
1000
0100
,
0010
0000
0010
0000
1000
0010
0001
0000
1000
0100
0001
0000
1000
0100
0010
0001
,
0100
0010
1000
0001
0010
0000
0001
0100
0010
1000
0010
0000
1000
0100
0001
0100
,
0010
0000
0010
0000
0001
0100
1000
0000
0001
0010
1000
0000
0001
0010
0100
1000
,
0010
0100
0001
0010
0100
0000
0010
0001
0100
0010
1000
0000
0001
0100
1000
0100
,
0010
0000
0010
0000
1000
0100
0001
0000
1000
0010
0001
0000
1000
0010
0100
0001
,
0010
0100
1000
0001
0010
0100
0010
0001
1000
0010
0100
0001
0010
0100
1000
0001
,
0010
0000
0000
0000
,
0000
0000
0000
0000
,
0000
0000
0000
0000
,
0000
0000
0000
0000
,
0000
0000
0000
0000
,
0000
0000
0000
0000
,
0000
0000
0000
0000
,
0000
0000
0000
0000
,
0000
0000
0000
0000
,
0001
0100
1000
0001
0010
1000
0100
1000
0010
0001
1000
0100
0001
0010
1000
0001
,
0100
0000
0000
0000
,
0000
0000
0000
0000
;
#NOTES:
     dance-double:
     :
     Easy:
     11:
     :
00000000
00000000
00000000
00000000
,
00000000
00000000
00000000
00000000
,
00000000
00000000
00000000
00000000
,
00000000
00000000
00000000
00000000
,
00000000
00000000
00000000
00000000
,
00000000
00000000
00000000
00000000
,
00000000
00000000
00000000
00000000
,
00000000
00000000
00000000
00000000
,
00000000
00000000
00000000
00000000
,
00000000
00000000
00000000
00000000
,
00000000
00000000
00000000
00000000
,
00000000
00000000
00000000
00000000
,
00000000
00000000
00000000
00000000
,
00000000
00000000
00000000
00000000
,
00000000
00000000
00000000
00000000
,
00001000
00010000
00000100
00001000
,
00000100
00000010
00000110
00000000
,
00000001
00001000
00000100
00010000
,
00001000
01000000
00010000
10000000
,
00100000
01000000
00010000
01000000
,
00001000
00010000
00011000
00000000
,
00010000
00000010
00001000
00000001
,
00001000
00000010
00001000
00000000
00000010
00010000
00000010
00000000
,
00010000
00001000
00100000
00010000
,
00100000
01000000
01100000
00000000
,
10000000
00010000
10000000
00000000
00010000
00000000
01000000
00000000
,
00001000
00000000
00010000
00000000
00000100
00001000
00000001
00000000
,
00000100
00000010
00001000
00000100
,
00010000
00001000
00011000
00000000
,
01000000
00000000
00000000
01000000
00000000
00000000
01000000
00000000
00000000
00010000
00000000
00000000
00010000
00000000
00000000
00010000
,
00000000
00000000
10000000
00000000
00000000
10000000
00000000
00000000
10000000
00000000
00000000
00000000
00000000
00000000
00000000
00000000
,
00100000
01000000
00100000
00000000
01000000
00010000
01000000
00000000
,
00001000
00010000
00002000
00000000
00003200
00000000
00000302
00000000
,
00001003
00000010
00001000
00000000
00000001
00000100
00000001
00000000
,
00001000
00000100
00020000
00000000
00032000
00000000
02003000
00000000
,
03010000
01000000
00010000
00000000
10000000
01000000
10000000
00000000
,
01000000
00010000
00002000
00000000
00003020
00000000
00000032
00000000
,
00000103
00000010
00000100
00000000
00000001
00001000
00000100
00010000
,
00000000
00000000
00000000
00000000
,
00001000
01000000
00010000
10000000
01000000
00000000
00100000
00000000
,
01000000
00100000
02000000
00000000
03020000
00000000
00032000
00000000
,
00013000
00000010
00001000
00000001
00000100
00000000
00000001
00000000
,
00000010
00000100
00000020
00000000
00002030
00000000
00023000
00000000
,
00031000
00100000
00010000
10000000
00100000
00000000
01000000
00000000
,
00100000
01000000
00200000
00000000
00320000
00000000
00032000
00000000
,
00013000
00000100
00010000
00000000
00000100
00000010
00000100
00000000
,
00000010
00000001
00000010
00000000
00000001
00000000
00001000
00000000
,
00000100
00010000
00000100
00000000
00010000
00001000
00010000
00000000
,
00001000
01000000
00001000
01000000
00010000
00000000
10010000
00000000
,
10000000
01000000
10000000
00000000
01000000
00100000
01000000
00000000
,
00100000
00010000
00100000
00001000
00010000
00000000
00011000
00000000
,
00010000
00000010
00010000
00000000
00000010
00000000
00001000
00000000
,
00000001
00000010
00000100
00000000
00000110
00000000
00001100
00000000
,
00001000
00000100
00001000
00000000
00000100
00010000
00001000
00000000
,
00100000
00001000
00100000
00000000
00010000
10000000
00100000
00000000
,
02000000
00000000
00000000
00000000
,
00000000
00000000
00000000
00000000
,
00000000
00000000
00000000
00000000
,
00000000
00000000
00000000
00000000
,
03010000
10000000
00010000
00000000
00100000
00001000
00100000
00000000
,
00011000
00000000
00000000
00000000
,
00010000
00000100
00010000
00000000
00000010
00001000
00000010
00000000
,
00001010
00000000
00000000
00000000
,
00001000
00000001
00001000
00000000
00000001
00000100
00000001
00000000
,
00000100
00000010
00000100
00000000
00000010
00001000
00000010
00000000
,
00010000
00001000
00010000
00000000
00001000
01000000
00001000
00000000
,
01000000
00010000
01000000
00000000
00100000
10000000
00100000
00000000
,
10000000
01000000
00100000
00000000
00010000
00100000
00001000
00000000
,
00010000
00000100
00001000
00000000
00000001
00000100
00000010
00000000
,
00001000
00000100
00010000
00001000
00100000
00010000
10000000
00100000
,
02000000
00000000
00000000
03010000
,
01000000
00001000
01000000
00000000
00011000
00000000
00010100
00000000
,
00010000
00000100
00010000
00000000
00000100
00001000
00000100
00000000
,
00001000
00000010
00001000
00000000
00010010
00000000
00011000
00000000
,
00001000
00100000
00001000
00000000
00100000
01000000
00100000
00000000
,
00010000
10000000
00010000
00000000
01010000
00000000
01001000
00000000
,
00001000
00010000
00001000
00000000
00010000
00000100
00010000
00000000
,
00000010
00001000
00000010
00000000
00000110
00000000
00000101
00000000
,
00000001
00001000
00000010
00001000
00000010
00010000
00001000
00000000
,
01000000
00010000
10000000
00000000
11000000
00000000
00110000
00000000
,
00100000
00001000
00010000
00000000
00001000
00010000
00000010
00000000
,
00001000
00000010
00000100
00000000
00000101
00000000
00001010
00000000
,
00000010
00010000
00001000
00000000
00010000
00001000
01000000
00000000
,
00010000
01000000
00100000
00000000
01100000
00000000
10010000
00000000
,
10000000
01000000
00010000
00000000
00001000
00000010
00000001
00000000
,
00001000
00000010
00000100
00000000
00000110
00000000
00001001
00000000
,
00000001
00000010
00001000
00010000
01000000
10000000
00010000
00000000
,
10010000
00000000
00000000
00000000
,
00000000
00000000
00000000
00000000
,
00000000
00000000
00000000
00000000
,
00000000
00000000
00000000
00000000
,
00000000
00000000
00000000
00000000
,
00000000
00000000
00000000
00000000
,
00000000
00000000
00000000
00000000
,
00000000
00000000
00000000
00000000
,
00000000
00000000
00000000
00000000
,
10000000
00010000
01000000
00001000
00010000
00000100
00001000
00000001
,
00000010
00000000
00000000
00000000
,
00000000
00000000
00000000
00000000
;
#NOTES:
     dance-double:
     :
     Medium:
     13:
     :
00000000
00000000
00000000
00000000
,
00000000
00000000
00000000
00000000
,
00000000
00000000
00000000
00000000
,
00000000
00000000
00000000
00000000
,
00000000
00000000
00000000
00000000
,
00000000
00000000
00000000
00000000
,
00000000
00000000
00000000
00000000
,
00000000
00000000
00000000
00000000
,
00000000
00000000
00000000
00000000
,
00000000
00000000
00000000
00000000
,
00000000
00000000
00000000
00000000
,
00000000
00000000
00000000
00000000
,
00000000
00000000
00000000
00000000
,
00000000
00000000
00000000
00000000
,
00000000
00000000
00000000
00000000
,
10000000
01000000
00100000
00010000
,
00101000
00000000
00011000
00000000
00010010
00000000
00000010
00001000
,
00000001
00000010
00000100
00001000
,
00010100
00000000
00011000
00000000
00001000
01000000
00010000
00000000
,
10000000
01000000
00010000
00001000
,
00001100
00000000
00000110
00000000
00000101
00000000
00000001
00001000
,
00000001
00000010
00001000
00010000
,
01000000
00100000
01000000
00000000
10000000
00010000
10000000
00000000
,
00010000
00100000
00001000
00000000
00011000
00000000
00010100
00000000
,
00000100
00001000
00000001
00001001
,
00000001
00000010
00000001
00000010
00000100
00000000
00001000
00000000
,
00010100
00000000
00011000
00000000
00001000
00100000
00010000
00000000
,
10000000
01000000
10000000
00000000
00010000
00000000
00100000
00000000
,
00101000
00000000
00011000
00000000
00010100
00000000
00000100
00001000
,
00000001
00000000
00000000
00000100
00000000
00000000
00001000
00000000
00000000
00000100
00000000
00000000
00001000
00000000
00000000
00010000
,
00000000
00000000
00001000
00000000
00000000
00010000
00000000
00000000
00100000
00000000
00000000
00000000
00000000
00000000
00000000
00000000
,
10000000
01000000
10000000
01000000
00100000
00010000
00100000
00000000
,
00010000
10000000
02000000
00000000
03020000
00000000
00032000
00000000
,
00003010
00000001
00000010
00000001
00001000
00000100
00001000
00000000
,
00000001
00001000
00000002
00000000
00000203
00000000
00002300
00000000
,
00013000
00001000
00100000
00010000
10000000
01000000
10000000
00000000
,
01000000
10000000
00200000
00000000
00320000
00000000
00032000
00000000
,
00013000
00000100
00001000
00000001
00000010
00000100
00001000
00000001
,
00000000
00000000
00000000
00000000
,
00001000
00000010
00001000
00000100
00010000
00001000
00010000
00000000
,
00001000
00010000
02000000
00000000
23000000
00000000
30020000
00000000
,
01030000
00010000
00100000
00001000
00010000
00001000
00010000
00000000
,
00001000
00000100
00000002
00000000
00000023
00000000
00000230
00000000
,
00001300
00000100
00010000
00000100
00001000
00000010
00010000
00001000
,
00100000
00010000
20000000
00000000
32000000
00000000
03020000
00000000
,
00031000
00010000
00001000
00000000
00000100
00000010
00000100
00000000
,
00000001
00001000
00000001
00000000
00002002
00000000
00003003
00000000
,
00000001
00000010
00000100
00001000
00000100
00010000
00000100
00010000
,
00001000
00001000
01000000
01000000
00010000
00000000
10010000
00000000
,
10000000
01000000
00100000
00010000
00100000
00001000
00100000
00001000
,
00010000
00000010
00001000
00000000
00001100
00000000
00000011
00000000
,
00000001
00000100
00000010
00001000
00000010
00010000
00000010
00010000
,
00001000
00001000
00100000
00100000
00010000
00000000
10010000
00000000
,
10000000
00100000
10000000
00100000
00010000
00001000
00000100
00000010
,
00000100
00000001
00000100
00000001
00000010
00001000
00010000
01000000
,
20000000
00000000
00000000
00000000
,
00000000
00000000
00000000
00000000
,
00000000
00000000
00000000
00000000
,
00000000
00000000
00000000
00000000
,
30010000
01000000
00010000
00000000
00100000
00001000
00010000
00000100
,
00010000
00000000
00000000
00000000
,
00000100
00001000
00000100
00000000
00000010
00000001
00001000
00000100
,
00001000
00000000
00000000
00000000
,
00000001
00000010
00000100
00001000
00001100
00000000
00010100
00000000
,
00010000
00001000
01000000
00010000
01010000
00000000
10010000
00000000
,
10000000
01000000
00100000
00010000
00110000
00000000
00101000
00000000
,
00001000
00010000
00000100
00001000
00001100
00000000
00001001
00000000
,
00000001
00000010
00000001
00001000
00000001
00000100
00001000
00010000
,
00100000
10000000
00100000
01000000
00100000
10000000
01000000
00010000
,
00001000
00010000
00001000
00010000
00000100
00001000
00000001
00000100
,
00000002
00000000
00000000
00001003
,
00000001
00000010
00000100
00000000
00001100
00000000
00010100
00000000
,
00010000
00001000
00100000
00010000
10000000
01000000
10000000
00000000
,
00010000
10000000
00100000
00000000
01100000
00000000
01010000
00000000
,
01000000
00001000
00010000
00000100
00001000
00000001
00001000
00000000
,
00000001
00000100
00000010
00000000
00001010
00000000
00010010
00000000
,
00010000
00001000
01000000
00010000
10000000
00100000
10000000
00000000
,
00010000
10000000
01000000
00000000
01100000
00000000
00110000
00000000
,
00010000
10000000
00100000
00010000
00001000
00000100
00000001
00000000
,
00001000
00000010
00000100
00000000
00000101
00000000
00000011
00000000
,
00000001
00000010
00001000
00010000
01000000
10000000
01000000
00000000
,
10000000
00100000
01000000
00000000
01010000
00000000
00110000
00000000
,
10000000
00100000
00010000
00001000
00000100
00000001
00000100
00000000
,
00000001
00001000
00000100
00000000
00010100
00000000
00011000
00000000
,
00001000
01000000
00010000
10000000
01000000
00100000
00010000
00000000
,
01000000
00001000
00010000
00000000
00011000
00000000
00010100
00000000
,
00010000
00000010
00001000
00000100
00010000
00001000
01000000
00010000
,
10000000
00000000
00000000
00000000
,
00000000
00000000
00000000
00000000
,
00000000
00000000
00000000
00000000
,
00000000
00000000
00000000
00000000
,
00000000
00000000
00000000
00000000
,
00000000
00000000
00000000
00000000
,
00000000
00000000
00000000
00000000
,
00000000
00000000
00000000
00000000
,
00000000
00000000
00000000
00000000
,
00010000
00000000
00100000
00000000
00001000
00000000
00010000
00000000
00001000
00010000
00001000
00010000
00001000
00010000
00001000
00010000
,
00001000
00000000
00000000
00000000
,
00000000
00000000
00000000
00000000
;
#NOTES:
     dance-double:
     :
     Hard:
     16:
     :
00000000
00000000
00000000
00000000
,
00000000
00000000
00000000
00000000
,
00000000
00000000
00000000
00000000
,
00000000
00000000
00000000
00000000
,
00000000
00000000
00000000
00000000
,
00000000
00000000
00000000
00000000
,
00000000
00000000
00000000
00000000
,
00000000
00000000
00000000
00000000
,
00000000
00000000
00000000
00000000
,
00000000
00000000
00000000
00000000
,
00000000
00000000
00000000
00000000
,
00000000
00000000
00000000
00000000
,
00000000
00000000
00000000
00000000
,
00000000
00000000
00000000
00000000
,
00000000
00000000
00000000
00000000
,
00000011
00000000
00001100
00000000
00000100
00010000
00001000
00000000
,
00011000
00000000
00000000
00000000
00110000
00000000
00000000
00000000
10100000
00000000
00000000
00000000
00100000
01000000
00100000
00000000
,
01100000
00000000
10010000
00000000
10000000
01000000
00010000
00001000
,
00011000
00000000
00000000
00000000
00010100
00000000
00000000
00000000
00001100
00000000
00001000
00000000
00000001
00000010
00000001
00000000
,
00000110
00000000
00001001
00000000
00000001
00000010
00001000
00000000
,
00011000
00000000
00000000
00000000
00101000
00000000
00000000
00000000
00110000
00000000
00000000
00000000
00010000
10000000
00010000
00000000
,
11000000
00000000
01100000
00000000
00100000
00001000
00010000
00000000
,
00010100
00000000
00000100
00000000
00001100
00000000
00000000
00000000
00001001
00000000
00001000
00000000
00000001
00000100
00000001
00000000
,
00000101
00000100
00000110
00000000
00001010
00000010
00010010
00000000
,
00011000
00000000
00000000
00000000
01001000
00000000
00000000
00000000
01100000
00000000
00000000
00000000
00100000
10000000
00100000
00000000
,
10010000
10000000
00010000
01000000
01001000
00000000
00011000
00000000
,
00010100
00000000
00000000
00000000
00000110
00000000
00000000
00000000
00000011
00000000
00000011
00000000
00000001
00001000
00000001
00000000
,
00001100
00000100
00010100
00000000
00011000
00000000
00101000
00000000
,
01100000
00000000
00100000
00000000
00110000
00000000
00000000
00000000
10010000
00000000
00000000
00000000
00010000
01000000
00010000
00000000
,
01010000
00000000
00000000
01001000
00000000
00000000
00011000
00000000
00000000
00010010
00000000
00000000
00001010
00000000
00000000
00001100
,
00000000
00000000
00010100
00000000
00000000
00101000
00000000
00000000
00011000
00000000
00000000
00000000
00000000
00000000
00000000
00000000
,
00001000
01000000
00001000
01000000
00001000
00000000
00010000
00000000
00001000
00100000
00001000
00000000
00100000
00010000
00100000
00000000
,
00010000
10000000
02000000
00000000
03020000
00000000
00032000
00000000
,
00013000
00001000
00010000
00001000
00010000
00000000
00000010
00000000
00001000
00000010
00001000
00000000
00000001
00001000
00000001
00000000
,
00000010
00000001
00000200
00000000
00002300
00000000
00023000
00000000
,
00031000
00010000
00001000
00010000
00001000
00000000
00100000
00000000
00010000
00100000
00010000
00000000
01000000
00100000
01000000
00000000
,
00010000
10000000
02000000
00000000
03020000
00000000
00032000
00000000
,
00013000
00001000
00010000
00001000
00010000
00000000
00000100
00000000
00001000
00000100
00001000
00000000
00000001
00001000
00000001
00002000
,
00000000
00000000
00000000
00003000
,
00000001
00000010
00000001
00000010
00000100
00000000
00001000
00000000
00000010
00000000
00010000
00000000
00001000
00010000
00001000
00000000
,
01000000
00010000
20000000
00000000
32000000
00000000
03200000
00000000
,
00310000
00100000
00010000
00100000
00001000
00000000
00010000
00000000
00000010
00000000
00001000
00000000
00000010
00000100
00000010
00000000
,
00001000
00000001
00000020
00000000
00000230
00000000
00002300
00000000
,
00003001
00001000
00000001
00001000
00000100
00000000
00010000
00000000
00001000
00000000
00100000
00000000
00010000
10000000
00010000
00000000
,
00100000
01000000
20000000
00000000
30020000
00000000
00230000
00000000
,
01300000
10000000
01000000
10000000
00010000
00000000
01000000
00000000
00001000
00010000
00001000
00010000
00001000
00000000
00000100
00000000
,
00000001
00001000
00000001
00001000
00000001
00000000
00000000
00000000
00002002
00000000
00000000
00000000
00003003
00000000
00000000
00000000
,
00001000
00000100
00001000
00000000
00000100
00010000
00000100
00000000
00010000
00001000
00010000
00000000
00001000
01000000
00001000
00000000
,
01000000
00010000
01000000
00000000
00010000
10000000
00010000
00000000
11000000
00000000
00000000
00000000
00110000
00000000
00000000
00000000
,
00100000
00001000
00100000
00000000
00001000
00010000
00001000
00000000
00010000
00000010
00010000
00000000
00000010
00001000
00000010
00000000
,
00001010
00001000
00000002
00000000
00000013
00001000
00010000
01000000
,
10000000
00010000
00100000
00000000
00010000
00100000
00001000
00000000
00100000
00001000
00010000
00000000
00001000
00010000
00000010
00000000
,
00010000
00000010
00001000
00000000
00000010
00001000
00000001
00000000
00001000
00000001
00000010
00000000
00000001
00000010
00000100
00000000
,
00000010
00000001
00001000
00000100
00010000
00001000
00100000
00010000
,
10000000
01000000
00100000
00010000
00001000
00000100
00000010
00000001
,
00002000
00000000
00000000
00000000
,
00000000
00000000
00000000
00000000
,
00000000
00000000
00000000
00000000
,
00000000
00000000
00000000
00000000
,
00003010
00000000
00000010
00000000
00001001
00000000
00000000
00000000
00001000
00000100
00010000
00000000
00001000
01000000
00010000
00000000
,
01000000
00000000
00000000
00000000
,
00100000
00000000
00100000
00000000
10010000
00000000
00000000
00000000
00010000
01000000
00001000
00000000
00010000
00000100
00001000
00000000
,
00000100
00000000
00000000
00000000
,
00000010
00000001
00000010
00000000
00000001
00001000
00000001
00000000
00001100
00000000
00000000
00000000
00010100
00000000
00000000
00000000
,
00010000
00001000
00010000
00000000
00001000
01000000
00001000
00000000
01010000
00000000
00000000
00000000
01100000
00000000
00000000
00000000
,
00100000
10000000
00100000
00000000
01000000
00010000
01000000
00000000
01001000
00000000
00000000
00000000
00011000
00000000
00000000
00000000
,
00010000
00000100
00010000
00000000
00000100
00001000
00000100
00000000
00001100
00000000
00000000
00000000
00000011
00000000
00000000
00000000
,
00000001
00000100
00000001
00000000
00001000
00000010
00001000
00000000
00000010
00010000
00000010
00000000
00010000
00001000
00010000
00000000
,
00001000
00100000
00010000
00000000
10000000
01000000
00100000
00000000
00010000
01000000
00001000
00000000
00010000
00000010
00001000
00000000
,
00000001
00000000
00000000
00000100
00000000
00000000
00000010
00000000
00000000
00001000
00000000
00000000
00000001
00000000
00000100
00000000
00001000
00000000
00010000
00000000
00100000
00000000
10000000
00000000
,
02000000
00000000
00000000
03100000
,
00100000
00000000
00010000
00000000
00110000
00000000
00000000
00000000
11000000
00000000
10000000
00000000
00010000
01000000
00001000
00000000
,
00010000
00000000
00000100
00000000
00001000
00000000
00000001
00000000
00000010
00000000
00000100
00000000
00001000
00000100
00001000
00000000
,
00000100
00000000
00001000
00000000
00001100
00000000
00000000
00000000
00000011
00000000
00000001
00000000
00001000
00000010
00010000
00000000
,
00002000
00000000
00023000
00000000
00230000
00000000
20300000
00000000
30010000
01000000
00010000
00000000
10000000
01000000
10000000
00000000
,
00010000
00000000
00100000
00000000
00101000
00000000
00000000
00000000
00011000
00000000
00010000
00000000
00000100
00001000
00000100
00000000
,
00000010
00000000
00000100
00000000
00001000
00000000
00000010
00000000
00001000
00000010
00001000
00000000
00000001
00000100
00000001
00000000
,
00001000
00000000
00000100
00000000
00010100
00000000
00000000
00000000
00011000
00000000
00001000
00000000
00100000
00010000
00100000
00000000
,
01000000
10000000
01000000
10000000
00010000
00000000
00100000
00000000
00001000
00010000
00001000
00000000
00010000
00000100
00010000
00000100
,
00001000
00000000
00000010
00000000
00010010
00000000
00000000
00000000
00011000
00000000
00001000
00000000
01000000
00010000
01000000
00000000
,
00100000
00000000
01000000
00000000
00010000
00000000
00100000
00000000
01000000
00000000
10000000
00000000
00010000
01000000
00010000
01000000
,
00010000
00000000
01000000
00000000
01001000
00000000
00000000
00000000
00011000
00000000
00010000
00000000
00000010
00001000
00000010
00000000
,
00000100
00000000
00000001
00000000
00000010
00000000
00000100
00000000
00001000
00000000
00000010
00000000
00001000
00000001
00001000
00000001
,
00001000
00000000
00000100
00000000
00010100
00000000
00000000
00000000
00011000
00000000
00001000
00000000
00100000
00010000
10000000
00000000
,
01000000
00000000
10000000
00000000
00100000
00000000
00010000
00000000
00001000
00000000
00010000
00000000
00001000
01000000
00001000
01000000
,
00010000
00000000
10000000
00000000
11000000
00000000
00000000
00000000
00110000
00000000
00010000
00000000
01000000
00001000
00010000
00000000
,
00000010
00001000
00000001
00000100
00000001
00000000
00001000
00000000
00000100
00010000
00001000
00100000
00010000
00000000
00000000
00000000
,
10010000
00000000
00000000
00000000
,
00000000
00000000
00000000
00000000
,
00000000
00000000
00000000
00000000
,
00000000
00000000
00000000
00000000
,
00000000
00000000
00000000
00000000
,
00000000
00000000
00000000
00000000
,
00000000
00000000
00000000
00000000
,
00000000
00000000
00000000
00000000
,
00000000
00000000
00000000
00000000
,
01000000
00100000
01000000
00100000
01000000
00100000
01000000
00100000
01000000
00100000
01000000
00100000
01000000
00100000
01000000
00100000
,
01000000
00000000
00000000
00000000
,
00000000
00000000
00000000
00000000
;
#NOTES:
     dance-double:
     :
     Challenge:
     18:
     :
00000000
00000000
00000000
00000000
,
00000000
00000000
00000000
00000000
,
00000000
00000000
00000000
00000000
,
00000000
00000000
00000000
00000000
,
00000000
00000000
00000000
00000000
,
00000000
00000000
00000000
00000000
,
00000000
00000000
00000000
00000000
,
00000000
00000000
00000000
00000000
,
00000000
00000000
00000000
00000000
,
00000000
00000000
00000000
00000000
,
00000000
00000000
00000000
00000000
,
00000000
00000000
00000000
00000000
,
00000000
00000000
00000000
00000000
,
00000000
00000000
00000000
00000000
,
00000000
00000000
00000000
00000000
,
20010000
00000000
00000000
00000000
30100000
00000000
01000000
00000000
00010000
01000000
00001000
00000000
00010000
00000100
00001000
00000000
,
00000010
00000000
00010000
00000000
00001000
00000000
00000010
00000000
00000002
00000000
00000000
00000000
00001003
00000001
00001000
00000001
,
00002000
00000000
00000000
00000000
00003100
00000000
00010000
00000000
00001000
00100000
00010000
00000000
10000000
00100000
01000000
00000000
,
00001000
00000000
00010000
00000000
01000000
00000000
10000000
00000000
10010000
00000000
10010000
00000000
10000000
00100000
00010000
00000000
,
00002000
00000000
00000000
00000000
00013000
00000000
00000010
00000000
00001000
00000100
00000010
00000000
00000001
00000100
00000010
00000000
,
00000100
00000000
00001000
00000000
00010000
00000000
00100000
00000000
20000000
00000000
00000000
00000000
30010000
01000000
00010000
01000000
,
00002000
00000000
00000000
00000000
00103000
00000000
00010000
00000000
10000000
01000000
00100000
00000000
00010000
01000000
00100000
00000000
,
10000000
00000000
10000000
00000000
00010000
00000000
00010000
00000000
01000000
00000000
01000000
00000000
00001000
00010000
00001000
00000000
,
00011000
00011000
00010000
00000100
00001100
00001000
00001001
00000001
,
00000010
00000100
00001000
00000000
00000100
00010000
00001000
00000000
00022000
00000000
00000000
00000000
00033000
00000000
00000000
00000000
,
00011000
00011000
00001000
00100000
00110000
00110000
00010000
10000000
,
01000000
00100000
00010000
00000000
00100000
00001000
00010000
00000000
00001000
00000000
00000100
00000000
00000002
00000000
00000000
00000000
,
00001003
00000100
00010100
00010000
00011000
00001000
01001000
01000000
,
00010000
10000000
01000000
00000000
00100000
00010000
10000000
00000000
00020000
00000000
00000000
00000000
00130000
01000000
10000000
00000000
,
11000000
00000000
00000000
10100000
00000000
00000000
00110000
00000000
00000000
00101000
00000000
00000000
00011000
00000000
00000000
00001010
,
00000000
00000000
00001100
00000000
00000000
00000101
00000000
00000000
00000011
00000000
00000000
00000000
00000000
00000000
00000000
00000000
,
00000001
00000010
00000100
00001000
00000100
00000000
00010000
00000000
00001000
00010000
00001000
00000000
00100000
00010000
10000000
01000000
,
00100000
01000000
00020000
00000000
00032000
00000000
00003020
00000000
,
00000031
00001000
00000100
00010000
00001000
00000000
01000000
00000000
00010000
00100000
00010000
00000000
01000000
00001000
00010000
00001000
,
01000000
00010000
01010000
00000000
01100000
00000000
10100000
00000000
,
10000000
01000000
00100000
00010000
00100000
00000000
00001000
00000000
00010000
00001000
00010000
00000000
00000100
00001000
00000001
00000010
,
00000100
00000010
00002000
00000000
00023000
00000000
02030000
00000000
,
13000000
00010000
00100000
00001000
00010000
00000000
00000010
00000000
00001000
00000100
00001000
00000000
00000001
00000100
00001000
00020000
,
00000000
00000000
00000000
00030000
,
00001000
00000010
00000001
00000010
00001000
00000000
00010000
00000000
00001000
00000000
00100000
00000000
00010000
00100000
01000000
00000000
,
10000000
01000000
00200000
00000000
00320000
00000000
20030000
00000000
,
30010000
01000000
00001000
01000000
00010000
00000000
00100000
00000000
00001000
00000000
00010000
00000000
00001000
00000100
00000001
00000000
,
00001000
00000100
00001100
00000000
00010100
00000000
00011000
00000000
,
00010000
01000000
10000000
01000000
00010000
00000000
00001000
00000000
00010000
00000000
00000100
00000000
00001000
00000100
00000010
00000000
,
00000001
00000010
00000200
00000000
00002300
00000000
00003002
00000000
,
00001003
00000100
00010000
00000100
00001000
00000000
00000010
00000000
00010000
00001000
01000000
00000000
00010000
10000000
00100000
00000000
,
01000000
00100000
01000000
00100000
01000000
00000000
00000000
00000000
20020000
00000000
00000000
00000000
30030000
00000000
00000000
00000000
,
10000000
00100000
01000000
00000000
00010000
00100000
01000000
00000000
00010000
00001000
00000100
00000000
00000010
00001000
00000001
00000000
,
00000011
00001000
00000100
00010000
00011000
00001000
01000000
00010000
,
10000000
00000000
00010000
00100000
00001000
00000000
00010000
00000000
00000010
00001000
00000100
00000000
00000010
00000001
00000100
00000000
,
00001000
00001000
00020000
00030000
00001000
00000100
00000001
00000010
,
00000001
00000100
00000010
00000000
00001000
00000100
00000010
00000000
00001000
00010000
00100000
00000000
01000000
00010000
10000000
00000000
,
11000000
00010000
00100000
00001000
00011000
00010000
00000010
00001000
,
00000001
00000001
00000100
00000100
00001000
00001000
00010000
00010000
,
00100000
10000000
00100000
00010000
00001000
00000010
00000001
00000010
,
00002000
00000000
00000000
00000000
,
00000000
00000000
00000000
00000000
,
00000000
00000000
00000000
00000000
,
00000000
00000000
00000000
00000000
,
00013000
00000000
00010000
00000000
00101000
00000000
00000000
00000000
00001000
00100000
00010000
00000000
10000000
01000000
00010000
00001000
,
00010000
00000000
00000000
00000000
,
00001000
00000000
00001000
00000000
00010010
00000000
00000000
00000000
00010000
00000010
00001000
00000000
00000001
00000100
00001000
00010000
,
00001000
00000000
00000000
00000000
,
00100000
00010000
00100000
00010000
10000000
00000000
01000000
10000000
01000000
10000000
00010000
00000000
00100000
00001000
00010000
00000000
,
00000010
00001000
00000010
00001000
00000001
00000000
00000100
00000001
00000100
00000001
00001000
00000000
00000100
00010000
00001000
00000000
,
01000000
00010000
01000000
00010000
10000000
00000000
01000000
00100000
01000000
00100000
00010000
00000000
01000000
00001000
00010000
00000000
,
00000100
00001000
00000100
00001000
00000001
00000000
00000010
00000100
00000010
00000100
00001000
00000000
00000100
00010000
00001000
00000000
,
00100000
00010000
00100000
01000000
00100000
00000000
00010000
01000000
00001000
01000000
00001000
00000000
00010000
00001000
00010000
00000000
,
00000010
00001000
00000010
00000100
00000010
00000000
00001000
00000100
00010000
00000100
00010000
00000000
00001000
00010000
00001000
00000000
,
00010000
00000000
00000000
00100000
00000000
00000000
01000000
00000000
00000000
10000000
00000000
00000000
01000000
00000000
00010000
00000000
00100000
00000000
00001000
00000000
00010000
00000000
00000100
00000000
,
00002000
00000000
00000000
00003002
,
00001003
00000000
00001000
00000000
00000100
00001000
00000100
00000000
00010000
00001000
00010000
00000000
01000000
00100000
01000000
00000000
,
10000000
01000000
00100000
00010000
00100000
00000000
00001000
00000000
00010000
00000100
00010000
00000000
00000010
00001000
00000100
00000010
,
00000001
00000000
00000001
00000000
00001000
00000100
00001000
00000000
00000010
00010000
00000010
00000000
00010000
00001000
00010000
00000000
,
00001000
00000010
00000001
00000010
00000200
00000000
00002300
00000000
00003001
00000100
00000010
00000000
00010000
00001000
00100000
00010000
,
10000000
00000000
10000000
00000000
00100000
01000000
00100000
00000000
01000000
00001000
01000000
00000000
00001000
00010000
00001000
00000000
,
00010000
00000100
00001000
00000001
00000100
00000000
00000010
00000000
00001000
00000100
00001000
00000000
00000100
00010000
00001000
00100000
,
00010000
00000000
00010000
00000000
10000000
01000000
10000000
00000000
00010000
00100000
00010000
00000000
00100000
00001000
00100000
00000000
,
00011000
00010000
00010100
00000100
00001000
00001001
00000011
00000110
,
00000100
00000000
00000100
00000000
00000001
00000100
00001000
00000000
00000100
00010000
00001000
00000000
00010000
00100000
10000000
00000000
,
00010000
01000000
00100000
10000000
00100000
00000000
01000000
00000000
00010000
00100000
00001000
00000000
00010000
01000000
10000000
01000000
,
00100000
00000000
00100000
00000000
10000000
00100000
00010000
00000000
00100000
00001000
00010000
00000000
00001000
00000100
00000001
00000000
,
00000010
00000100
00001000
00000001
00000010
00000000
00000100
00000000
00010000
00001000
01000000
00000000
00010000
10000000
00100000
00010000
,
00100000
00000000
00100000
00000000
01000000
00001000
00010000
00000000
00000100
00010000
00001000
00000000
00100000
00001000
00010000
00000000
,
00000010
00001000
00000100
00000010
00000001
00000000
00001000
00000000
00000100
00010000
00001000
00000000
01000000
00010000
10000000
00100000
,
01000000
00000000
01000000
00000000
10000000
01000000
00010000
00000000
01000000
00001000
00010000
00000000
00001000
00000010
00000001
00000000
,
00001000
00000100
00000010
00000001
00001000
00000000
00000010
00000000
00010000
00001000
01000000
00010000
10000000
01000000
00100000
00000000
,
00010000
00000000
00000000
00000000
,
00000000
00000000
00000000
00000000
,
00000000
00000000
00000000
00000000
,
00000000
00000000
00000000
00000000
,
00000000
00000000
00000000
00000000
,
00000000
00000000
00000000
00000000
,
00000000
00000000
00000000
00000000
,
00000000
00000000
00000000
00000000
,
00000000
00000000
00000000
00000000
,
10000000
01000000
00100000
00010000
00100000
00001000
00010000
00000100
00001000
00000010
00000100
00000001
00000010
00001000
00010000
01000000
,
10000000
00000000
00000000
00000000
,
00000000
00000000
00000000
00000000
;
