
//----- song ID: babe -----//
#TITLE:BabeL ~Next Story~;
#ARTIST:Power Of Nature;
#BANNER:BabeL ~Next Story~.png;
#BACKGROUND:BabeL ~Next Story~-bg.png;
#CDTITLE:./CDTitles/pnm 19 TUNE STREET.png;
#MUSIC:BabeL ~Next Story~.ogg;
#SAMPLESTART:12.896;
#SAMPLELENGTH:15;
#DISPLAYBPM:100:173;
#BPMS:0=140,16=147.965,22=155.039,26=133.929,27=117.994,29=100,30=173;
#BGSTAGE:27;
#NOTES:
     dance-single:
     :
     Beginner:
     3:
     :
0000
0000
0000
0000
,
0000
0000
0000
0000
,
0000
0000
0000
0000
,
0000
0000
0000
0000
,
0001
0000
0000
1000
,
0000
0000
2002
0000
,
0000
0000
0000
0000
,
0000
3003
0001
0000
,
0000
0000
1000
0000
,
0000
0000
0000
0010
,
0000
0000
0000
0010
,
0000
0000
0000
1000
,
0000
0000
0000
0001
,
0000
0000
0000
0000
,
0000
0100
0000
0100
,
0000
0100
0000
0000
,
0000
0010
0000
0000
,
0000
0110
0000
0000
,
1001
0000
0000
0000
,
0000
0001
0000
0000
,
0000
1000
0000
0000
,
0000
0000
0010
0000
,
0000
0000
0010
0000
,
0000
0000
1000
0000
,
0000
0000
0001
0000
,
0000
0100
0000
0000
,
0000
0100
0000
0000
,
0000
0010
0000
0000
,
1000
0000
0000
0000
,
0001
0000
0000
1000
,
0000
0000
0010
0000
,
0000
0100
0000
0000
,
0001
0000
0000
0000
,
0000
1000
0000
0000
,
1000
0000
0000
0010
,
0000
0100
0000
0100
,
0000
0000
0001
0000
,
0001
0000
1000
0000
,
1000
0000
0010
0000
,
0010
0000
0100
0000
,
0100
0000
0001
0000
,
1000
0000
0100
0000
,
0010
0000
0000
0001
,
0000
0010
0000
0100
,
0000
0000
0000
1000
,
0000
0000
0000
1000
,
0000
0000
0000
0000
,
0000
0010
0000
0000
,
0000
0010
0000
0000
,
0000
0010
0000
0000
,
0000
0010
0000
0000
,
0000
0010
0000
0000
,
0000
0020
0000
0000
,
0000
0000
0000
0000
,
0030
0000
1000
0000
,
0000
0000
0001
0000
,
0000
0000
0100
0000
,
0000
0000
0010
0000
,
0000
0000
0100
0000
,
0000
0000
0001
0000
,
0000
0000
1000
0000
,
0000
0000
0000
0000
,
0001
0000
0000
0000
,
0001
0000
0000
0000
,
1000
0000
0000
0000
,
1000
0000
1001
0000
,
0000
0000
0000
0000
,
0000
0110
0000
0000
,
0000
2002
0000
0000
,
0000
0000
0000
3003
0000
0000
0000
0000
0000
0000
0000
0000
0000
0000
0000
0000
,
0000
0000
0001
0000
,
0000
0000
0001
0000
,
0000
0000
1000
0000
,
0000
0000
0001
0000
,
0000
0000
0100
0000
,
0000
0000
0100
0000
,
0000
0001
0000
0000
,
0010
0000
0000
0000
,
0001
0000
0000
1001
,
0000
0001
0000
0000
,
0000
1000
0000
0000
,
0000
0010
0000
0000
,
0000
0100
0000
0000
,
0000
0001
0000
0000
,
0000
1000
0000
0000
,
0001
0000
0000
0100
,
0000
0000
0000
2002
,
0000
0000
0000
0000
,
3003
0000
0000
0000
,
0000
0000
0000
0000
;
#NOTES:
     dance-single:
     :
     Easy:
     7:
     :
0000
0000
0000
0000
,
0000
0000
0000
0000
,
0000
0000
0000
0000
,
0000
0000
0000
0000
,
0000
0110
0000
0000
,
1001
0000
1000
0000
,
0001
0000
2002
0000
,
0000
0000
0000
3003
1000
0000
0001
0000
,
0100
0010
0100
0001
,
1000
0000
0000
0001
,
0010
0010
0100
0100
,
1000
1000
0000
0010
,
0100
0001
1000
0100
,
0010
0000
0000
0100
,
0010
0100
0010
0010
,
0100
0100
0000
0010
,
0000
0010
0010
0010
,
0000
1001
0000
0000
,
1001
0000
0000
2000
,
0000
0001
3001
1000
,
0100
1000
0010
0100
,
0000
0001
0001
1000
,
1000
0001
0001
1000
,
1000
0000
1000
0001
,
0010
0100
1000
0001
,
0100
0000
0001
0000
,
1000
0000
0001
0000
,
0000
1001
0000
0000
,
0110
0000
0000
0000
,
1000
0000
0000
0001
,
0000
0000
0100
0000
,
0000
0010
0000
0000
,
1000
0001
0000
0000
,
0001
1000
0010
0100
,
0001
0000
0000
0010
,
0000
0001
0100
0020
,
0030
0000
1000
1000
,
0000
0001
0001
0001
,
0000
0000
0000
1000
,
0100
0001
0100
1000
,
0010
0100
0001
0000
,
1000
0010
0000
0001
,
0010
1000
0000
1000
,
0100
0010
0001
0010
,
0001
0010
0100
1000
,
0100
0001
0100
1000
,
0010
0001
0010
1000
,
0000
0001
0000
1000
,
0000
0001
0000
0001
,
0000
0010
0000
0010
,
0000
1000
0000
1000
,
0000
0010
0000
0010
,
0000
0001
0000
0001
,
0000
2000
0000
0000
,
0000
0000
3001
0000
,
1000
0000
0010
1000
,
0010
0000
1000
0000
,
0001
0000
0100
1000
,
0100
0000
0001
0000
,
1000
0000
0010
0001
,
0010
0000
1000
0000
,
0001
0000
2000
0000
,
0000
0000
0010
3010
,
0010
0000
0002
0000
,
0000
0000
0010
0013
,
0010
0000
1000
0100
,
0010
0001
0010
0100
,
1000
0100
0001
0100
,
1000
0002
0000
0000
,
0000
0003
0000
0000
,
0000
0000
0001
0001
,
1000
1000
0001
0001
,
0200
0300
0001
0001
,
1000
0100
1000
0010
,
0100
0000
0001
0000
,
1000
0000
0001
0000
,
1000
0001
0001
0000
,
0010
0000
0000
0000
,
0001
0000
0000
1001
,
0110
0001
0000
0100
,
0000
1000
0000
0100
,
0000
0010
0000
1000
,
0000
0100
0000
0001
,
0000
0100
0000
1000
,
0000
1001
1001
0000
,
0110
0110
0000
0001
,
1000
0001
0000
2002
,
0000
0000
0000
0000
,
3003
0000
0000
0000
,
0000
0000
0000
0000
;
#NOTES:
     dance-single:
     :
     Medium:
     9:
     :
0000
0000
0000
0000
,
0000
0000
0000
0000
,
0000
0000
0000
0000
,
0000
0000
0000
0000
,
0010
1001
0000
0010
,
1001
0000
0000
0000
0000
0000
0000
0000
1000
0000
0000
1000
0000
0000
0010
0000
,
0100
0001
2002
0000
,
0000
0000
0000
3003
1000
0000
0001
0000
,
0100
0010
0100
0001
,
1000
0000
0000
0000
0010
0000
0000
0010
0000
0000
0100
0000
0001
0000
0000
0000
,
0011
0010
0110
0100
,
1100
1000
1010
0010
,
0100
0001
1000
0100
,
0010
0000
0000
0000
0001
0000
0000
0001
0000
0000
0100
0000
0010
0000
0000
0000
,
1010
0010
0110
0010
,
1010
0001
1000
0010
,
0100
0110
1001
0001
,
0100
0000
0000
0001
0000
0001
0000
0000
0000
0000
0000
0000
,
1000
0000
1000
0000
0000
0000
0000
0000
0000
0020
0000
0000
,
0000
0130
0001
1000
,
0100
1000
0010
0100
,
0001
0000
0000
0001
0000
0000
0010
0000
0001
0000
0000
0000
0011
0000
0000
0000
,
1000
1100
0001
0011
,
1000
0010
0100
0001
,
0010
0100
1000
0001
,
0100
0000
0000
0100
0000
0000
0010
0000
1000
0000
0000
0000
1100
0000
0000
0000
,
1000
1001
1000
1010
,
1000
0001
0100
0010
,
0110
1001
1000
0010
,
1000
0000
1000
0000
0000
0000
0000
0000
0000
0001
0000
0001
,
0000
0000
0000
0100
0100
0000
,
0000
0000
0000
0010
0000
0010
0000
0000
0000
0000
0000
0000
,
1000
0000
0000
0001
0000
0000
1000
0000
0100
0000
0010
0000
,
0001
1000
0010
0100
,
0001
0000
0000
0000
0000
0000
0000
0000
0000
0010
0000
0010
,
0000
0001
0100
0020
,
0030
0000
2000
3020
,
0032
0023
2030
3200
,
0310
0001
0010
0100
0000
0000
2000
0000
,
3200
0302
0203
2300
,
3020
0000
0000
0230
0000
0000
0301
0000
0010
0000
0100
0000
,
2000
3020
0230
0320
,
2030
0000
0000
3001
0000
0010
0000
0100
0000
2000
0000
0000
,
3200
0320
2030
3020
,
0032
0000
0000
0203
0000
0000
0320
0000
0000
1030
0000
1000
,
0000
0000
0000
0000
0000
0000
0000
0010
0000
0100
0000
0010
,
0000
0000
0000
0000
0000
0000
0000
0000
0000
1000
0000
1000
,
0000
1000
0000
0010
0000
0100
0000
0000
0000
0001
0000
0010
,
0000
0001
0000
0100
0000
0010
0000
0100
0000
0001
0000
0010
,
0000
0001
0000
0000
0000
0000
0000
0000
0000
1000
0000
0100
,
0000
1000
0000
0001
0000
0000
0000
0000
0000
0001
0000
0010
,
0000
0100
0000
0000
0000
0000
0000
0000
0000
0000
1000
0000
,
0001
1000
0000
0000
0010
0010
,
0100
0100
0100
0001
0001
0001
,
1000
0000
0000
0000
1000
0000
0000
0000
1000
0000
0000
0000
0001
0000
0000
0000
0000
0000
0010
0000
0000
0001
0000
0000
,
0000
0001
0000
1000
0000
1000
0000
0100
,
0000
0010
0000
0000
0001
0000
1000
0010
,
0000
0000
0010
0000
0000
0000
0010
0000
0000
0000
0000
0000
1000
0000
0000
0100
,
0000
0010
0000
0000
0001
0000
1000
0010
,
0000
0010
0000
0100
0000
0100
0000
0001
,
0000
0010
0000
0000
0001
0000
1000
0010
,
0000
0100
0000
0010
0000
0000
1000
0000
,
0001
0100
0000
0010
,
1000
0001
0000
1000
,
0001
0100
0000
0100
,
0010
0100
0101
0011
,
1000
0000
0001
0100
0000
0010
0000
0100
,
0001
0000
0010
0000
0100
1000
0000
1000
,
0010
2002
0000
0000
,
0000
0000
0000
3003
0000
0000
0000
0000
0000
0000
0000
0000
0000
0000
0000
0000
,
0000
0000
0001
0011
,
1000
1100
0001
0101
,
1000
0010
0100
0001
,
0010
0100
1000
0001
,
0100
0000
0000
0100
0000
0000
0010
0000
1000
0000
0000
0000
1001
0000
0000
0000
,
0010
0110
1000
1001
,
0001
0100
0010
1000
,
1001
0110
0001
1000
,
1010
0010
0100
0220
,
0330
0000
0000
0001
0000
0001
0000
0000
0000
1000
0000
1000
,
0000
1000
0000
0010
0000
0100
0000
0010
0000
1000
0000
1000
,
0000
1000
0000
0010
0000
0100
0000
0010
0000
1000
0000
1000
,
0000
1000
0000
0001
0000
0000
0100
0000
0010
0000
0100
0000
,
0001
0001
0001
0100
0010
0100
,
0001
0010
1001
0000
,
0010
1001
0000
0001
,
0011
0000
0100
2002
,
0000
0000
0000
0000
,
3003
0000
0000
0000
,
0000
0000
0000
0000
;
#NOTES:
     dance-single:
     :
     Hard:
     14:
     :
0000
0000
0000
0000
,
0000
0000
0000
0000
,
0000
0000
0000
0000
,
0000
0000
0000
0000
,
0001
1000
0001
1000
0000
0000
0000
0000
0000
0010
0100
0010
,
0100
0000
0000
0000
0000
0000
0000
0000
0001
0000
0000
1000
0000
0000
0010
0000
,
0100
0000
0001
0010
0200
0000
2300
0000
,
3020
0000
0200
0330
0001
1000
0001
0100
,
0010
1000
0001
0010
0100
1000
0001
0100
,
0010
0000
1000
0001
0000
0100
0000
0010
0000
0000
1000
0000
0001
0000
0000
0100
,
0000
0000
0001
0000
1000
0000
0000
0010
0000
0000
0100
0000
0001
0000
0000
0010
,
0000
0001
0010
0100
1000
1000
0001
0100
,
0010
0100
0001
0010
0100
1000
0001
0100
,
0010
0000
0100
0000
0001
0000
0000
1000
0000
0000
0100
0000
1000
0000
0000
0010
,
0000
0000
0100
0000
0001
0000
0000
0010
0000
0000
0001
0000
1000
0000
0000
0100
,
0000
0000
1000
0000
0010
0000
0100
0000
0001
0000
0000
0001
0000
0000
0001
0000
,
1000
0000
0010
0000
0110
0000
0000
0000
0001
0000
0000
1000
0000
0000
0100
0000
,
0010
0000
0000
0001
0000
0000
1000
0000
0100
0000
1000
0000
0000
0000
0000
0000
0000
0000
0000
0000
0000
0000
0000
0000
,
0001
0100
0001
0000
0000
0000
0000
0000
0000
2000
0000
0000
,
0000
0000
0000
0000
3001
0000
1000
0000
0010
0100
0000
0001
0000
0000
1000
0010
,
0000
0100
0000
0010
0000
0000
1000
0000
0001
0100
0000
0010
0000
0000
0100
0001
,
0000
1000
0000
0010
0000
0000
0100
0000
0001
0000
0000
0010
0000
0000
0001
0000
,
1000
0000
0000
0010
0000
0000
1000
0000
0001
0000
0000
0010
0000
0000
0001
0000
,
0100
0000
0010
0000
1000
0000
1000
0000
0001
0010
0000
0001
0000
0000
1000
0100
,
0000
1000
0000
0010
0000
0000
0100
0000
0001
1000
0000
0001
0000
0000
0100
0010
,
0000
0100
0000
0001
0000
0000
0010
0000
0001
0000
0000
1000
0000
0000
0001
0000
,
0100
0000
0000
0010
0000
0000
0100
0000
0001
0000
0000
1000
0000
0000
0001
0000
,
0010
0000
0100
0000
1000
0000
0000
1000
0000
0000
1000
0000
0001
0000
0100
0000
,
0110
0000
0000
0000
1000
0000
0000
0001
0000
0000
0010
0000
0100
0000
1000
0000
,
0001
0010
0001
0000
0000
0000
0000
1000
0010
1000
0010
1000
,
0000
0000
0000
0000
0001
0100
0001
0100
0001
0000
0000
0000
,
0000
1000
0100
1000
0100
1000
0000
0000
0000
0000
0000
0000
,
0101
0000
0000
1001
0000
0000
1000
0000
0100
0000
0010
0000
,
0001
0000
0000
1000
0100
1000
0001
0100
0001
1000
0100
1000
,
0001
0100
0001
0000
0000
0000
0000
0000
0000
0001
0100
0010
,
0000
0000
0000
1000
0001
1000
0010
0100
0010
1000
0001
2000
,
0000
0000
3000
0000
0000
0000
0000
0000
0001
0000
0000
0100
0001
0000
0000
0000
,
0000
0000
0000
1000
0010
0000
0000
1000
0010
0000
0000
0100
0001
0000
0000
0000
,
1000
0000
0100
0000
0010
0000
0001
0000
0000
0000
0000
0000
1000
0000
0000
0100
,
1000
0000
0000
0010
1000
0000
0000
0001
0100
0000
0000
0001
0010
0000
0000
0001
,
1000
0000
0000
0000
0000
0000
0000
0000
0000
0100
0000
0000
1000
0000
0000
0000
0000
0000
0000
0000
0000
0000
0000
0000
0001
0000
0000
0000
0100
0000
0000
0000
0001
0000
0000
0000
0100
0000
0000
0000
0001
0000
0000
0000
0100
0000
0000
0000
,
0001
0000
0000
1000
0100
0000
0000
0000
0000
0000
0000
0010
0001
0000
0000
1000
,
0100
0000
0000
1000
0010
1000
0010
1000
0010
1000
0000
0000
,
0001
0010
0100
1000
0010
0100
0010
0010
,
1000
0000
0000
0000
0000
0000
0000
0000
0000
0001
0000
0000
0100
0000
0000
0000
0000
0000
0000
0000
0000
0001
0000
0000
1000
0000
0000
0000
0000
0000
0000
0000
0000
0000
0000
0000
0001
0000
0000
0000
0100
0000
0000
0000
0010
0000
0000
0000
,
0000
0000
0000
0000
0000
0000
0000
1000
0010
0100
0010
1000
,
0000
0000
0000
0000
0000
0000
0000
0000
0000
0001
0000
0001
,
0000
0001
0000
1000
0100
0010
0000
0000
0000
0001
0010
0001
,
1000
0100
1000
0001
0010
0001
1000
0100
1000
0001
0010
0001
,
1000
0100
0010
0000
0000
0000
0000
0000
0000
0001
0100
0001
,
1000
0010
1000
0000
0000
0000
0000
0000
0000
0001
0100
0001
,
1000
0100
1000
0000
0000
0000
0000
0000
0000
0001
0010
0001
,
1000
0010
1000
0000
0000
0000
0000
0000
0001
0000
0010
0000
,
0100
1000
0010
0100
0001
1000
,
0100
0000
0000
0000
0010
0000
0000
0000
0001
0000
0000
0000
1000
0000
0000
0010
0000
0000
0100
0000
0000
0010
0000
0000
,
0000
1000
0000
0001
0000
0010
0000
0100
,
0000
1000
0000
0001
0100
0001
0010
0100
,
0000
0000
1000
0000
0010
0000
0100
0000
0000
0000
0001
0000
1000
0000
0000
0100
,
0000
0010
0000
0001
1000
0010
0100
0010
,
0000
1000
0000
0100
0000
0010
0000
0001
,
0000
0100
0000
0001
1000
0100
0010
0001
,
0000
1000
0010
0200
0000
0000
0301
0000
,
1000
0000
0000
0010
0010
0100
0100
0000
,
0001
0000
1000
0100
0000
1000
0010
1000
,
0001
0000
1000
0100
0000
0010
0001
0000
,
1000
0010
0110
1010
,
1001
0000
0001
0100
0000
0110
0000
0010
,
1000
0000
1001
0000
0001
0010
0000
0100
,
1000
0010
0200
0000
0000
0000
0000
0000
,
0300
0000
0000
0110
0000
0000
0000
0000
0000
0000
0000
0000
0000
0000
0000
0000
,
0000
0000
0000
0001
0000
0000
0001
0000
1000
0000
0000
0010
0000
0000
1000
0000
,
0001
0000
0000
0010
0000
0000
0100
0000
1000
0000
0000
0010
0000
0000
0100
0000
,
0001
0000
1000
0000
0100
0000
0000
0000
1000
0001
0000
0100
0000
0000
0010
1000
,
0000
0001
0000
0010
0000
0000
0100
0000
1000
0010
0000
0100
0000
0000
0001
1000
,
0000
0100
0000
0010
0000
0000
0001
0000
1000
0000
0000
0010
0000
0000
1000
0000
,
0001
0000
0000
0010
0000
0000
0001
0000
1000
0000
0000
0010
0000
0000
1000
0000
,
0001
0000
0010
0000
0001
0000
0000
0100
0000
0000
1000
0000
0100
0000
0010
0000
,
0110
0000
0000
0000
1000
0000
0000
0001
0000
0000
0100
0000
0001
0000
0010
0000
,
0110
0000
0000
0001
0000
0000
1000
0000
0010
0000
0100
0000
0002
0000
0000
0000
,
0003
0000
0000
1000
0100
1000
0000
0000
0000
0001
0010
0001
,
1000
0100
1000
0001
0100
0001
1000
0010
1000
0000
0000
0000
,
0000
0000
0000
0010
0100
0010
1000
0001
1000
0000
0000
0000
,
0000
0000
0000
0001
0010
0001
1000
0010
0100
0000
0000
0000
,
0000
0000
0000
0001
0010
0100
1000
0100
0010
0000
0000
0000
,
0000
0000
0000
0001
1000
0001
1000
0000
0000
0000
0000
0000
,
0010
0100
0010
0100
0000
0000
0000
0000
0000
0001
0010
0001
,
0010
0000
0000
0000
0100
1000
0100
1000
0001
0200
0000
0000
,
0000
0000
0000
0000
,
0300
0000
0000
0000
,
0000
0000
0000
0000
;
#NOTES:
     dance-single:
     :
     Challenge:
     17:
     :
0000
0000
0000
0000
,
0000
0000
0000
0000
,
0000
0000
0000
0000
,
0000
0000
0000
0000
,
1000
0010
0100
0001
0000
0000
0000
0000
0000
0001
0010
0100
,
1000
0000
0000
0000
0000
0000
0000
0000
1000
0000
0000
0001
0000
0000
0100
0000
,
0001
0010
0000
0000
0001
0000
1000
0000
0010
0100
0001
1000
0100
0010
0001
1000
,
0010
0000
0110
0000
0101
0000
1001
0000
1000
0000
0001
0000
0100
0010
0000
0200
,
0000
0000
0301
1000
0000
0100
0000
0020
0000
0000
0031
0000
1000
0010
1000
0020
,
0000
0000
0130
0010
0100
0001
0000
1001
0000
0000
1000
0000
0010
0000
0000
0100
,
0001
0000
0010
0000
0011
0000
0001
1000
0000
0000
0010
0000
0100
0000
0000
0001
,
0000
1000
0100
1000
0100
0010
0001
1000
0001
0100
0001
0000
1000
0100
0010
0001
,
0000
0000
1000
0010
0000
0100
0000
2000
0000
0000
3100
0000
0001
0010
0100
2000
,
0000
0000
3001
0100
0000
0010
0000
1010
0000
0000
1000
0010
0100
0001
0000
0010
,
0000
0001
0100
0010
1000
0001
0000
0010
0001
0010
0001
1000
0010
0100
0010
1000
,
0000
0001
1000
0100
1000
0100
0010
0001
1000
0000
0000
0010
0000
0000
0100
0000
,
0001
0000
0010
0000
0011
0000
0000
0000
1100
0000
1000
0010
0000
0000
0100
0000
,
0001
0000
0000
1000
0000
0000
0010
0000
0010
0000
0100
0000
0000
0000
0000
0000
0000
0000
0001
0000
0000
0000
0000
0000
,
1000
0000
0000
0000
1000
0000
0000
0000
0100
0000
0000
0000
0000
0000
0000
0000
0000
0000
0000
0000
0000
0000
0000
0000
1000
0000
0000
0000
0000
0000
0000
0000
0000
0000
0000
0000
0001
0000
0000
0100
0000
0000
0001
0000
0000
1000
0000
0000
,
0001
0010
0100
1000
0000
0000
0010
0000
0100
0001
0100
0002
0000
0000
0013
0001
,
0000
0100
0000
0020
0000
0000
0031
0000
0010
0100
0010
0200
0000
0000
0301
0010
,
0000
0001
0000
1001
0000
0000
0110
0000
1000
0000
0000
0001
0100
0000
0010
0000
,
0100
0000
1000
0100
0000
0000
0010
0000
0100
0000
0000
0001
0000
0100
0010
0100
,
0001
1000
0001
1000
0100
0010
0001
0000
1000
0010
0100
0002
0000
0000
0013
0001
,
0000
0010
0000
0200
0000
0000
0301
0000
0100
1000
0100
0020
0000
0000
1030
0010
,
0000
0001
0000
0100
0000
0010
1000
0010
1000
0010
0000
0100
0000
0001
0010
0001
,
0010
0001
0000
1000
0010
0100
0001
0100
0001
1000
0100
0010
0000
0100
1000
0001
,
0100
0001
1000
0100
0010
0000
0000
0001
0000
0000
1000
0000
0010
0000
0100
0000
,
0110
0000
0000
0000
1001
0000
0000
1000
0000
0000
0100
0000
0010
0000
0001
0000
,
1000
0100
0001
0100
0010
0100
1000
0000
0001
0100
1000
0100
,
0010
0100
0001
0100
0010
1000
0010
0001
0010
0100
0010
1000
,
0001
0000
1000
0001
0010
1000
0010
0100
0010
0001
0010
0100
,
1000
0100
0001
0100
0010
0100
1000
0000
1010
0000
0101
0000
,
0001
0100
0010
0100
1000
0100
0010
0100
0001
0100
0010
1000
,
0010
0100
0010
0001
0010
0100
0010
0000
0000
1000
0100
0010
,
0000
0000
0000
0001
0010
0001
0100
0010
1000
0100
1000
0001
,
0200
0000
0300
0000
0000
0000
0000
0000
1001
0000
0000
1000
0010
0000
0000
0010
,
0100
0000
0000
0100
0001
0000
0000
0001
0010
0000
0000
0010
0100
0000
1000
0000
,
0001
1000
0001
0100
0010
0100
0001
0000
0000
0000
0000
1000
0100
0000
0000
0100
,
0010
0000
0000
0010
0001
0000
0000
0001
0100
0000
0000
0100
0010
0000
0000
0010
,
0100
0000
0000
0000
0000
0000
0000
0000
0000
0100
0000
0000
0001
0000
0000
0000
0000
0000
0000
0000
0000
1000
0000
0000
0010
0000
0000
0000
0100
0000
0000
0000
0001
0000
0000
0000
0010
0000
0000
0000
0100
0000
0000
0000
1000
0000
0000
0000
,
0010
0000
0000
0010
0100
0000
0000
0100
0001
0000
0000
0001
0010
0000
0000
0010
,
0100
0000
0000
0000
0000
0000
0000
0000
0000
0100
0000
0000
1000
0000
0000
0000
0001
0000
0000
0000
0100
0000
0000
0000
0010
0000
0000
0000
0100
0000
0000
0000
0001
0000
0000
0000
1000
0000
0000
0000
0000
0000
0000
0000
0000
0001
0000
0000
,
0010
0001
0010
0100
1000
0000
0010
0100
0001
0000
1000
0000
0100
0010
0100
0010
,
0001
0000
0000
0000
0000
0000
0000
0000
0000
1000
0000
0000
0010
0000
0000
0000
0000
0000
0000
0000
0000
0010
0000
0000
0100
0000
0000
0000
0000
0000
0000
0000
0000
0100
0000
0000
0001
0000
0000
0000
0010
0000
0000
0000
0200
0000
0000
0000
,
0300
0000
0000
0000
0000
0000
0000
1000
0010
1000
0010
0200
,
0000
0300
0000
0000
0000
0000
0000
0000
0000
0101
0000
0101
,
0000
1010
0000
1001
0100
0010
0000
0000
0000
1001
0001
0100
,
0010
0001
0010
0100
0010
1000
0010
0100
0001
0100
0010
0100
,
1000
0100
0010
1000
0001
0010
0100
0001
0100
0010
0100
1000
,
0100
0010
0001
1000
0000
0001
0100
0010
1000
0001
0010
0100
,
0010
1000
0010
0100
0010
0001
1000
0000
0001
1000
0010
0100
,
0010
0001
0010
0100
0010
1000
0010
0000
0010
0100
0010
0001
,
0010
1000
0010
0000
0010
0000
0010
0000
0010
0100
0010
0001
,
0010
0000
1000
0000
0010
0000
0000
0000
0010
0000
0000
0000
0010
0000
0000
0100
0000
0000
0001
0000
0000
0010
0000
0000
,
0000
0100
0000
1000
0001
0100
0010
0100
,
0000
0001
0010
0001
1000
0010
0100
0001
,
0000
0000
0000
0000
0000
0000
0010
0000
0000
0000
0000
0000
0100
0000
0000
0000
0000
0000
1000
0000
0100
0000
0000
0000
0000
0000
0000
0000
0000
0000
1000
0000
0000
0000
0000
0000
0010
0000
0000
0000
0000
0000
0000
0000
0000
0100
0000
0000
,
0000
0001
0010
0001
1000
0010
0100
0001
,
0000
0010
0000
0011
0000
1100
0000
0110
,
0000
0010
0001
1000
0010
0100
0010
1010
,
0000
1000
0001
0100
0000
0010
1000
1000
,
0001
0010
0100
1000
1000
0001
0001
0100
,
0010
0100
0010
0000
1000
0000
0100
0000
0000
0000
0100
0000
1000
0000
0010
0000
,
0100
0001
0100
0000
0001
0000
0010
0000
0100
0000
1000
0000
0010
0000
0100
0000
,
0001
0000
0010
0000
0000
0010
0000
0000
0021
0000
0000
0000
1000
0000
0000
0000
,
0031
0000
0100
0020
0000
0001
0000
1030
,
0001
0000
0100
0000
0001
0010
0000
0100
,
1000
0010
0220
0000
0000
0000
0000
0000
,
0330
0000
0000
1001
0000
0000
0000
0000
0000
0000
0000
0000
0000
0000
0000
0000
,
0000
0000
0000
0011
0000
0000
1100
0000
0001
0000
0000
0100
0001
0000
0010
0000
,
0100
0000
1000
0010
0000
0000
0100
0000
0001
0000
0000
0010
0000
0001
1000
0001
,
1000
0100
0010
0100
1000
0001
0100
0000
0001
0010
0100
2000
0000
0000
3001
0100
,
0000
1000
0000
0200
0000
0000
0310
0000
0100
0001
0100
0002
0000
0000
0013
0100
,
0010
0001
0000
1001
0000
0000
0001
0010
0001
1000
0000
0010
0000
1000
0100
1000
,
0001
0100
0000
0010
1000
0001
0100
0001
1000
0100
0010
0001
0000
1000
0001
0100
,
0001
1000
0010
0100
0001
0000
0000
1000
0000
0000
0100
0000
1000
0000
0001
0000
,
0011
0000
0000
0000
0010
0000
0000
0100
0000
0000
1000
0000
0010
0000
0100
0000
,
0001
0000
0000
0010
0000
0000
0001
0000
1000
0000
0010
0000
0220
0000
0000
0000
,
0330
0000
0000
0001
1000
0010
0100
0001
0010
0001
0100
0010
,
1000
0001
0010
0100
1000
0100
0010
0100
0001
0100
0010
0100
,
1000
0100
0010
0100
0001
0100
0010
0100
1000
0100
0010
0100
,
0001
0100
0010
0001
0000
1000
0010
0100
0010
0001
0010
0100
,
0010
1000
0010
0100
0010
0001
0010
0000
0100
1000
0100
0010
,
0100
0001
1000
0001
0010
0100
1000
0000
0000
0000
0000
0000
,
1000
0010
0100
0001
0000
0000
0000
0000
0000
0001
0010
0100
,
1000
0000
0000
0000
0010
0100
0010
0100
0001
2002
0000
0000
,
0000
0000
0000
0000
,
3003
0000
0000
0000
,
0000
0000
0000
0000
;
#NOTES:
     dance-double:
     :
     Easy:
     8:
     :
00000000
00000000
00000000
00000000
,
00000000
00000000
00000000
00000000
,
00000000
00000000
00000000
00000000
,
00000000
00000000
00000000
00000000
,
00000000
00011000
00000000
00000000
,
00011000
00000000
00001000
00000000
,
00000100
00000001
00002002
00000000
,
00000000
00000000
00000000
00003003
00000001
00000000
00000100
00000000
,
00001000
00010000
00001000
00100000
,
00010000
01000000
00000000
00010000
,
00100000
00100000
10000000
10000000
,
00100000
00010000
00000000
10000000
,
01000000
00010000
00001000
00000010
,
00000001
00000000
00000000
00000001
,
00000100
00000001
00000010
00000010
,
00000100
00000100
00000000
00010000
,
00000000
00001000
00010000
00001000
,
00000000
00011000
00000000
00000000
,
00011000
00000000
00000000
00020000
,
00000000
00130000
10000000
01000000
,
00010000
01000000
00010000
00001000
,
00000000
00000010
00000001
00000001
,
00000100
00000100
00001000
00010000
,
00001000
00000000
00000010
00000001
,
00000100
00001000
00000100
00001000
,
00010000
00000000
00100000
00000000
,
10000000
00000000
01000000
00000000
,
00010000
00011000
00000000
00000000
,
00001010
00000000
00000000
00000000
,
00000011
00000000
00000000
00000001
,
00000000
00000000
00000100
00000000
,
00000000
00001000
00000000
00000000
,
00010000
00001000
00000000
00000000
,
00010000
00100000
10000000
01000000
,
00010000
00000000
00000000
00010000
,
00000000
00001000
00000100
00000002
,
00000003
00000000
00000001
00000001
,
00000000
00000100
00000100
00000100
,
00000000
00000000
00000000
00001000
,
00010000
00100000
10000000
01000000
,
00010000
00001000
00010000
00000000
,
00020000
00031000
00000000
00000010
,
00000001
00000010
00000000
00000001
,
00000010
00000100
00001000
00000100
,
00010000
00001000
00200000
01300000
,
10000000
01000000
00010000
00001000
,
00000010
00000001
00000100
00001000
,
00000000
00010000
00000000
00001000
,
00000000
00010000
00000000
00100000
,
00000000
10000000
00000000
01000000
,
00000000
00100000
00000000
00010000
,
00000000
00001000
00000000
00000100
,
00000000
00000010
00000000
00000001
,
00000000
00002000
00000000
00000000
,
00000000
00000000
00003001
00000000
,
00000100
00000000
00001000
00010000
,
00100000
00000000
10000000
00000000
,
01000000
00000000
00010000
00001000
,
00010000
00000000
00001000
00000000
,
00010000
00000000
00100000
10000000
,
01000000
00000000
00010000
00000000
,
00001000
00000000
00000020
00000000
,
00000000
00000000
00000001
00000031
,
00000001
00000000
00002000
00000000
,
00000000
00000000
00000100
00003100
,
00000100
00000000
00010000
00001000
,
00010000
00100000
01000000
01000000
,
01000000
00010000
10000000
01000000
,
00010000
00002000
00000000
00000000
,
00000000
00000000
00000000
00003000
00000000
00000000
00000000
00000000
00000000
00000000
00000000
00000000
00000000
00000000
00000000
00000000
,
00000000
00000000
00010000
00010000
,
00001000
00001000
00010000
00010000
,
00002000
00003000
00010000
00100000
,
10000000
01000000
00010000
00001000
,
00000010
00000000
00000001
00000000
,
00000100
00000000
00001000
00000000
,
00010000
00001000
00001000
00000000
,
00010000
00000000
00000000
00000000
,
01100000
00000000
00000000
10010000
,
01100000
10000000
00000000
00100000
,
00000000
01000000
00000000
00010000
,
00000000
00001000
00000000
00000010
,
00000000
00000100
00000000
00000001
,
00000000
00000010
00000000
00001000
,
00000000
00010000
00001000
00000000
,
00010000
00100000
00000000
10000000
,
01000000
00100000
00000000
00220000
,
00000000
00000000
00000000
00000000
,
00330000
00000000
00000000
00000000
,
00000000
00000000
00000000
00000000
;
#NOTES:
     dance-double:
     :
     Medium:
     10:
     :
00000000
00000000
00000000
00000000
,
00000000
00000000
00000000
00000000
,
00000000
00000000
00000000
00000000
,
00000000
00000000
00000000
00000000
,
00001000
00011000
00000000
00010000
,
00011000
00000000
00000000
00000000
00000000
00000000
00000000
00000000
00001000
00000000
00000000
00001000
00000000
00000000
00010000
00000000
,
00000100
00001000
00002002
00000000
,
00000000
00000000
00000000
00003003
00000001
00000000
00000100
00000000
,
00001000
00010000
00001000
00100000
,
00010000
00000000
00000000
00000000
01000000
00000000
00000000
01000000
00000000
00000000
00100000
00000000
10000000
00000000
00000000
00000000
,
11000000
10000000
10100000
00100000
,
01000000
00010000
10000000
01000000
,
00010000
00001000
00010000
00000010
,
00001000
00000000
00000000
00000000
00000100
00000000
00000000
00000100
00000000
00000000
00000010
00000000
00000001
00000000
00000000
00000000
,
00000101
00000001
00000011
00000010
,
00000100
00000010
00000001
00001000
,
00000010
00010000
00011000
00001000
,
01000000
00000000
00000000
00010000
00000000
00010000
00000000
00000000
00000000
00000000
00000000
00000000
,
10000000
00000000
10000000
00000000
00000000
00000000
00000000
00000000
00000000
02000000
00000000
00000000
,
00000000
13000000
00100000
00010000
,
00001000
00010000
00000100
00001000
,
00000010
00000000
00000000
00000010
00000000
00000000
00000100
00000000
00000001
00000000
00000000
00000000
00000011
00000000
00000000
00000000
,
00000001
00000101
00000100
00000010
,
00000100
00000001
00000010
00001000
,
00010000
00001000
01000000
00010000
,
00100000
00000000
00000000
00100000
00000000
00000000
01000000
00000000
10000000
00000000
00000000
00000000
10100000
00000000
00000000
00000000
,
10000000
11000000
01000000
00100000
,
01000000
10000000
00100000
01000000
,
00001000
00011000
00010000
00000010
,
00001000
00000000
00001000
00000000
00000000
00000000
00000000
00000000
00000000
00000001
00000000
00000001
,
00000000
00000000
00000000
00000100
00000100
00000000
,
00000000
00000000
00000000
00000010
00000000
00000010
00000000
00000000
00000000
00000000
00000000
00000000
,
00010000
00000000
00000000
00001000
00000000
00000000
00100000
00000000
00010000
00000000
00100000
00000000
,
01000000
10000000
00100000
00010000
,
00001000
00000000
00000000
00000000
00000000
00000000
00000000
00000000
00000000
00010000
00000000
00010000
,
00000000
00000100
00000010
00000002
,
00000003
00000000
00000200
00000302
,
00000023
00002030
00023000
00032000
,
00103000
00010000
00100000
00010000
00000000
00000000
20000000
00000000
,
30200000
00320000
00230000
02300000
,
03020000
00000000
00000000
00230000
00000000
00000000
00301000
00000000
00010000
00000000
00001000
00000000
,
00020000
00032000
00003020
00000032
,
00002003
00000000
00000000
00003001
00000000
00000010
00000000
00000100
00000000
00002000
00000000
00000000
,
00003020
00020030
00032000
00203000
,
02300000
00000000
00000000
23000000
00000000
00000000
30200000
00000000
00000000
01300000
00000000
01000000
,
00000000
00000000
00000000
00000000
00000000
00000000
00000000
00001000
00000000
00010000
00000000
00001000
,
00000000
00000000
00000000
00000000
00000000
00000000
00000000
00000000
00000000
00010000
00000000
00010000
,
00000000
00010000
00000000
00000010
00000000
00001000
00000000
00000000
00000000
00000001
00000000
00000100
,
00000000
00000001
00000000
00001000
00000000
00000010
00000000
00001000
00000000
00000001
00000000
00000010
,
00000000
00000100
00000000
00000000
00000000
00000000
00000000
00000000
00000000
00010000
00000000
00001000
,
00000000
00010000
00000000
00001000
00000000
00000000
00000000
00000000
00000000
00000000
00100000
00000000
,
00010000
00100000
00000000
00000000
00000000
01000000
,
10000000
01000000
00000000
00000000
00100000
00100000
,
00001000
00001000
00001000
00010000
00010000
00010000
,
00001000
00000000
00000000
00000000
00001000
00000000
00000000
00000000
00001000
00000000
00000000
00000000
00010000
00000000
00000000
00000000
00000000
00000000
00000100
00000000
00000000
00001000
00000000
00000000
,
00000000
00001000
00000000
00000010
00000000
00000010
00000000
00000100
,
00000000
00000100
00000000
00000000
00000001
00000000
00001000
00000010
,
00000000
00000000
00000010
00000000
00000000
00000000
00000010
00000000
00000000
00000000
00000000
00000000
00001000
00000000
00000000
00000100
,
00000000
00010000
00000000
00000000
00001000
00000000
00010000
00001000
,
00000000
00001000
00000000
01000000
00000000
01000000
00000000
00010000
,
00000000
00010000
00000000
00000000
00100000
00000000
00001000
00010000
,
00000000
00010000
00000000
00010000
00000000
00000000
00000010
00000000
,
00001000
00001000
00000001
00000001
,
00000010
00000100
00001000
00000010
,
00000000
00010000
00001000
01000000
,
00010000
00000000
00100000
00001000
,
00011000
00000000
00010000
00001000
00000000
00000100
00000000
00001000
,
00010000
00000000
00000100
00000000
00001000
00000010
00000000
00000010
,
00000100
00002002
00000000
00000000
,
00000000
00000000
00000000
00003003
00000000
00000000
00000000
00000000
00000000
00000000
00000000
00000000
00000000
00000000
00000000
00000000
,
00000000
00000000
00000100
00000110
,
00001000
00001100
00010000
00011000
,
00001000
01000000
00100000
10000000
,
01000000
00010000
00001000
00000100
,
00000010
00000000
00000000
00000010
00000000
00000000
00001000
00000000
00000001
00000000
00000000
00000000
00000011
00000000
00000000
00000000
,
00000010
00000110
00000100
00001100
,
00001000
00000010
00010000
00001000
,
01000000
01100000
00100000
00010000
,
00011000
00001000
00000010
00000022
,
00000033
00000000
00000000
00000001
00000000
00000001
00000000
00000000
00000000
00001000
00000000
00001000
,
00000000
00001000
00000000
00000010
00000000
00000100
00000000
00000010
00000000
00010000
00000000
00010000
,
00000000
00010000
00000000
00001000
00000000
00010000
00000000
00001000
00000000
00100000
00000000
00100000
,
00000000
00100000
00000000
00010000
00000000
00010000
00000000
00010000
00000000
01000000
00000000
00100000
,
00000000
01000000
00000000
00010000
00000000
00010000
00000000
00010000
00000000
00100000
00000000
00001000
,
00000000
00010000
00000000
00001000
00000000
00000000
00011000
00000000
00000000
00000000
00000000
00000000
,
00010000
00011000
00000000
00001000
,
00011000
00000000
00000100
00000220
,
00000000
00000000
00000000
00000000
,
00000330
00000000
00000000
00000000
,
00000000
00000000
00000000
00000000
;
#NOTES:
     dance-double:
     :
     Hard:
     14:
     :
00000000
00000000
00000000
00000000
,
00000000
00000000
00000000
00000000
,
00000000
00000000
00000000
00000000
,
00000000
00000000
00000000
00000000
,
00001000
00010000
00001000
00010000
00000000
00000000
00000000
00000000
00000000
00000100
00001000
00000100
,
00001000
00000000
00000000
00000000
00000000
00000000
00000000
00000000
00000001
00000000
00000000
00000100
00000000
00000000
00001000
00000000
,
00010000
00000000
00001000
01000000
00020000
00000000
00230000
00000000
,
02300000
00000000
20000000
33000000
10000000
01000000
00100000
00010000
,
10000000
00100000
00010000
00000000
00001000
00010000
00000100
00001000
,
00000010
00000000
00001000
00000100
00000000
00001000
00000000
00000001
00000000
00000000
00000100
00000000
00000010
00000000
00000000
00001000
,
00000000
00000000
00000010
00000000
00010000
00000000
00000000
00001000
00000000
00000000
00010000
00000000
00000100
00000000
00000000
00001000
,
00000000
00000010
00000100
00000001
00000010
00000000
00000100
00001000
,
00000010
00010000
00001000
00000100
00000010
00000000
00010000
00001000
,
00100000
00000000
01000000
00000000
10000000
00000000
00000000
00100000
00000000
00000000
01000000
00000000
00010000
00000000
00000000
00100000
,
00000000
00000000
00010000
00000000
10000000
00000000
00000000
00100000
00000000
00000000
01000000
00000000
00001000
00000000
00000000
00010000
,
00000000
00000000
00001000
00000000
00100000
00000000
00010000
00000000
01000000
00000000
00000000
01000000
00000000
00000000
01000000
00000000
,
00010000
00000000
00100000
00000000
00001000
00000000
00000000
00000000
00011000
00000000
00000000
00001000
00000000
00000000
00000100
00000000
,
00000001
00000000
00000000
00000010
00000000
00000000
00000100
00000000
00001000
00000000
00000100
00000000
00000000
00000000
00000000
00000000
00000000
00000000
00000000
00000000
00000000
00000000
00000000
00000000
,
00010000
00001000
00010000
00000000
00000000
00000000
00000000
00000000
00000000
00002000
00000000
00000000
,
00000000
00000000
00000000
00000000
00013000
00000000
00001000
00000000
01000000
00010000
00000000
00100000
00000000
00000000
00010000
01000000
,
00000000
00100000
00000000
10000000
00000000
00000000
00010000
00000000
01000000
00010000
00000000
00100000
00000000
00000000
00001000
00010000
,
00000000
00001000
00000000
00000100
00000000
00000000
00000010
00000000
00001000
00000000
00000000
00000001
00000000
00000000
00001000
00000000
,
00000100
00000000
00000000
00000010
00000000
00000000
00000100
00000000
00010000
00000000
00000000
00001000
00000000
00000000
00000100
00000000
,
00000010
00000000
00001000
00000000
00000001
00000000
00000000
00000000
00000010
00000100
00000000
00001000
00000000
00000000
00000001
00001000
,
00000000
00000010
00000000
00000100
00000000
00000000
00000001
00000000
00001000
00000100
00000000
00001000
00000000
00000000
00000010
00010000
,
00000000
00001000
00000000
00010000
00000000
00000000
00001000
00000000
00100000
00000000
00000000
00010000
00000000
00000000
00100000
00000000
,
01000000
00000000
00000000
10000000
00000000
00000000
00100000
00000000
00010000
00000000
00000000
00001000
00000000
00000000
00100000
00000000
,
00001000
00000000
00000000
00000000
00010000
00000000
00000000
00010000
00000000
00000000
00010000
00000000
00000100
00000000
00001000
00000000
,
00000010
00000000
00000000
00000000
00010010
00000000
00000000
00010000
00000000
00000000
00001000
00000000
00000010
00000000
00000001
00000000
,
00000010
00000001
00000010
00000000
00000000
00000000
00000000
00000000
00000000
00000100
00001000
00000100
,
00000000
00000000
00000000
00000000
00000000
00000000
00010000
00001000
00010000
00000000
00000000
00000000
,
00000000
00000000
00000000
00100000
01000000
00100000
00000000
00000000
00000000
00000000
00000000
00000000
,
10010000
00000000
00000000
11000000
00000000
00000000
01000000
00000000
00010000
00000000
00001000
00000000
,
00000010
00000000
00000000
00000001
00000000
00000001
00000100
00000000
00000100
00001000
00000000
00001000
,
00010000
00000000
00010000
00000000
00000000
00000000
00000000
00000000
00000000
00001000
00100000
00010000
,
00000000
00000000
00000000
01000000
00100000
01000000
00010000
10000000
00010000
00100000
01000000
20000000
,
00000000
00000000
30000000
00000000
00000000
00000000
00000000
00000000
00100000
00000000
00000000
10000000
00010000
00000000
00000000
00000000
,
00000000
00000000
00000000
00010000
01000000
00000000
00000000
00001000
01000000
00000000
00000000
00001000
00010000
00000000
00000100
00000000
,
00010000
00000000
00001000
00000000
00000010
00000000
00000001
00000000
00000000
00000000
00000000
00000000
00001000
00000000
00000000
00000010
,
00000100
00000000
00000000
00000001
00000010
00000000
00000000
00000100
00001000
00000000
00000000
00000010
00010000
00000000
00000000
00000010
,
00001000
00000000
00000000
00000000
00000000
00000000
00000000
00000000
00000000
00000100
00000000
00000000
00010000
00000000
00000000
00000000
00000000
00000000
00000000
00000000
00000000
00000000
00000000
00000000
00001000
00000000
00000000
00000000
00010000
00000000
00000000
00000000
00001000
00000000
00000000
00000000
00010000
00000000
00000000
00000000
00001000
00000000
00000000
00000000
00010000
00000000
00000000
00000000
,
00001000
00000000
00000000
00100000
00010000
00000000
00000000
00000000
00000000
00000000
00000000
01000000
00100000
00000000
00000000
10000000
,
00010000
00000000
00000000
01000000
00100000
01000000
00100000
01000000
00100000
01000000
00000000
00000000
,
00010000
10000000
00100000
00010000
00001000
00010000
00000100
00000100
,
00000010
00000000
00000000
00000000
00000000
00000000
00000000
00000000
00000000
00000001
00000000
00000000
00000010
00000000
00000000
00000000
00000000
00000000
00000000
00000000
00000000
00000100
00000000
00000000
00001000
00000000
00000000
00000000
00000000
00000000
00000000
00000000
00000000
00000000
00000000
00000000
00000010
00000000
00000000
00000000
00010000
00000000
00000000
00000000
00001000
00000000
00000000
00000000
,
00000000
00000000
00000000
00000000
00000000
00000000
00000000
00100000
00010000
00100000
00010000
00100000
,
00000000
00000000
00000000
00000000
00000000
00000000
00000000
00000000
00000000
01000000
00000000
01000000
,
00000000
01000000
00000000
10000000
01000000
00100000
00000000
00000000
00000000
00001000
00010000
00001000
,
00100000
00010000
00100000
00001000
00010000
00001000
00100000
00010000
00100000
00001000
00010000
00001000
,
00100000
00010000
00100000
00000000
00000000
00000000
00000000
00000000
00000000
00001000
00010000
00000100
,
00001000
00000100
00010000
00001000
00000000
00000000
00000000
00000000
00000000
00010000
00001000
00010000
,
00000010
00001000
00000010
00000000
00000000
00000000
00000000
00000000
00000000
00001000
00000100
00001000
,
00000001
00000010
00000001
00000000
00000000
00000000
00000000
00000000
00000001
00000000
00000100
00000000
,
00001000
00010000
00100000
10000000
00100000
00010000
,
00001000
00000000
00000000
00000000
00000100
00000000
00000000
00000000
00000001
00000000
00000000
00000000
00000010
00000000
00000000
00000100
00000000
00000000
00001000
00000000
00000000
00000010
00000000
00000000
,
00000000
00001000
00000000
00000001
00000000
00000100
00000000
00001000
,
00000000
00010000
00000000
00001000
00010000
00001000
00100000
00010000
,
00000000
00000000
10000000
00000000
00100000
00000000
01000000
00000000
00000000
00000000
00010000
00000000
00100000
00000000
00000000
00001000
,
00000000
00010000
00000000
00000100
00001000
00000100
00000010
00000001
,
00000000
00000010
00000000
00001000
00000000
00010000
00000000
00001000
,
00000000
01000000
00000000
00100000
00010000
00100000
10000000
00010000
,
00000000
00100000
01000000
20000000
00000000
00000000
30010000
00000000
,
00010000
00100000
00000000
00001000
00001000
00010000
00010000
00000000
,
00000100
00001000
00000010
00001000
00000000
00000100
00010000
00000000
,
00010000
00001000
00000100
00000010
00000000
00001000
00000000
00000001
,
00000000
00000100
00000000
00000000
00001010
00000000
00010010
00000000
,
00011000
00000000
00001000
01000000
00000000
01100000
00000000
00100000
,
00010000
00000000
00001000
00000000
00010000
01000000
00000000
10000000
,
00100000
01000000
00020000
00000000
00000000
00000000
00000000
00000000
,
00030000
00000000
00000000
00100000
00000000
00000000
00000000
00000000
00000000
00000000
00000000
00000000
00000000
00000000
00000000
00000000
,
00000000
00000000
00000000
00001000
00000000
00000000
00010000
00000000
00000100
00000000
00000000
00001000
00000000
00000000
00000100
00000000
,
00010000
00000000
00000000
00001000
00000000
00000000
00010000
00000000
00000010
00000000
00000000
00000100
00000000
00000000
00000010
00000000
,
00001000
00000000
00000001
00000000
00000010
00000000
00000000
00000000
00000100
00001000
00000000
00000001
00000000
00000000
00000100
00000010
,
00000000
00001000
00000000
00000001
00000000
00000000
00000010
00000000
00000100
00001000
00000000
00000010
00000000
00000000
00010000
00001000
,
00000000
01000000
00000000
00010000
00000000
00000000
00100000
00000000
00001000
00000000
00000000
00010000
00000000
00000000
00001000
00000000
,
01000000
00000000
00000000
00100000
00000000
00000000
01000000
00000000
00001000
00000000
00000000
00010000
00000000
00000000
01000000
00000000
,
10000000
00000000
01000000
00000000
00100000
00000000
00000000
00100000
00000000
00000000
00100000
00000000
00010000
00000000
01000000
00000000
,
00001000
00000000
00000000
00000000
00011000
00000000
00000000
00010000
00000000
00000000
00001000
00000000
00000010
00000000
00000001
00000000
,
00001000
00000000
00000000
00000001
00000000
00000000
00000100
00000000
00001000
00000000
00010000
00000000
00022000
00000000
00000000
00000000
,
00033000
00000000
00000000
00001000
00000000
00001000
00010000
00000000
00010000
00100000
00000000
00100000
,
01000000
00000000
01000000
00010000
00000000
00010000
10000000
00000000
10000000
01000000
00000000
01000000
,
00010000
00000000
00010000
00001000
00000000
00001000
00000100
00000000
00000100
00000010
00000000
00000010
,
00001000
00000000
00001000
00000001
00000000
00000100
00000010
00000000
00001000
00000100
00000000
00010000
,
00001000
00000000
00100000
00010000
00000000
01000000
00100000
00000000
00100000
01000000
00000000
00010000
,
10000000
00000000
00000000
01000000
00100000
01000000
00100000
00000000
00000000
00000000
00000000
00000000
,
00001000
00010000
00001000
00010000
00000000
00000000
00000000
00000000
00000000
00000010
00000100
00000010
,
00000100
00000000
00000000
00000000
00001000
00010000
00001000
00010000
00001000
00020000
00000000
00000000
,
00000000
00000000
00000000
00000000
,
00030000
00000000
00000000
00000000
,
00000000
00000000
00000000
00000000
;
#NOTES:
     dance-double:
     :
     Challenge:
     17:
     :
00000000
00000000
00000000
00000000
,
00000000
00000000
00000000
00000000
,
00000000
00000000
00000000
00000000
,
00000000
00000000
00000000
00000000
,
00010000
00001000
00010000
00000010
00000000
00000000
00010000
00000000
00000000
00001000
00010000
00001000
,
00100000
00000000
00000000
00000000
00001000
00000000
00000000
00000000
00010000
00000000
00000000
00000100
00000000
00000000
00001000
00000000
,
00000010
00001000
00000000
00000000
00000001
00000000
00000010
00000000
00000001
00001000
00000010
00000100
00000010
00001000
00000001
00000100
,
00001000
00000000
00010000
00000000
01000000
00000000
10000000
00000000
00100000
00000000
01000000
00000000
00010000
10000000
00000000
01000000
,
00000000
00000000
00010000
00001000
00000000
00000010
00000000
00000001
00000000
00000000
00000010
00000000
00000100
00001000
00000100
00001000
,
00000000
00000000
00000010
00010000
00000000
00001000
00000000
00011000
00000000
00000000
00001000
00000000
01000000
00000000
00000000
00010000
,
01000000
00000000
00001000
00000000
00010000
00000000
00000100
00010000
00000000
00000000
00001000
00000000
00010000
00000000
00000000
01000000
,
00000000
10000000
01000000
10000000
01000000
00100000
00010000
00100000
01000000
00000000
00010000
00000000
00001000
00010000
00001000
00010000
,
00000000
00000000
00001000
00000010
00000000
00000001
00000000
00001000
00000000
00000000
00000001
00000000
00001000
00000010
00001000
00000010
,
00000000
00000000
00000100
00001000
00000000
00010000
00000000
01000000
00000000
00000000
10000000
01000000
00100000
00010000
00000000
00100000
,
00000000
00010000
01000000
00010000
01000000
00001000
00000000
00010000
00001000
00100000
00010000
00100000
01000000
10000000
00010000
01000000
,
00000000
00010000
00100000
00010000
00100000
00001000
00010000
00001000
00010000
00000000
00000000
00000100
00000000
00000000
00000001
00000000
,
00000100
00000000
00001000
00000000
00000010
00000000
00000000
00000000
00010000
00000000
00000000
00100000
00000000
00000000
01000000
00000000
,
00001000
00000000
00000000
00010000
00000000
00000000
01000000
00000000
00100000
00000000
00100000
00000000
00000000
00000000
00000000
00000000
00000000
00000000
00000000
00000000
00000000
00000000
00000000
00000000
,
00001000
00000000
00000000
00000000
00010000
00000000
00000000
00000000
00010000
00000000
00000000
00000000
00000000
00000000
00000000
00000000
00000000
00000000
00000000
00000000
00000000
00000000
00000000
00000000
00000000
00000000
00000000
00000000
00000000
00000000
00000000
00000000
00000000
00000000
00000000
00000000
00000100
00000000
00000000
00001000
00000000
00000000
00000100
00000000
00000000
00000010
00000000
00000000
,
00000001
00001000
00000010
00000000
00000100
00000000
00000010
00000000
00010000
00001000
00010000
00001000
00000000
00000000
01000000
00010000
,
00000000
00100000
00000000
01000000
00000000
00000000
00010000
00000000
00001000
00010000
00001000
00010000
00000000
00000000
00100000
01000000
,
00000000
00010000
00000000
00110000
00000000
00000000
11000000
00000000
10000000
00000000
00000000
01000000
00100000
00000000
00001000
00000000
,
00010000
00000000
00000100
00000010
00000000
00000000
00000001
00000000
00000100
00000000
00000000
00000010
00000000
00010000
00001000
00010000
,
00001000
01000000
00010000
01000000
00010000
00000000
00010000
00000000
00100000
00010000
00100000
00010000
00000000
00000000
01000000
00001000
,
00000000
00010000
00000000
00001000
00000000
00000000
00000100
00000000
00000001
00000100
00000010
00001000
00000000
00000000
00000100
00010000
,
00000000
00001000
00000000
01000000
00000000
00000000
00100000
00000000
10000000
01000000
00000000
00100000
00000000
00001000
00010000
00001000
,
00010000
00000100
00000000
00001000
00000100
00001000
00000100
00000010
00000001
00001000
00000001
00001000
00000000
00000001
00000100
00000001
,
00000100
00000001
00000010
00000100
00001000
00000000
00000000
00000010
00000000
00000000
00010000
00000000
00001000
00000000
00000100
00000000
,
00000001
00000000
00000000
00000000
00000011
00000000
00000000
00000010
00000000
00000000
00000100
00000000
00010000
00000000
00001000
00000000
,
00010000
00001000
00010000
00000000
00000000
00000000
00000000
00010000
00100000
10000000
00100000
00010000
,
00000000
00000000
00000000
00000000
00001000
00000010
00000001
00000010
00001000
00000000
00000000
00000000
,
00000000
00010000
01000000
10000000
01000000
00010000
00000000
00000000
00000000
00000000
00001000
00000100
,
00000001
00000100
00000010
00010000
00001000
01000000
00100000
00000000
00010000
00000000
00001000
00000000
,
00000100
00000010
00001000
00000001
00000010
00000100
00010000
00001000
00100000
01000000
10000000
00100000
,
00010000
00001000
00100000
00000000
00000000
00000000
00000000
00000000
00000000
00100000
00010000
00010000
,
00000000
00000000
00000000
00100000
00001000
00001000
00010000
00000100
00000100
00001000
00000010
00000010
,
00000200
00000000
00000300
00000000
00000000
00000000
00000000
00000000
00000001
00000000
00000000
00001000
00000010
00000000
00000000
00000000
,
00000000
00000000
00000000
00010000
00001000
00000000
00000000
00100000
00010000
00000000
00000000
10000000
00010000
00000000
01000000
00000000
,
00010000
00100000
00010000
00100000
01000000
10000000
00010000
00000000
00000000
00000000
00000000
00000000
00100000
00000000
00000000
00001000
,
00010000
00000000
00000000
00000010
00001000
00000000
00000000
00000001
00000100
00000000
00000000
00000001
00000010
00000000
00000000
00000100
,
00010000
00000000
00000000
00000000
00000000
00000000
00000000
00000000
00000000
00001000
00000000
00000000
01000000
00000000
00000000
00000000
00000000
00000000
00000000
00000000
00000000
00010000
00000000
00000000
10000000
00000000
00000000
00000000
01000000
00000000
00000000
00000000
00100000
00000000
00000000
00000000
01000000
00000000
00000000
00000000
10000000
00000000
00000000
00000000
00010000
00000000
00000000
00000000
,
01000000
00000000
00000000
00100000
10000000
00000000
00000000
00000000
00000000
00000000
00000000
10000000
01000000
00000000
00000000
00010000
,
00001000
00000000
00000000
00000000
00000000
00000000
00000000
00000000
00000000
00000010
00000000
00000000
00000001
00000000
00000000
00000000
00000010
00000000
00000000
00000000
00000100
00000000
00000000
00000000
00001000
00000000
00000000
00000000
00000010
00000000
00000000
00000000
00010000
00000000
00000000
00000000
00001000
00000000
00000000
00000000
00000000
00000000
00000000
00000000
00000000
00000000
00000000
00000000
,
00000100
00000010
00000100
00000000
00000001
00000000
00000010
00000100
00001000
00000000
00000010
00000000
00010000
00001000
00010000
00001000
,
00010000
00000000
00000000
00000000
00000000
00000000
00000000
00000000
00000000
00001000
00000000
00000000
01000000
00000000
00000000
00000000
00000000
00000000
00000000
00000000
00000000
00010000
00000000
00000000
00100000
00000000
00000000
00000000
00000000
00000000
00000000
00000000
00000000
00000000
00000000
00000000
01000000
00000000
00000000
00000000
10000000
00000000
00000000
00000000
00200000
00000000
00000000
00000000
,
00300000
00000000
00000000
00000000
00000000
00000000
00000000
01000000
00010000
00100000
00001000
00020000
,
00000000
00030000
00000000
00000000
00000000
00000000
00000000
00000000
00000000
00011000
00000000
00011000
,
00000000
00010010
00000000
00000010
00001000
00000100
00000000
00000000
00000000
00000010
00000100
00001000
,
00000001
00000100
00000010
00010000
00001000
00100000
01000000
10000000
00100000
01000000
00010000
10000000
,
01000000
00010000
00001000
00000010
00000001
00001000
00000100
00000010
00000001
00001000
00000010
00010000
,
00000100
00010000
00001000
01000000
00000000
00010000
10000000
01000000
00100000
00001000
00010000
00000010
,
00001000
00000001
00000100
00001000
00010000
01000000
00100000
00000000
00001000
00010000
00000100
00000010
,
00000001
00000100
00000010
00001000
00000100
00010000
00001000
00000000
00001000
00200000
00001000
00000000
,
00001000
00000000
00001000
00300000
00001000
00000000
00001000
00000000
00001000
00000200
00001000
00000000
,
00001000
00000000
00000000
00000000
00001000
00000000
00000300
00000000
00001000
00000000
00000000
00000000
00001000
00000000
00000000
00010000
00000000
00000000
00100000
00000000
00000000
01000000
00000000
00000000
,
00000000
00010000
00000000
10000000
00000000
01000000
00000000
00010000
,
00000000
00001000
00010000
00000100
00000010
00001000
00000010
00000001
,
00000000
00000000
00000100
00000000
00000010
00000000
00010000
00000000
00000000
00000000
00001000
00000000
00010000
00000000
00000000
01000000
,
00000000
10000000
00100000
01000000
00010000
10000000
01000000
00010000
,
00000000
00001000
00000000
00000100
00000000
00000010
00000000
00001000
,
00000000
00000100
00010000
00001000
00010000
00000010
00001000
00000001
,
00000000
00000010
00000100
00002000
00000000
00003010
00010000
00001000
,
00010000
00001000
00010000
00000000
01000000
00000000
00100000
00000000
00100000
00000000
00010000
00000000
00010000
00000000
01000000
00000000
,
00001000
00010000
00001000
00000000
00000000
00000000
00010000
00000000
00000010
00000000
00000100
00000000
00000010
00000000
00000000
00000000
,
00001000
00000001
00000100
00000000
00000001
00000000
00000010
00000000
00000100
00000000
00010000
00000000
00001000
00000000
01000000
00000000
,
00010000
00000000
10000000
00000000
00000000
10000000
00000000
00000000
11000000
00000000
00000000
00000000
00110000
00000000
00000000
00000000
,
00101000
00000000
00001000
00010000
00000000
00010010
00000000
00010000
,
00001000
00000000
00000100
00000001
00000010
00000110
00000000
00000100
,
00010000
00001000
00022000
00000000
00000000
00000000
00000000
00000000
,
00033000
00000000
00000000
00011000
00000000
00000000
00000000
00000000
00000000
00000000
00000000
00000000
00000000
00000000
00000000
00000000
,
00000000
00000000
00000000
00011000
00000000
00000000
00001000
00000000
00100000
00000000
00000000
00010000
01000000
00000000
00100000
00000000
,
01000000
00000000
00010000
00100000
00000000
00000000
00001000
00000000
00010000
00000000
00000000
01000000
00000000
10000000
01000000
00100000
,
00010000
10000000
00010000
10000000
01000000
00100000
00010000
00000000
00100000
00001000
00100000
00001000
00000000
00000000
00010000
00000100
,
00000000
00000010
00000000
00000001
00000000
00000000
00000100
00000000
00000010
00001000
00000010
00010000
00000000
00000000
00001000
00010000
,
00000000
01000000
00000000
10000000
00000000
00000000
00100000
00000000
00000000
00000000
00000000
00100000
00000000
01000000
00010000
01000000
,
00010000
00100000
00000000
00001000
00010000
00001000
00010000
00000010
00001000
00000010
00001000
00000001
00000000
00001000
00000100
00010000
,
00001000
00100000
00010000
10000000
00100000
00000000
00000000
00100000
00000000
00000000
10000000
00000000
01000000
00000000
00010000
00000000
,
00001000
00000000
00000000
00000000
00000110
00000000
00000000
00001001
00000000
00000000
00000001
00000000
00000100
00000000
00001000
00000000
,
00010000
00000000
00000000
00100000
00000000
00000000
10000000
00000000
01000000
00000000
00010000
00000000
00022000
00000000
00000000
00000000
,
00033000
00000000
00000000
00001000
00010000
00001000
00100000
00010000
10000000
00100000
01000000
00010000
,
10000000
00100000
00010000
00001000
00010000
00000100
00001000
00000100
00000010
00000001
00001000
00000001
,
00000100
00001000
00010000
00001000
00010000
01000000
10000000
00010000
01000000
00100000
10000000
01000000
,
00010000
00001000
00000010
00000001
00000000
00001000
00000010
00000100
00000001
00001000
00000100
00010000
,
00001000
01000000
00010000
00100000
00001000
00010000
00000100
00000000
00001000
00000001
00000100
00000010
,
00001000
00000001
00000100
00001000
00010000
00001000
00100000
00000000
00000000
00001000
00000000
00000000
,
00010000
00001000
00010000
00000010
00000000
00000000
00010000
00000000
00000000
00001000
00010000
00001000
,
00100000
00000000
00000000
00000000
00010000
10000000
00010000
10000000
01000000
02200000
00000000
00000000
,
00000000
00000000
00000000
00000000
,
03300000
00000000
00000000
00000000
,
00000000
00000000
00000000
00000000
;
