
//----- song ID: bdow -----//
#TITLE:BRE∀K DOWN! (World Version);
#ARTIST:ELE ROCKS;
#BANNER:BREAK DOWN! (World Version).png;
#BACKGROUND:BREAK DOWN! (World Version)-bg.png;
#CDTITLE:./CDTitles/DDR HOTTEST PARTY.png;
#MUSIC:BREAK DOWN! (World Version).ogg;
#SAMPLESTART:45.125;
#SAMPLELENGTH:15;
#BPMS:0=190;
#BGSTAGE:16;
#NOTES:
     dance-single:
     :
     Beginner:
     2:
     :
0000
0000
0000
0000
,
0000
0000
0000
0000
,
0000
0000
0000
0000
,
0000
0000
0000
0000
,
0000
0000
0000
0000
,
0000
0000
0000
0000
,
1000
0000
0000
0000
,
1000
0000
0000
0000
,
0010
0000
0000
0000
,
0000
0000
0000
0000
,
1001
0000
0000
0000
,
0000
0000
0000
0000
,
0001
0000
0000
0000
,
0010
0000
0000
0000
,
0001
0000
0000
0000
,
0000
0000
0000
0000
,
0001
0000
0000
0000
,
0001
0000
0000
0000
,
0100
0000
0000
0000
,
0000
0000
0000
0000
,
0010
0000
0000
0000
,
0010
0000
0000
0000
,
1000
0000
0000
0000
,
0000
0000
0000
0000
,
0010
0000
0000
0000
,
0010
0000
0000
0000
,
0001
0000
0000
0000
,
0000
0000
0000
0000
,
1001
0000
0000
0000
,
0000
0000
0000
0000
,
0001
0000
0000
0000
,
0001
0000
0000
0000
,
0010
0000
0000
0000
,
0010
0000
0000
0000
,
1000
0000
0000
0000
,
0000
0000
0000
0000
,
1001
0000
0000
0000
,
0000
0000
0000
0000
,
1000
0000
0000
0000
,
1000
0000
0000
0000
,
0010
0000
0000
0000
,
0000
0000
0000
0000
,
0001
0000
0000
0000
,
0001
0000
0000
0000
,
0010
0000
0000
0000
,
0001
0000
0000
0000
,
0001
0000
0000
0000
,
0100
0000
0000
0000
,
1000
0000
0000
0000
,
1000
0000
0000
0000
,
0010
0000
0000
0000
,
1000
0000
0000
0000
,
0010
0000
0000
0000
,
0000
0000
0000
0000
,
1001
0000
0000
0000
,
0000
0000
0000
0000
,
1001
0000
0000
0000
,
0000
0000
0000
0000
,
0001
0000
0000
0000
,
0001
0000
0000
0000
,
0010
0000
0000
0000
,
1000
0000
0000
0000
,
0010
0000
0000
0000
,
0000
0000
0000
0000
,
1001
0000
0000
0000
,
0000
0000
0000
0000
,
1000
0000
0000
0000
,
1000
0000
0000
0000
,
1001
0000
0000
0000
,
0000
0000
0000
0000
;
#NOTES:
     dance-single:
     :
     Easy:
     4:
     :
0000
0000
0000
0000
,
0000
0000
0000
0000
,
0000
0000
0000
0000
,
0000
0000
0000
0000
,
0000
0000
0000
0000
,
0000
0000
0000
0000
,
0001
0000
0001
0000
,
0010
0000
0000
0000
,
0010
0000
0010
0000
,
0100
0000
0000
0000
,
1000
0000
0001
0000
,
1001
0000
0000
0000
,
1000
0000
0100
0000
,
0010
0000
0010
0000
,
0001
0000
0100
0000
,
0001
0000
0000
0000
,
0001
0000
0100
0000
,
0010
0000
0010
0000
,
1000
0000
0100
0000
,
1000
0000
0000
0000
,
1000
0000
0001
0000
,
1000
0000
0001
0000
,
0100
0000
0010
0000
,
0100
0000
0000
0000
,
0001
0000
1000
0000
,
0001
0000
1000
0000
,
0100
0000
0010
0000
,
0100
0000
0000
0000
,
1000
0000
0100
0000
,
0010
0000
0000
0000
,
0110
0000
0000
0000
,
1001
0000
0000
0000
,
0001
0000
0100
0000
,
0010
0000
0000
0000
,
0110
0000
0000
0000
,
1001
0000
0000
0000
,
0001
0000
0100
0000
,
0001
0000
0010
0000
,
0100
0000
1000
0000
,
0001
0000
0000
0000
,
1000
0000
0100
0000
,
1000
0000
0010
0000
,
0100
0000
0001
0000
,
1000
0000
0000
0000
,
0001
0000
0001
0000
,
0100
0000
0010
0000
,
1000
0000
0000
0000
,
1001
0000
0000
0000
,
1000
0000
1000
0000
,
0100
0000
0010
0000
,
0001
0000
0000
0000
,
1001
0000
0000
0000
,
1001
0000
0000
0000
,
0100
0000
0010
0000
,
1001
0000
0000
0000
,
0010
0000
0100
0000
,
1001
0000
0000
0000
,
1000
0000
0001
0000
,
0110
0000
0000
0000
,
0001
0000
1000
0000
,
0110
0000
0000
0000
,
0001
0000
0010
0000
,
0100
0000
0000
0000
,
0010
0000
0100
0000
,
1000
0000
0000
0000
,
1000
0000
0010
0000
,
0100
0000
0000
0000
,
0010
0000
0000
0000
,
1001
0000
0000
0000
,
0000
0000
0000
0000
;
#NOTES:
     dance-single:
     :
     Medium:
     10:
     :
0000
0000
0000
0000
,
0000
0000
0000
0000
,
0000
0000
0000
0000
,
0000
0000
0000
0000
,
0000
0000
0000
0000
,
0000
0000
0000
0000
,
1000
0001
0100
1001
,
0001
1000
0100
1001
,
1000
0010
1000
0000
0001
0010
0001
0000
,
1000
0000
0000
1001
0000
1001
0000
0000
,
0001
0001
0100
0000
1000
1000
0100
0000
,
0001
1000
0001
1000
0001
0000
1001
0000
,
1000
0010
0100
0110
,
0001
0010
0100
0110
,
0001
1000
0100
1010
,
1000
0001
0100
0011
,
0001
0100
0010
1001
,
1000
0100
0010
1001
,
0001
0100
0001
0000
1000
0010
1000
0000
,
0002
0023
0230
2300
,
3001
0010
1000
0010
,
0001
1000
0001
1000
0000
0000
1001
0000
,
1000
0010
0001
0010
,
1000
0001
1000
0001
0000
0000
1001
0000
,
0001
0010
0100
1000
,
0010
0100
0010
0100
0000
0000
0110
0000
,
1000
0000
0010
1000
0000
0001
0100
0000
,
1001
0000
0000
0000
,
1000
1100
0100
0010
,
0011
0000
0001
1000
0001
0000
0000
0000
,
2000
0000
3200
0000
,
0301
0000
0100
1000
0000
0000
0000
0000
,
0001
0101
0100
0010
,
1010
0000
1000
0001
1000
0000
0000
0000
,
0001
0100
0010
1000
,
0001
1000
0001
1000
0001
0000
0000
0000
,
1001
0000
0000
0000
,
1000
0000
0100
0010
0000
0010
0000
0001
,
2000
0000
0000
3000
,
0001
0000
0100
0010
0000
0010
0000
1000
,
0002
0000
0000
0003
,
1000
0000
0100
0010
0000
0001
0000
0100
,
0020
0000
2030
0000
,
3001
0101
0100
0110
,
0010
1000
0010
0000
1000
0100
1000
0000
,
0200
0302
0203
2300
,
3001
0010
0001
0000
0100
0001
0100
0000
,
0002
0023
2030
3020
,
0031
0101
1000
1100
,
0001
0011
1000
1010
,
0001
1000
0001
0000
1000
0001
1000
0000
,
0010
0100
0010
0100
0010
0000
0000
0000
,
0110
0000
1000
0001
,
0100
0001
0010
1100
,
1000
0010
0100
1001
,
0001
1000
0010
0101
,
0001
0010
0100
1100
,
1000
0001
0100
1010
,
1000
0010
1000
0000
0001
0100
0001
0000
,
0011
0110
1100
1001
,
1000
0100
0001
0100
,
1000
0001
1000
0000
0001
0000
1001
0000
,
0001
0100
1000
0100
,
0001
1000
0001
0000
1000
0000
1001
0000
,
1000
0010
0001
0010
,
1000
0001
1000
0000
0001
0000
1001
0000
,
0001
0010
1000
0010
,
0001
0000
0000
0010
,
1001
0000
0000
0000
,
0000
0000
0000
0000
;
#NOTES:
     dance-single:
     :
     Hard:
     13:
     :
0000
0000
0000
0000
,
0000
0000
0000
0000
,
0000
0000
0000
0000
,
0000
0000
0000
0000
,
0000
0000
0000
0000
,
0000
0000
0000
0000
,
1000
0100
0010
0001
0100
0010
0001
0010
,
1000
0100
0010
0001
0100
0010
0001
0010
,
1000
0001
1000
0000
0011
0000
0001
0000
,
1000
0100
0010
0001
0100
0010
1000
0000
,
0001
0010
0011
0000
1000
0010
1010
0000
,
0001
0001
0010
0010
0100
0100
1000
1000
,
0001
0010
0001
0000
1000
0010
1000
0000
,
0001
0100
1000
0100
0001
0010
1000
0010
,
0001
0100
0001
0000
1000
0100
1000
0000
,
0001
0100
0010
0001
1000
0100
0010
1000
,
0001
0100
0010
0000
1000
0100
0010
0000
,
0001
0010
0100
1000
0001
0010
0100
0000
,
1100
1001
0101
1001
,
0001
0010
0100
0010
1000
0010
0001
0000
,
1000
0100
1000
0000
0001
0100
0001
0000
,
1000
0010
0001
0010
1000
0100
0001
0100
,
1000
0010
1000
0000
0001
0010
0001
0000
,
1000
0010
0100
1000
0001
0010
0100
0001
,
1000
0010
0100
0000
0001
0010
0100
0000
,
1000
0100
0010
0001
1000
0100
0010
0000
,
0011
1001
1010
1001
,
0220
0000
0000
0330
,
0001
0100
1000
0100
0000
0100
0001
0000
,
2000
0100
0010
3100
,
0001
0010
1000
0000
0001
0100
1000
0000
,
0001
1000
0001
1000
0000
1000
0001
0000
,
1000
0100
0001
0100
0000
0100
1000
0000
,
0002
0100
0010
0103
,
1000
0010
0001
0000
1000
0100
0001
0000
,
1000
0001
1000
0001
1000
0001
1000
0000
,
0001
1000
1000
0010
0100
0100
0001
0010
,
0100
1000
0010
1000
0100
0010
0001
0100
,
0010
1000
0001
0001
0100
0001
0010
0001
,
1000
0001
0001
0100
0001
0001
1000
0000
,
1000
0001
0001
0100
0010
0010
1000
0100
,
0010
0001
0100
0001
0010
0100
1000
0010
,
0100
0001
1000
1000
0010
1000
0100
1000
,
0001
1000
1000
0010
1000
1000
0001
0000
,
0001
0010
0100
1000
0010
0100
1000
0100
,
0001
0010
0100
1000
0010
0100
1000
0100
,
0001
0010
1000
0010
0001
0100
1000
0100
,
0001
0010
0100
0001
1000
0010
0100
0000
,
1000
0100
0010
0001
0100
0010
0001
0010
,
1000
0100
0010
0001
0100
0010
0001
0010
,
1000
0100
0001
0100
1000
0010
0001
0010
,
1000
1000
0100
0100
0010
0010
0001
0001
,
2000
0000
0000
0000
3000
0001
0100
0001
,
0010
0000
0001
0100
0000
0010
1000
0010
,
1000
0000
0100
0000
0001
0100
1000
0001
,
0010
0001
0100
0001
0000
0010
0001
0100
,
0010
0000
1000
0010
0010
1000
0100
0100
,
1000
0010
0100
0010
0000
0010
0100
1000
,
0100
0001
0010
0000
0100
1000
0010
0000
,
1010
1100
1010
1001
,
0001
0100
0010
1000
0100
0001
0100
1000
,
0010
0100
0001
1000
0010
0001
0010
1000
,
0100
0010
0001
0100
0001
0010
0100
1000
,
0001
0100
1000
0100
0001
0100
1000
0100
,
0001
0010
0100
1000
0100
0001
0100
1000
,
0010
1000
0001
0100
1000
0100
0010
0100
,
0001
0010
0001
0010
1000
0010
1000
0010
,
0001
0000
0000
0001
,
1001
0000
0000
0000
,
0000
0000
0000
0000
;
#NOTES:
     dance-double:
     :
     Easy:
     4:
     :
00000000
00000000
00000000
00000000
,
00000000
00000000
00000000
00000000
,
00000000
00000000
00000000
00000000
,
00000000
00000000
00000000
00000000
,
00000000
00000000
00000000
00000000
,
00000000
00000000
00000000
00000000
,
00001000
00000000
00001000
00000000
,
00010000
00000000
00000000
00000000
,
00010000
00000000
00010000
00000000
,
00001000
00000000
00000000
00000000
,
00001000
00000000
00010000
00000000
,
00011000
00000000
00000000
00000000
,
00001000
00000000
00100000
00000000
,
00010000
00000000
00010000
00000000
,
10000000
00000000
01000000
00000000
,
10000000
00000000
00000000
00000000
,
10000000
00000000
01000000
00000000
,
00100000
00000000
00100000
00000000
,
00001000
00000000
00010000
00000000
,
00001000
00000000
00000000
00000000
,
00001000
00000000
00010000
00000000
,
00000100
00000000
00001000
00000000
,
00000100
00000000
00000010
00000000
,
00000001
00000000
00000000
00000000
,
00000001
00000000
00001000
00000000
,
00000010
00000000
00000100
00000000
,
00000001
00000000
00001000
00000000
,
00000001
00000000
00000000
00000000
,
00000001
00000000
00000100
00000000
,
00001000
00000000
00000000
00000000
,
00010000
00000000
00000000
00000000
,
00011000
00000000
00000000
00000000
,
00010000
00000000
00100000
00000000
,
10000000
00000000
00000000
00000000
,
00010000
00000000
00000000
00000000
,
10010000
00000000
00000000
00000000
,
10000000
00000000
01000000
00000000
,
00100000
00000000
00100000
00000000
,
00001000
00000000
00010000
00000000
,
00001000
00000000
00000000
00000000
,
00001000
00000000
00010000
00000000
,
00000100
00000000
00001000
00000000
,
00000010
00000000
00000010
00000000
,
00000100
00000000
00000000
00000000
,
00000001
00000000
00000100
00000000
,
00000010
00000000
00000010
00000000
,
00010000
00000000
00001000
00000000
,
00010000
00000000
00000000
00000000
,
00010000
00000000
00001000
00000000
,
01000000
00000000
00010000
00000000
,
00100000
00000000
00100000
00000000
,
01000000
00000000
00000000
00000000
,
10010000
00000000
00000000
00000000
,
10000000
00000000
01000000
00000000
,
00100000
00000000
00000000
00000000
,
00001000
00000000
00010000
00000000
,
00011000
00000000
00000000
00000000
,
00010000
00000000
00001000
00000000
,
00000010
00000000
00000000
00000000
,
00000001
00000000
00001000
00000000
,
00001001
00000000
00000000
00000000
,
00000001
00000000
00000100
00000000
,
00001000
00000000
00000000
00000000
,
00010000
00000000
00001000
00000000
,
00011000
00000000
00000000
00000000
,
00001000
00000000
00010000
00000000
,
00100000
00000000
00000000
00000000
,
01000000
00000000
00000000
00000000
,
10010000
00000000
00000000
00000000
,
00000000
00000000
00000000
00000000
;
#NOTES:
     dance-double:
     :
     Medium:
     9:
     :
00000000
00000000
00000000
00000000
,
00000000
00000000
00000000
00000000
,
00000000
00000000
00000000
00000000
,
00000000
00000000
00000000
00000000
,
00000000
00000000
00000000
00000000
,
00000000
00000000
00000000
00000000
,
00001000
00000000
00010000
00000000
00100000
10000000
00100000
00000000
,
10000000
00000000
01000000
00000000
00100000
01000000
00100000
00000000
,
00001000
00010000
00011000
00001000
,
00010000
00000000
00000100
00001000
00000000
00000100
00001000
00000000
,
00000010
00000110
00000100
00000110
,
00000010
00001000
00000010
00000000
00000100
00000001
00000100
00000000
,
00000001
00000010
00000100
00001000
,
00000100
00010000
00001000
00010000
00000000
00000000
00011000
00000000
,
00010000
00001000
00100000
00010000
,
01000000
00100000
00000000
00100000
00000000
00000000
01100000
00000000
,
00100000
10000000
01000000
10000000
,
00100000
10000000
00100000
10000000
00000000
00010000
01000000
00000000
,
00010000
00000000
00100000
00001000
00000000
00001000
00010000
00000000
,
00022000
00000000
00000000
00033000
,
00001000
00010000
00001000
00000010
,
00000100
00001000
00000010
00001000
00000000
00000000
00001010
00000000
,
00000010
00000100
00000001
00001000
,
00000100
00000010
00000000
00001000
00000000
00000000
00011000
00000000
,
00010000
00001000
00100000
00010000
,
01000000
00100000
01000000
00100000
00000000
10000000
00100000
00000000
,
10000000
00000000
01000000
00010000
00000000
00010000
00001000
00000000
,
00022000
00000000
00000000
00033000
,
00010000
00000000
00000100
00001000
00000000
00001000
00000010
00000000
,
00000200
00000000
00000000
00000300
,
00000001
00000100
00001000
00010000
,
00100000
00000000
01000000
00100000
00000000
00000000
01100000
00000000
,
01000000
00000000
00010000
00100000
00000000
00100000
01000000
00000000
,
20000000
00000000
00000000
30000000
,
10000000
01000000
00100000
00001000
,
00010000
00001000
00010000
00000000
00001000
00010000
00001000
00000000
,
00011000
00000000
00000000
00000000
,
00010000
00000000
00000100
00001000
00000000
00001000
00000010
00000000
,
00000100
00000001
00000100
00001000
,
00000100
00000000
00000010
00001000
00000000
00001000
00000000
00000100
,
00010000
00001000
00100000
00001000
,
00010000
00000000
00001000
01000000
00000000
01000000
00000000
00010000
,
00200000
00300000
02000000
03000000
,
11000000
10000000
10100000
00100000
,
01100000
00000000
00000000
00000000
01000000
00010000
01000000
00000000
,
00010000
00000000
00100000
00001000
00000000
00100000
00000000
00001000
,
00010000
00000100
00010000
00001000
,
00000010
00000000
00000001
00001000
00000000
00000001
00000000
00000100
,
00000010
00001000
00000100
00001000
,
00000010
00000000
00000100
00001000
00000000
00010000
00000000
00001000
,
00020000
00030000
00002000
00003000
,
00010000
00001000
00010000
00001000
00010000
00000000
00000000
00000000
,
00011000
00000000
00001000
01000000
,
00010000
00100000
00010000
01000000
,
01100000
00000000
00100000
10000000
,
00010000
00100000
00001000
00000000
,
00011000
00000000
00001000
00010000
,
00000010
00001000
00000001
00000000
,
00000010
00000000
00000001
00000000
00000100
00000010
00000100
00000000
,
00002000
00023000
00230000
20300000
,
30010000
00000000
01000000
00000000
00100000
10000000
00100000
00000000
,
01000000
00001000
00010000
00000100
,
00001000
00000000
00000010
00000000
00000100
00000001
00000100
00000000
,
00000001
00000010
00001000
00010000
,
01000000
00000000
10000000
00000000
00010000
00100000
00010000
00000000
,
01000000
00010000
00100000
00001000
,
00010000
00000000
00000100
00000000
00001000
00000010
00001000
00000000
,
00000001
00000000
00000000
00000001
,
00001001
00000000
00000000
00000000
,
00000000
00000000
00000000
00000000
;
#NOTES:
     dance-double:
     :
     Hard:
     13:
     :
00000000
00000000
00000000
00000000
,
00000000
00000000
00000000
00000000
,
00000000
00000000
00000000
00000000
,
00000000
00000000
00000000
00000000
,
00000000
00000000
00000000
00000000
,
00000000
00000000
00000000
00000000
,
00011000
00000000
00101000
00000000
00100000
00010000
01000000
00000000
,
01100000
00000000
10100000
00000000
10000000
01000000
00010000
00000000
,
00001000
00010000
00001000
00000000
00010000
00000100
00001000
00000000
,
00000010
00000100
00001000
00000100
00000000
00000001
00000010
00000000
,
00000001
00000001
00000001
00000000
00001000
00001000
00001000
00000000
,
00000001
00000100
00000010
00001000
00010000
01000000
00100000
00000000
,
10000000
00000000
01000000
00000000
00010000
01000000
10000000
00000000
,
00100000
01000000
00100000
00010000
00001000
00010000
00001000
00000000
,
00010000
00000100
00001000
00000000
00000100
00000001
00000100
00000000
,
00001000
00000001
00000100
00000010
00010000
00001000
00010000
00000000
,
00001000
00100000
01000000
00000000
00010000
00001000
00010000
00000000
,
01000000
00100000
00001000
00010000
00000000
00001000
00100000
00010000
,
01000000
00000000
00100000
00010000
00000000
00010000
00001000
00000000
,
00000200
00000000
00000000
00000300
,
00000001
00000000
00000100
00000000
00001000
00000100
00000001
00000000
,
00000010
00000100
00000010
00001000
00010000
00001000
00010000
00000000
,
00001000
01000000
00010000
00000000
01000000
10000000
01000000
00000000
,
00010000
10000000
01000000
00100000
00001000
00010000
00001000
00000000
,
00010000
00000010
00000100
00000000
00001000
00010000
00001000
00000000
,
00000100
00000010
00010000
00001000
00000000
00010000
00000010
00001000
,
00000100
00000000
00000010
00001000
00000000
00001000
00010000
00000000
,
02000000
00000000
00000000
03000000
,
10000000
01000000
00100000
00010000
00000000
10000000
01000000
00010000
,
00002000
00000000
00000000
00003000
,
00101000
00001000
00010100
00000100
,
00001000
00000000
00000010
00000100
00000000
00000010
00000100
00000000
,
00000001
00000100
00000010
00001000
00000000
00000001
00000100
00001000
,
00020000
00000000
00000000
00030000
,
00010010
00010000
01001000
01000000
,
00010000
00100000
01000000
10000000
01000000
00100000
00010000
00000000
,
10010000
00000000
10000000
01000000
00010000
01000000
10000000
00010000
,
00100000
00000000
00001000
00010000
00000000
00100000
00010000
00001000
,
00010000
00000000
00000100
00001000
00000010
00001000
00000100
00000010
,
00000001
00000000
00000100
00001000
00000000
00010000
00001000
00000100
,
00000001
00000000
00000010
00000100
00000010
00001000
00010000
00001000
,
00100000
00000000
00010000
01000000
00000000
00100000
10000000
01000000
,
10000000
00100000
01000000
01000000
00010000
00100000
00001000
00001000
,
00010000
00000100
00001000
00000100
00000010
00000000
00000001
00001000
,
00000001
00000100
00000010
00001000
00000001
00000010
00000100
00001000
,
00000010
00000100
00001000
00000100
00001000
00010000
00001000
00000000
,
00010000
00001000
01000000
00010000
00100000
00010000
01000000
00100000
,
10000000
01000000
00100000
01000000
00010000
01000000
00100000
00000000
,
00010000
10000000
01000000
00100000
00010000
00100000
00001000
00010000
,
00001000
00010000
00000010
00000100
00000010
00001000
00000100
00000010
,
00000001
00000000
00000001
00000100
00001000
00000000
00010000
00100000
,
10000000
10000000
00010000
00010000
00100000
00100000
00001000
00001000
,
00020000
00000000
00000000
00000000
00031000
00010000
00000010
00001000
,
00000010
00000000
00001000
00000100
00000010
00000001
00000010
00000100
,
00001000
00000000
00001100
00000000
00000100
00010000
00001000
00010000
,
00000100
00001000
00000010
00000100
00001000
00010000
00001000
00000000
,
00011000
00000000
01001000
00000000
01000000
00010000
00100000
00010000
,
01000000
00100000
01000000
10000000
01000000
00010000
10000000
01000000
,
00100000
00000000
00110000
00000000
00010000
00100000
00001000
00000000
,
00011000
00000000
00010000
00000100
00001000
00000000
00001000
00000010
,
00000100
00000000
00000110
00000000
00000001
00000100
00000010
00001000
,
00000001
00000010
00000001
00000010
00001000
00000010
00001000
00010000
,
00001000
00000000
00011000
00000000
00010000
00001000
00100000
00010000
,
01000000
00010000
00100000
01000000
00010000
01000000
10000000
00010000
,
00100000
00000000
01100000
00000000
10000000
01000000
00100000
00010000
,
01000000
00100000
00010000
00100000
00010000
00001000
00000100
00000010
,
00001000
00000001
00000010
00000100
00000001
00000100
00000010
00000100
,
00010000
00000000
00000000
00001000
,
00011000
00000000
00000000
00000000
,
00000000
00000000
00000000
00000000
;
