
//----- song ID: brhe -----//
#TITLE:BRAIN-HEART;
#ARTIST:SOUND HOLIC Vs. ZYTOKINE feat. Nana Takahashi;
#BANNER:BRAIN-HEART.png;
#BACKGROUND:BRAIN-HEART-bg.png;
#CDTITLE:./CDTitles/DDR WORLD.png;
#MUSIC:BRAIN-HEART.ogg;
#SAMPLESTART:73.252;
#SAMPLELENGTH:15;
#BPMS:0=140;
#NOTES:
     dance-single:
     :
     Beginner:
     3:
     :
0000
0000
0000
0000
,
0000
0000
0000
0000
,
0000
0000
0000
0000
,
0000
0000
0000
0000
,
0000
0000
0000
0000
,
0000
0000
0000
0000
,
1000
0000
0001
0000
,
1000
0000
0000
0000
,
0002
0000
0000
0003
,
2000
0000
0000
3000
,
1001
0000
0000
0000
,
1000
0000
0100
0000
,
1000
0000
0100
0000
,
0010
0000
0001
0000
,
0010
0000
0000
0000
,
0001
0000
1000
0000
,
0001
0000
1000
0000
,
0010
0000
0100
0000
,
0110
0000
0000
0000
,
0010
0000
1000
0000
,
0010
0000
0100
0000
,
0001
0000
1000
0000
,
0001
0000
0010
0000
,
0001
0000
1000
0000
,
0010
0000
1000
0000
,
0001
0000
0010
0000
,
0001
0000
0000
0000
,
1000
0000
0100
0000
,
1000
0000
0001
0000
,
1001
0000
0000
0000
,
1001
0000
0000
0000
,
0002
0000
0003
0000
,
0100
0000
0100
0000
,
0020
0000
0030
0000
,
1000
0000
1000
0000
,
0001
0000
0100
0000
,
0001
0000
0100
0000
,
0010
0000
1000
0000
,
0010
0000
0000
0000
,
1000
0000
1000
0000
,
0100
0000
0100
0000
,
0010
0000
0010
0000
,
0001
0000
0000
0000
,
1000
0000
0010
0000
,
0100
0000
0001
0000
,
1000
0000
0001
0000
,
0100
0000
0010
0000
,
1000
0000
0001
0000
,
1000
0000
0100
0000
,
0010
0000
0100
0000
,
0010
0000
0000
0000
,
0010
0000
0001
0000
,
1000
0000
0010
0000
,
0100
0000
0001
0000
,
1000
0000
0100
0000
,
1000
0000
0001
0000
,
0010
0000
0100
0000
,
1000
0000
0001
0000
,
1000
0000
0000
0000
,
0001
0000
0100
0000
,
0001
0000
0100
0000
,
0010
0000
1000
0000
,
0001
0000
1000
0000
,
0100
0000
0010
0000
,
0100
0000
0010
0000
,
0001
0000
1000
0000
,
0001
0000
1000
0000
,
1001
0000
0000
0000
,
1001
0000
0000
0000
,
0000
0000
0000
0000
;
#NOTES:
     dance-single:
     :
     Easy:
     6:
     :
0000
0000
0000
0000
,
0000
0000
0000
0000
,
0000
0000
0000
0000
,
0000
0000
0000
0000
,
0000
0000
0000
0000
,
0000
0000
0000
0000
,
0001
0100
0001
0000
,
1000
0010
0100
0000
,
0001
1000
0001
0000
,
0010
0100
0010
0000
,
0001
1000
0001
0010
,
0100
0010
0100
0000
,
1000
0001
0100
0000
,
0001
1000
0001
0000
,
0100
0010
1000
0000
,
0001
0100
0001
0000
,
1000
0100
0010
0000
,
0001
1000
0010
0100
,
0110
0000
0000
0000
,
0010
1000
0100
1000
,
0001
0010
0100
0000
,
0010
0001
0100
0001
,
1000
0100
0010
0000
,
0100
0010
0100
0000
,
1000
0001
1000
0000
,
0001
0100
0001
0000
,
1000
0010
2000
0000
,
3001
0010
0001
0000
,
1000
0100
1000
0000
,
1100
0000
1001
0000
,
0101
0000
0001
1000
,
0020
0000
0230
0000
,
0301
0001
1000
1000
,
0002
0000
2003
0000
,
3100
0100
0010
0010
,
0110
0000
1000
0001
,
1001
0000
0010
0100
,
0110
0000
1001
0000
,
0110
0000
0000
0000
,
1000
1000
1000
1000
,
0010
0010
0010
0010
,
0100
0100
0100
0100
,
1001
0001
0100
0010
,
1000
0100
1000
0100
,
0010
0001
1000
0001
,
0100
0001
0100
0001
,
1000
0000
0010
0100
,
0001
0010
0001
0000
,
1000
0100
1000
0000
,
0001
0010
0100
1000
,
0010
0100
0010
0000
,
1000
0010
1000
0010
,
0100
0001
0100
0010
,
1000
0100
0010
0001
,
1000
0000
0001
0100
,
0010
1000
0010
0000
,
1000
0100
1000
0000
,
0001
0010
0100
1000
,
0002
0000
0000
0003
,
1000
0010
0100
0001
,
1000
0100
0010
0001
,
1000
0010
1000
0010
,
0100
0001
1000
0001
,
0010
0100
1000
0001
,
0100
0010
1000
0001
,
1000
0100
1000
0100
,
0010
0001
0100
0010
,
0110
0000
0000
1010
0000
0000
1001
0000
,
0101
0000
0000
0000
,
0000
0000
0000
0000
;
#NOTES:
     dance-single:
     :
     Medium:
     11:
     :
0000
0000
0000
0000
,
0000
0000
0000
0000
,
0000
0000
0000
0000
,
0000
0000
0000
0000
,
0000
0000
0000
0000
,
0000
0000
0000
0000
,
0001
0100
0001
0000
1000
0100
1000
0000
,
0001
0010
0001
0010
0100
0000
1001
0000
,
1000
0000
0000
0010
0000
0000
1000
0000
0001
0000
0100
0000
0001
0000
0000
0000
,
1000
0100
1000
0100
0010
0001
0010
0000
,
0001
1000
1000
0100
1000
1000
0001
0000
,
0010
0000
0000
0000
0010
0000
0000
0000
0001
0000
0000
1000
0000
0000
0001
0000
,
0100
0000
0000
0000
0100
0000
0000
0000
0010
0000
0000
1000
0000
0000
0010
0000
,
1000
0000
0000
0000
1000
0000
0000
0000
0100
0000
0000
0010
0000
0000
0100
0000
,
0010
0000
0000
0000
0010
0000
0000
0000
0001
0000
0000
0100
0000
0000
0010
0000
,
1000
0000
0001
0000
1000
0000
0000
0000
0100
0000
0000
0010
0000
0000
0001
0000
,
0100
0000
0010
0000
0100
0000
0000
0000
0001
0000
0000
1000
0000
0000
0100
0000
,
0010
0001
0010
0000
0001
0100
0001
0000
,
1000
0000
0100
0010
0001
0010
0001
0000
,
0100
0010
0000
0100
0000
0001
0000
1000
,
0000
0100
0010
0100
0000
1000
0000
0010
,
0100
0001
0000
0100
0000
0010
0000
1000
,
0001
0100
0000
0010
0000
1000
0000
0100
,
1000
0000
0100
0000
1000
0000
0100
0000
0010
0000
0000
0001
0000
0000
0010
0000
,
0001
0000
0100
0000
0001
0000
0100
0000
0010
0000
0000
1000
0000
0000
0010
0000
,
1000
0000
0001
0000
1000
0000
0001
0000
0010
0000
0000
0100
0000
0000
0010
0000
,
0001
1000
0001
0200
0000
0310
2000
0000
,
3100
0000
0000
0010
0000
0000
0100
0000
1000
0000
0000
0001
0000
0000
0100
0000
,
0010
0000
1000
0000
0010
0000
1000
0000
0001
0000
0000
0100
0000
0000
0010
0000
,
1000
0000
0000
0100
0000
0000
0010
0000
0100
0000
0000
0010
0000
0000
0001
0000
,
0100
0000
0010
0100
0010
0100
0010
0000
,
1000
1000
0001
0001
,
1000
0010
1000
0010
0100
0001
0100
0000
,
0002
0013
2000
3010
,
0001
0000
0100
0010
0100
0000
1001
0000
,
1000
0000
0000
1000
0000
0000
1000
0000
0000
0001
0000
0000
0100
0000
0001
0000
,
0100
0000
0010
0000
0000
0100
0000
0000
0001
0000
0000
0001
0000
0000
0001
0000
,
0010
0000
0000
0100
0000
0000
0010
0000
0001
0000
0000
1000
0000
0000
0100
0000
,
1000
0100
1000
0100
0010
0001
0010
0000
,
0001
0100
0001
0100
0001
0100
0001
0000
,
1000
0100
1000
0100
1000
0100
1000
0000
,
0010
0100
0010
0100
0010
0100
0010
0000
,
1001
0000
0001
0010
0100
1000
0001
0000
,
1000
0010
1000
0000
0001
0010
0001
0000
,
0010
0100
1000
0100
0010
0000
0001
0000
,
1000
0010
1000
0000
0001
0100
0001
0000
,
0100
0010
1000
0001
0010
0100
1000
0000
,
0001
0100
1000
0100
0000
0010
1000
0100
,
1000
0100
0001
0100
0000
0010
0001
0100
,
0000
0010
1000
0001
0100
0010
1000
0001
,
0010
0000
0000
0100
0000
0000
0010
0000
0001
0000
1000
0000
0100
0000
0000
0000
,
1000
0001
0100
0000
0001
0100
0010
0000
,
1000
0001
0010
0001
1000
0000
0100
0000
,
1000
0010
0100
0000
0001
0010
0100
0000
,
1000
0010
0100
0001
0010
0001
0010
0000
,
0001
0010
1000
0010
0000
0100
1000
0010
,
1000
0010
0001
0010
0000
0100
0001
0010
,
0001
1000
0010
1000
0010
0100
0001
0010
,
0100
0000
1000
0000
0010
1000
0100
0010
,
0001
1000
1000
0001
0100
0010
0100
0000
,
0001
0010
0010
0001
1000
0100
1000
0000
,
0010
0100
0001
0000
0010
0100
1000
0000
,
0001
0100
0010
1000
0001
0000
0110
0000
,
1000
0001
0001
1000
0010
0100
0010
0000
,
1000
0100
0100
1000
0001
0010
0001
0000
,
0100
0010
1000
0000
0100
0010
0001
0000
,
1000
0000
0000
0001
0000
0000
0100
0000
0000
0000
0010
0000
0100
0000
0001
0000
,
1000
0100
0100
0010
0100
0100
1000
0001
,
0100
0000
0000
0000
,
0000
0000
0000
0000
;
#NOTES:
     dance-single:
     :
     Hard:
     14:
     :
0000
0000
0000
0000
,
0000
0000
0000
0000
,
0000
0000
0000
0000
,
0000
0000
0000
0000
,
0000
0000
0000
0000
,
0000
0000
0000
0000
,
0001
0000
0100
0000
0001
0000
0100
0010
0100
0000
0001
0000
1000
0000
0100
0000
,
0010
0000
0001
0000
0010
0000
0001
0000
1000
0000
0010
0100
0010
0000
1000
0000
,
0001
0000
0000
0010
0100
0000
0010
0000
0001
0010
0001
0000
1000
0100
1000
0000
,
0001
0000
0100
0000
0010
0000
1000
0000
0001
0100
0001
0100
0010
1000
0010
0000
,
1000
0000
0001
0000
0001
0000
1000
0001
0100
0000
0001
1000
0001
0000
0000
0000
,
0100
0000
0010
0000
1000
0000
0010
0000
0100
0000
0001
0010
0000
0100
0010
0000
,
0001
0000
0100
0000
0010
0000
0100
0000
0001
0000
1000
0100
0000
0010
0100
0000
,
1000
0000
0100
0000
0010
0000
0100
0000
1000
0000
0001
0100
0000
0010
0100
0000
,
0001
0000
1000
0000
0100
0000
1000
0000
1001
0000
0000
0011
0000
0000
0101
0000
,
0100
0000
0010
0000
1000
0000
0001
0000
0100
0000
0001
0010
0000
0100
1000
0000
,
0001
0000
0100
0000
0010
0000
1000
0000
0001
0000
0100
0010
0000
1000
0001
0000
,
0010
0000
0100
1000
0100
0000
0010
0000
0001
0000
1000
0010
1000
0010
1000
0010
,
0100
0000
0000
0000
0001
0000
0010
0000
0100
0010
0100
0010
0001
0000
0100
0000
,
0010
0000
1000
0000
0100
0000
1000
0000
0001
0000
0010
0001
0010
0000
0001
0000
,
1000
0000
0010
0100
0010
0000
1000
0000
0001
0000
0100
0001
0100
0000
0010
0000
,
1000
0000
0100
0000
1000
0000
0010
0000
0100
0000
0001
1000
0001
0000
0100
0010
,
0100
0000
0010
0000
1000
0000
0100
0000
0010
0001
0010
0001
1000
0000
0001
0000
,
1000
0000
0010
0000
0100
0000
0001
0000
1000
0000
0010
1000
0010
0000
0100
0000
,
0001
0000
0010
0000
0100
0000
1000
0000
0001
0000
0100
0001
0100
0000
0010
0000
,
1000
0000
0100
0000
0010
0000
0001
0000
1000
0000
0100
1000
0100
0000
0010
0000
,
0001
0100
0010
2000
0000
3002
0023
0230
,
1300
0000
0010
0100
0010
0000
1000
0000
0001
0000
0010
0100
0010
0000
0001
0000
,
1000
0000
0100
0000
0010
0000
0001
0000
0100
0000
0010
1000
0010
0000
1000
0000
,
0001
0000
1000
0001
0100
0000
0010
0000
1000
0000
0001
1000
0010
0000
1000
0000
,
0001
0000
0100
0000
0010
0000
1000
0000
0001
0010
0001
0010
0001
1000
0001
0000
,
1000
1000
0100
0100
,
0010
0001
0010
0001
0010
0001
1000
0001
,
0200
0000
0310
1000
0200
0000
0310
0001
,
1000
0000
0000
0000
0001
0000
0001
0000
0001
0000
1000
0100
1000
0000
0000
0000
,
1001
0000
0000
0001
0000
0000
1100
0000
0000
1000
0000
0000
0001
0000
0100
0001
,
0100
0000
0010
0000
0000
1000
0010
0000
0100
0000
0000
0001
0100
0000
0001
0000
,
0010
0000
0000
0100
1000
0000
0100
0000
0010
0000
0000
0001
0100
0000
0001
0000
,
1000
0000
0010
0000
1000
0000
0010
0000
0100
0000
0001
0000
1000
0100
1000
0100
,
0010
0000
0010
0000
0010
0000
0010
0000
0010
0000
0010
0001
0010
0000
0011
0000
,
0001
0000
0001
0000
0001
0000
0001
0000
0001
0000
0001
1000
0001
0000
1001
0000
,
1000
0000
1000
0000
1000
0000
1000
0000
1000
0000
1000
0010
1000
0000
1010
0000
,
1001
0000
0000
0000
0001
0000
0001
0000
1000
0100
1000
0100
0010
0000
0000
0000
,
0001
0100
0001
1000
0100
0010
0001
0100
,
0001
0000
0010
0000
0100
0000
1000
0100
1000
0000
0001
0000
0100
0000
0001
1000
,
0100
0000
0010
0000
0001
0000
1000
0001
0100
0000
0001
0000
0100
0000
0010
1000
,
0001
0100
0000
0010
0100
0010
0100
0000
0001
0010
0001
0010
0100
0000
1000
0000
,
0001
0000
0100
0010
1000
0000
0100
0000
1000
0000
0010
0100
0001
0000
0010
0000
,
0001
0000
0010
0100
1000
0000
0010
0000
1000
0000
0100
0010
0001
0000
0100
0000
,
0001
0000
1000
0000
0100
0010
0100
0010
0001
0000
1000
0000
0001
0100
0001
0100
,
0010
1000
0001
0000
0010
0000
0100
1000
0100
0000
1000
0000
0001
0000
0000
0000
,
1000
0010
1000
0001
0010
0100
1000
0010
,
1000
0000
0100
0000
0010
0000
0001
0010
0001
0000
1000
0000
0010
0000
1000
0001
,
0100
0000
0001
0000
1000
0000
0001
1000
0010
0000
1000
0000
0010
0000
0100
0001
,
1000
0010
0000
0100
0000
0001
0100
0001
1000
0100
0010
0000
0001
0000
0001
0000
,
1000
0000
0100
0010
0001
0000
0100
0000
0001
0000
0010
0100
1000
0000
0010
0000
,
1000
0000
0010
0100
0001
0000
0010
0000
0001
0000
0100
0010
1000
0000
0100
0000
,
1000
0000
0001
0000
0100
0010
0100
0010
1000
0000
0001
0000
1000
0100
1000
0100
,
0010
0001
1000
0000
0010
0000
0100
0001
0100
0001
1000
0001
1000
0000
0100
0000
,
1000
0000
0100
0010
0001
0000
0010
0000
0001
0000
0100
0000
0010
0000
1000
0000
,
0001
0000
0010
0100
1000
0000
0100
0000
1000
0000
0010
0000
0100
0000
0001
0000
,
1000
0000
0001
0010
0100
0000
0010
0000
0001
0000
1000
0000
0010
0100
0000
0000
,
0101
0000
0000
1010
0000
0000
1001
0000
0001
0000
0100
0000
0010
0000
1000
0000
,
0001
0000
0010
0100
1000
0000
0100
0000
1000
0000
0010
0000
0100
0000
0001
0000
,
1000
0000
0100
0010
0001
0000
0010
0000
0001
0000
0100
0000
0010
0000
1000
0000
,
0001
0000
1000
0100
0010
0000
0100
0000
1000
0000
0001
0000
0100
0010
0000
0000
,
1010
0000
0000
0101
0000
0000
1001
0000
0000
0000
1000
0000
0010
0000
0100
0000
,
0001
0100
0010
0000
0010
0000
1000
0001
0010
0001
0010
0000
0001
0000
1000
0000
,
0100
0000
0000
0000
,
0000
0000
0000
0000
;
#NOTES:
     dance-double:
     :
     Easy:
     6:
     :
00000000
00000000
00000000
00000000
,
00000000
00000000
00000000
00000000
,
00000000
00000000
00000000
00000000
,
00000000
00000000
00000000
00000000
,
00000000
00000000
00000000
00000000
,
00000000
00000000
00000000
00000000
,
10000000
01000000
10000000
00000000
,
00010000
00100000
00001000
00000000
,
00010000
00000100
00010000
00000000
,
00001000
01000000
00001000
00000000
,
00010000
00000010
00001000
00000001
,
00001000
00000010
00001000
00000000
,
00000010
00010000
00001000
00000000
,
00100000
00010000
00100000
00000000
,
00010000
10000000
01000000
00000000
,
10000000
00010000
00100000
00000000
,
00001000
00010000
00000100
00000000
,
00001000
00000010
00000100
00000001
,
00001001
00000000
00000000
00000000
,
00000001
00000100
00000010
00001000
,
00000100
00010000
00001000
00000000
,
00100000
00010000
10000000
01000000
,
00100000
00010000
00000000
00000000
,
01000000
00001000
00010000
00000000
,
00000100
00001000
00000001
00000000
,
00000010
00000100
00001000
00000000
,
00000100
00010000
00002000
00000000
,
00103000
00010000
01000000
00000000
,
00100000
10000000
01000000
00000000
,
11000000
00000000
01010000
00000000
,
00011000
00000000
00001000
00010000
,
00002000
00000000
00003200
00000000
,
00000301
00000001
00001000
00001000
,
00000002
00000000
00000203
00000000
,
00001300
00001000
00010000
00010000
,
00011000
00000000
00001000
00100000
,
00110000
00000000
00010000
10000000
,
10100000
00000000
00110000
00000000
,
00011000
00000000
00000000
00000000
,
00010000
00010000
00000100
00000100
,
00001000
00001000
00000001
00000001
,
00000010
00000010
00000100
00000100
,
00001000
00000010
00010000
00001000
,
01000000
00010000
01000000
00010000
,
10000000
00100000
00010000
00001000
,
00010000
00000010
00001000
00000100
,
00000010
00000000
00000001
00001000
,
00000001
00000010
00001000
00000000
,
00010000
01000000
10000000
00000000
,
00010000
01000000
00001000
00010000
,
00000010
00001000
00000100
00000000
,
00000100
00001000
00000100
00001000
,
00000001
00000010
00001000
00010000
,
00001000
00100000
00010000
01000000
,
00100000
00000000
10000000
00010000
,
10000000
00100000
00010000
00000000
,
00001000
00000100
00000001
00000000
,
00001000
00000100
00010000
00001000
,
02000000
00000000
00000000
03000000
,
00010000
00100000
01000000
10000000
,
00010000
00100000
00001000
00010000
,
00000010
00001000
00000010
00000100
,
00000001
00001000
00000100
00010000
,
00001000
00000100
00000010
00001000
,
00000001
00000010
00000100
00001000
,
00000100
00010000
00001000
00100000
,
00010000
10000000
00100000
01000000
,
01010000
00000000
00000000
00011000
00000000
00000000
00010100
00000000
,
00000110
00000000
00000000
00000000
,
00000000
00000000
00000000
00000000
;
#NOTES:
     dance-double:
     :
     Medium:
     11:
     :
00000000
00000000
00000000
00000000
,
00000000
00000000
00000000
00000000
,
00000000
00000000
00000000
00000000
,
00000000
00000000
00000000
00000000
,
00000000
00000000
00000000
00000000
,
00000000
00000000
00000000
00000000
,
00010000
00001000
00010000
00000000
00000100
00001000
00000100
00000000
,
00001000
00000001
00001000
00000001
00000100
00000000
00000010
00000000
,
00001000
00000000
00000000
00000100
00000000
00000000
00010000
00000000
00001000
00000000
00010000
00000000
00001000
00000000
00000000
00000000
,
00100000
00010000
00100000
00010000
10000000
01000000
10000000
00000000
,
00010000
01000000
01000000
00001000
00010000
00010000
00000100
00000000
,
00001000
00000000
00000000
00000000
00001000
00000000
00000000
00000000
00000001
00000000
00000000
00000010
00000000
00000000
00000001
00000000
,
00001000
00000000
00000000
00000000
00001000
00000000
00000000
00000000
00000100
00000000
00000000
00010000
00000000
00000000
00000100
00000000
,
00010000
00000000
00000000
00000000
00010000
00000000
00000000
00000000
00001000
00000000
00000000
00100000
00000000
00000000
00001000
00000000
,
00010000
00000000
00000000
00000000
00010000
00000000
00000000
00000000
01000000
00000000
00000000
10000000
00000000
00000000
00010000
00000000
,
01000000
00000000
00001000
00000000
01000000
00000000
00000000
00000000
00001000
00000000
00000000
00010000
00000000
00000000
00000100
00000000
,
00001000
00000000
00000001
00000000
00001000
00000000
00000000
00000000
00000100
00000000
00000000
00010000
00000000
00000000
00001000
00000000
,
01000000
00010000
01000000
00000000
00100000
10000000
00100000
00000000
,
10000000
00000000
01000000
00010000
00001000
00010000
00001000
00000000
,
00000010
00000100
00000000
00001000
00000000
00000001
00000000
00000100
,
00000000
00001000
00010000
00001000
00000000
00010000
00000000
00001000
,
00010000
01000000
00000000
00100000
00000000
00010000
00000000
10000000
,
01000000
00100000
00000000
00010000
00000000
00100000
00000000
00001000
,
00010000
00000000
00001000
00000000
00010000
00000000
00000000
00000000
00000010
00000000
00000000
00001000
00000000
00000000
00000100
00000000
,
00000010
00000000
00000001
00000000
00000010
00000000
00000000
00000000
00000001
00000000
00000000
00001000
00000000
00000000
00000100
00000000
,
00010000
00000000
00001000
00000000
00010000
00000000
00000000
00000000
00001000
00000000
00000000
00100000
00000000
00000000
00010000
00000000
,
10000000
00100000
10000000
00020000
00000000
01030000
00002000
00000000
,
00013000
00000000
00000000
00001000
00000000
00000000
00000100
00000000
00000001
00000000
00000000
00000100
00000000
00000000
00000001
00000000
,
00001000
00000000
00000010
00000000
00001000
00000000
00000000
00000000
00000001
00000000
00000000
00000100
00000000
00000000
00001000
00000000
,
00010000
00000000
00000000
00100000
00000000
00000000
01000000
00000000
00010000
00000000
00000000
00100000
00000000
00000000
01000000
00000000
,
10000000
00000000
00010000
01000000
00001000
00010000
00000100
00000000
,
00001000
00001000
00000001
00000001
,
00000010
00000100
00000010
00000100
00001000
00000100
00010000
00000000
,
00002000
00103000
00200000
00310000
,
10000000
00000000
01000000
00100000
01000000
00000000
00110000
00000000
,
00100000
00000000
00000000
00100000
00000000
00000000
00100000
00000000
00000000
00001000
00000000
00000000
00010000
00000000
00000100
00000000
,
00010000
00000000
00001000
00000000
00000000
00000100
00000000
00000000
00000001
00000000
00000000
00000001
00000000
00000000
00000001
00000000
,
00000010
00000000
00000000
00000100
00000000
00000000
00000010
00000000
00000001
00000000
00000000
00000100
00000000
00000000
00001000
00000000
,
00010000
00001000
00010000
00001000
00100000
00010000
00100000
00000000
,
00010000
01000000
00010000
01000000
00001000
00010000
00001000
00000000
,
00010000
00000100
00010000
00000100
00001000
00000001
00001000
00000000
,
00000001
00000100
00000010
00001000
00000100
00010000
00001000
00000000
,
00011000
00000000
00001000
00100000
00010000
10000000
01000000
00000000
,
10000000
00100000
10000000
00000000
00010000
00100000
00010000
00000000
,
00100000
00001000
00010000
00001000
00010000
00000000
00000100
00000000
,
00001000
00000010
00001000
00000000
00000001
00000010
00000001
00000000
,
00000100
00000010
00001000
00000100
00010000
00001000
00010000
00000000
,
00001000
00010000
00100000
10000000
00000000
00010000
01000000
00010000
,
10000000
01000000
00010000
00001000
00000000
00010000
00001000
00010000
,
00000000
00000010
00001000
00000010
00000100
00000001
00000100
00000010
,
00001000
00000000
00000000
00000001
00000000
00000000
00001000
00000000
00000100
00000000
00000010
00000000
00000100
00000000
00000000
00000000
,
00001000
00000100
00001000
00000000
00000100
00010000
00000100
00000000
,
00010000
00001000
01000000
00010000
01000000
00000000
00100000
00000000
,
10000000
00010000
10000000
00000000
01000000
00100000
01000000
00000000
,
10000000
00010000
01000000
00001000
00010000
00001000
00010000
00000000
,
00001000
00000100
00000001
00001000
00000000
00000010
00010000
00001000
,
00010000
00100000
10000000
00010000
00000000
01000000
00001000
00010000
,
00000100
00001000
00000100
00001000
00000001
00000010
00000100
00001000
,
00000001
00000000
00000100
00000000
00001000
00010000
00001000
00100000
,
00010000
10000000
10000000
01000000
00010000
00001000
00010000
00000000
,
00000010
00001000
00001000
00000001
00000100
00001000
00010000
00000000
,
00001000
00100000
00010000
00000000
01000000
00001000
00010000
00000000
,
00000100
00001000
00000010
00010000
00001000
00000000
00011000
00000000
,
00010000
00000100
00000100
00001000
00000001
00000010
00000001
00000000
,
00001000
00000100
00000100
00010000
00001000
00010000
00001000
00000000
,
00010000
00000100
00001000
00000000
00000010
00010000
00001000
00000000
,
00100000
00000000
00000000
00010000
00000000
00000000
10000000
00000000
00000000
00000000
01000000
00000000
00010000
00000000
00001000
00000000
,
00010000
00000010
00000010
00001000
00000001
00000001
00000010
00000100
,
00001000
00000000
00000000
00000000
,
00000000
00000000
00000000
00000000
;
#NOTES:
     dance-double:
     :
     Hard:
     14:
     :
00000000
00000000
00000000
00000000
,
00000000
00000000
00000000
00000000
,
00000000
00000000
00000000
00000000
,
00000000
00000000
00000000
00000000
,
00000000
00000000
00000000
00000000
,
00000000
00000000
00000000
00000000
,
00000001
00000000
00000100
00000000
00000001
00000000
00001000
00000010
00001000
00000000
00000010
00000000
00010000
00000000
00001000
00000000
,
01000000
00000000
00010000
00000000
01000000
00000000
00100000
00000000
10000000
00000000
00010000
10000000
00010000
00000000
01000000
00000000
,
00001000
00000000
00000000
00010000
00001000
00000000
00000010
00000000
00000001
00000010
00000001
00000000
00001000
00000100
00001000
00000000
,
00000100
00000000
00010000
00000000
00001000
00000000
00100000
00000000
00010000
00100000
00010000
00000000
10000000
01000000
10000000
00000000
,
00100000
00000000
00010000
00000000
00001000
00000000
00010000
00000100
00001000
00000000
00000001
00001000
00000010
00000000
00000000
00000000
,
00000100
00000000
00000001
00000000
00001000
00000000
00000001
00000000
00000100
00000000
00001000
00010000
00000000
00001000
00010000
00000000
,
00001000
00000000
00010000
00000000
00100000
00000000
10000000
00000000
01000000
00000000
00100000
00010000
00000000
00100000
00010000
00000000
,
10000000
00000000
01000000
00000000
00010000
00000000
00001000
00000000
00000010
00000000
00000001
00001000
00000000
00000100
00001000
00000000
,
00000010
00000000
00001000
00000000
00000100
00000000
00010000
00000000
00011000
00000000
00000000
01001000
00000000
00000000
01010000
00000000
,
00010000
00000000
10000000
00000000
00100000
00000000
01000000
00000000
00010000
00000000
10000000
01000000
00000000
00010000
00001000
00000000
,
00010000
00000000
00000100
00000000
00001000
00000000
00000010
00000000
00000100
00000000
00000001
00000010
00000000
00001000
00010000
00000000
,
00001000
00000000
01000000
00010000
01000000
00000000
00010000
00000000
10000000
00000000
01000000
00100000
01000000
00100000
00010000
00000000
,
00100000
00000000
00000000
00000000
00001000
00000000
00010000
00000000
00001000
00010000
00001000
00000000
00010000
00000000
00000100
00000000
,
00001000
00000000
00000010
00000000
00001000
00000000
00000001
00000000
00000010
00000000
00000001
00000010
00000001
00000000
00001000
00000000
,
00000100
00000000
00010000
00001000
00010000
00000000
00001000
00000000
00100000
00000000
00010000
00100000
00010000
00000000
10000000
00000000
,
00100000
00000000
01000000
00000000
00100000
00000000
10000000
00000000
00010000
00000000
00100000
00001000
00100000
00000000
00001000
00010000
,
00001000
00000000
00010000
00000000
00000100
00000000
00001000
00000000
00000001
00001000
00000001
00000000
00000010
00000000
00000001
00000000
,
00000100
00000000
00001000
00000000
00010000
00000000
00100000
00000000
01000000
00000000
00100000
01000000
00100000
00000000
10000000
00000000
,
01000000
00000000
00010000
00000000
00001000
00000000
00000010
00000000
00000001
00000000
00000010
00000001
00000010
00000000
00000100
00000000
,
00001000
00000000
00000010
00000000
00000100
00000000
00001000
00000000
00010000
00000000
00100000
01000000
00100000
00000000
01000000
00000000
,
00010000
10000000
01000000
00200000
00000000
00320000
02030000
03002000
,
00013000
00000000
00000100
00010000
00000100
00000000
00010000
00000000
00001000
00000000
01000000
00001000
01000000
00000000
00001000
00000000
,
00010000
00000000
00000100
00000000
00001000
00000000
00000100
00000000
00000010
00000000
00000001
00001000
00000001
00000000
00001000
00000000
,
00000001
00000000
00000100
00001000
00010000
00000000
00001000
00000000
00010000
00000000
00100000
10000000
00010000
00000000
10000000
00000000
,
00100000
00000000
01000000
00000000
00010000
00000000
00100000
00000000
00001000
00010000
00001000
00010000
00001000
00000000
00010000
00000000
,
00000010
00000010
00001000
00001000
,
00000001
00000010
00000001
00000010
00001000
00000010
00001000
00010000
,
02000000
00000000
13000000
00010000
00200000
00000000
01300000
00010000
,
00001000
00000000
00000000
00000000
00010000
00000000
00010000
00000000
00010000
00000000
00000010
00001000
00000010
00000000
00000000
00000000
,
00001001
00000000
00000000
00001000
00000000
00000000
00001010
00000000
00000000
00000010
00000000
00000000
00010000
00000000
00001000
00010000
,
00001000
00000000
01000000
00000000
00000000
00010000
00100000
00000000
01000000
00000000
00000000
10000000
01000000
00000000
00100000
00000000
,
00010000
00000000
00000000
01000000
00001000
00000000
00010000
00000000
00000100
00000000
00000000
00001000
00000001
00000000
00000010
00000000
,
00000100
00000000
00001000
00000000
00000100
00000000
00001000
00000000
00000100
00000000
00010000
00000000
00001000
00010000
00001000
00000000
,
00100000
00000000
00100000
00000000
00010000
00000000
00010000
00000000
10000000
00000000
10000000
00010000
10000000
00000000
10010000
00000000
,
00010000
00000000
00010000
00000000
01000000
00000000
01000000
00000000
00001000
00000000
00001000
00010000
00001000
00000000
00011000
00000000
,
00010000
00000000
00010000
00000000
00000100
00000000
00000100
00000000
00001000
00000000
00001000
00000001
00001000
00000000
00001001
00000000
,
00000101
00000000
00000000
00000000
00000100
00000000
00000100
00000000
00000010
00001000
00000010
00010000
00001000
00000000
00000000
00000000
,
00010000
00000010
00001000
00000100
00000010
00001000
00010000
01000000
,
10000000
00000000
00100000
00000000
01000000
00000000
00010000
01000000
00001000
00000000
00010000
00000000
01000000
00000000
00100000
00001000
,
00010000
00000000
00001000
00000000
00000010
00000000
00000100
00001000
00000001
00000000
00000100
00000000
00000010
00000000
00001000
00000000
,
00000001
00000100
00000000
00001000
00010000
00001000
00010000
00000000
00100000
01000000
00100000
01000000
00100000
00000000
10000000
00000000
,
00010000
00000000
10000000
01000000
00010000
00000000
00001000
00000000
00010000
00000000
00001000
00000010
00000001
00000000
00001000
00000000
,
00000001
00000000
00000100
00001000
00010000
00000000
00001000
00000000
00010000
00000000
00100000
10000000
00010000
00000000
10000000
00000000
,
00100000
00000000
01000000
00000000
00010000
00100000
00010000
00100000
00001000
00000000
00010000
00000000
00000010
00001000
00000010
00001000
,
00000001
00000000
00000100
00000000
00000001
00000000
00001000
00000100
00001000
00000000
00000100
00000000
00010000
00000000
00000000
00000000
,
00001000
01000000
00010000
00100000
01000000
00010000
00001000
00000010
,
00000001
00000000
00000100
00000000
00000010
00000000
00001000
00000010
00010000
00000000
00001000
00000000
00000010
00000000
00000100
00010000
,
00001000
00000000
00010000
00000000
01000000
00000000
00100000
00010000
10000000
00000000
00100000
00000000
01000000
00000000
00010000
00000000
,
10000000
00100000
00000000
00010000
00000000
00001000
00010000
00000000
00000100
00001000
00000001
00000000
00000010
00000000
00000001
00000000
,
00001000
00000000
00000001
00000010
00001000
00000000
00010000
00000000
00001000
00000000
00010000
01000000
10000000
00000000
00010000
00000000
,
10000000
00000000
00100000
00010000
00001000
00000000
00010000
00000000
00001000
00000000
00000100
00000001
00001000
00000000
00000001
00000000
,
00000100
00000000
00000010
00000000
00001000
00000100
00001000
00000100
00010000
00000000
00001000
00000000
01000000
00010000
01000000
00010000
,
10000000
00000000
00100000
00000000
01000000
00000000
00010000
01000000
00001000
00010000
00001000
00000000
00010000
00000000
00000010
00000000
,
00001000
00000000
00000100
00001000
00000010
00000000
00010000
00000000
00001000
00000000
00100000
00000000
00010000
00000000
01000000
00000000
,
00010000
00000000
00100000
00010000
01000000
00000000
00001000
00000000
00010000
00000000
00000010
00000000
00001000
00000000
00000100
00000000
,
00001000
00000000
00000001
00000010
00001000
00000000
00010000
00000000
00001000
00000000
00010000
00000000
01000000
00100000
00000000
00000000
,
11000000
00000000
00000000
00110000
00000000
00000000
10010000
00000000
00010000
00000000
00100000
00000000
01000000
00000000
10000000
00000000
,
00010000
00000000
00100000
00010000
01000000
00000000
00001000
00000000
00010000
00000000
00000100
00000000
00001000
00000000
00000010
00000000
,
00001000
00000000
00000100
00001000
00000010
00000000
00010000
00000000
00001000
00000000
01000000
00000000
00010000
00000000
00100000
00000000
,
00010000
00000000
10000000
01000000
00010000
00000000
00001000
00000000
00010000
00000000
00001000
00000000
00000010
00000100
00000000
00000000
,
00000011
00000000
00000000
00001100
00000000
00000000
00001001
00000000
00000000
00000000
00000001
00000000
00000100
00000000
00001000
00000000
,
00010000
00001000
00100000
00000000
00100000
00000000
00010000
10000000
00100000
00000000
00100000
00000000
01000000
00000000
00100000
00000000
,
00010000
00000000
00000000
00000000
,
00000000
00000000
00000000
00000000
;
