
//----- song ID: bimo -----//
#TITLE:BILLION MONEY BAZOOKA;
#ARTIST:BlackY;
#BANNER:BILLION MONEY BAZOOKA.png;
#BACKGROUND:BILLION MONEY BAZOOKA-bg.png;
#CDTITLE:./CDTitles/pnm Usaneko.png;
#MUSIC:BILLION MONEY BAZOOKA.ogg;
#SAMPLESTART:90.002;
#SAMPLELENGTH:15;
#BPMS:0=176;
#NOTES:
     dance-single:
     :
     Beginner:
     4:
     :
0000
0000
0000
0000
,
0000
0000
0000
0000
,
0000
0000
0000
0000
,
0000
0000
0000
0000
,
0000
0000
0000
0000
,
0000
0000
0000
0000
,
0001
0000
0000
0000
,
1000
0000
0000
0000
,
0100
0000
0100
0000
,
0010
0000
0000
0000
,
0001
0000
0000
0000
,
1000
0000
0000
0000
,
0100
0000
0100
0000
,
0010
0000
0010
0000
,
0001
0000
0000
0000
,
1000
0000
0000
0000
,
0010
0000
0010
0000
,
0100
0000
0100
0000
,
0010
0000
1000
0000
,
0001
0000
1000
0000
,
0100
0000
0100
0000
,
0010
0000
0010
0000
,
0001
0000
1000
0000
,
0001
0000
1000
0000
,
0100
0000
0010
0000
,
0100
0000
0010
0000
,
0001
0000
0000
0000
,
0001
0000
0000
0000
,
1000
0000
0000
0000
,
1000
0000
0000
0000
,
0010
0000
0010
0000
,
0010
0000
0010
0000
,
1000
0000
0001
0000
,
1001
0000
0000
0000
,
0000
1000
0000
0000
,
0001
0000
0000
0000
,
0000
1000
0000
0000
,
0002
0000
0003
0000
,
0000
0010
0000
0000
,
0100
0000
0000
0000
,
0000
0010
0000
0000
,
0002
0003
2000
3000
,
0000
0100
0000
0000
,
0010
0000
0000
0000
,
0000
0100
0000
0000
,
0020
0000
0030
0000
,
0000
0100
0000
0000
,
0010
0000
0000
0000
,
0000
0001
0000
0000
,
1000
0000
0000
0000
,
1001
0000
0000
0000
,
0000
0000
0000
0000
,
0000
0000
0000
0000
,
0000
0000
0000
0000
,
0000
0000
0000
0000
,
0000
0000
0000
0000
,
0000
0000
0000
0000
,
0000
0000
0000
0000
,
1000
0000
0000
0000
,
1000
0000
0000
0000
,
0001
0000
0000
0000
,
0001
0000
0000
0000
,
0010
0000
0010
0000
,
0010
0000
0010
0000
,
0200
0000
0300
0000
,
1000
0000
0000
0000
,
0001
0000
0001
0000
,
0001
0000
0000
0000
,
0100
0000
0100
0000
,
0010
0010
0010
0000
,
1000
0000
1000
0000
,
0001
0000
0001
0000
,
1000
0000
0001
0000
,
0100
0100
0100
0000
,
0010
0000
0010
0000
,
0010
0000
0000
0000
,
1000
0000
1000
0000
,
0001
0001
0001
0000
,
0010
0000
0010
0000
,
0001
0000
0001
0000
,
1000
0000
1000
0000
,
0100
0100
0100
0000
,
0020
0000
0030
0000
,
0020
0000
0030
0000
,
0001
0000
1000
0000
,
0001
0000
1000
0000
,
1001
0000
0000
0000
,
0000
0000
0000
0000
;
#NOTES:
     dance-single:
     :
     Easy:
     7:
     :
0000
0000
0000
0000
,
0000
0000
0000
0000
,
0000
0000
0000
0000
,
0000
0000
0000
0000
,
0000
0000
0000
0000
,
0000
0000
0000
0000
,
0001
0001
0100
0100
,
0010
0010
1000
1000
,
0001
0010
0100
1000
,
0020
0000
0130
1001
,
1000
0100
0010
0001
,
0000
0010
0000
0100
0000
0000
1000
0000
,
0001
0000
0001
0000
,
1000
0000
1000
0000
,
0001
0010
0100
1000
,
0000
0100
0000
0010
0000
0000
0001
0000
,
1000
0000
1000
0000
,
0001
0000
0001
0000
,
0011
0000
1000
0001
,
0100
0010
1000
0001
,
0010
0000
0010
0000
,
0100
0000
0100
0000
,
1100
0000
0001
1000
,
0010
0100
0001
1000
,
0100
0000
0100
0000
,
2002
0000
3003
0000
,
0011
0010
0001
0010
,
0100
1000
0100
1000
,
1100
0100
1000
0100
,
0010
0000
0100
0100
,
0110
0000
1100
0000
,
0011
0000
1001
0000
,
0001
0010
0100
1000
,
2002
0000
0000
3003
,
0000
0001
0001
0000
,
1000
1000
1000
0000
,
0000
0010
0010
0100
,
0002
0000
0000
2003
0000
0000
3001
0000
,
0000
1000
1000
0000
,
0001
0001
0001
0000
,
0000
0100
0100
0010
,
1010
0000
0001
0001
,
0000
1000
0001
0010
,
0100
0100
0010
0010
,
0100
1000
0001
0010
,
0002
0000
0000
2003
0000
0000
3001
0000
,
0000
1000
0001
0100
,
0010
0010
0100
0100
,
0001
0001
1000
1000
,
1001
0000
0002
0000
,
2003
0000
0000
0000
,
3200
0000
0000
0000
,
0320
0000
0000
0000
,
0032
0000
0000
0000
,
0203
0000
0300
0000
,
0020
0000
0030
0000
,
2002
0000
3003
0000
,
1000
0001
1000
0011
,
2000
0000
0000
0000
0000
0000
0000
3001
,
0002
0000
0000
0000
0000
1000
0000
1003
,
1000
0000
0010
0000
,
0100
0100
0000
0000
0002
0000
0000
0000
,
1003
1000
1000
1000
,
0010
0010
0010
0010
,
0200
0000
0320
0000
,
2030
0000
0000
3001
,
0001
0010
0100
1000
,
0010
0010
0010
0100
,
0001
0100
0010
1000
,
1010
1010
0101
0101
,
1000
0010
1000
0000
,
0001
0100
0001
0000
,
0100
0010
0100
0010
,
1001
0110
0110
1001
,
1000
0100
0010
0001
,
0010
0010
0010
0100
,
1000
0010
0100
0001
,
1000
1100
0001
0011
,
2000
3000
0001
0001
,
0200
0300
0010
0010
,
0100
0001
1000
0010
,
1000
0001
1000
0100
,
0011
0000
0001
0001
,
1100
0000
1000
1000
,
0010
0010
0100
0100
,
0001
0100
0001
1000
,
1001
0000
0000
0000
,
0000
0000
0000
0000
;
#NOTES:
     dance-single:
     :
     Medium:
     12:
     :
0000
0000
0000
0000
,
0000
0000
0000
0000
,
0000
0000
0000
0000
,
0000
0000
0000
0000
,
0000
0000
0000
0000
,
0000
0000
0000
0000
,
1000
0100
1000
0000
0001
0010
0001
0000
,
1000
0010
1000
0000
0001
0100
0001
0000
,
1000
0001
1000
0001
0100
0010
0100
0000
,
0002
0000
1003
0000
,
1000
0100
0010
0100
0000
0010
0100
0010
,
0000
0001
0000
1000
0010
0100
0010
0000
,
1000
1000
1010
0000
,
0001
0001
0101
0000
,
0001
0010
0100
0010
0000
0100
0010
0100
,
0000
1000
0000
1000
0100
0010
0001
0000
,
0001
0001
0101
0000
,
1000
1000
1010
0000
,
1000
1000
1000
0000
0001
0000
0001
0000
,
0010
0100
0010
0001
0100
0010
0100
0000
,
0001
0001
0110
0000
,
0010
0010
1001
0000
,
0001
0001
0001
0000
0100
0010
0100
1000
,
0100
0010
0100
0001
0010
0100
0010
0000
,
0001
1000
1010
0000
,
1000
0010
0110
0000
,
0010
1000
0000
0010
0100
0010
0000
0100
,
0001
0000
0100
0000
0000
0000
0001
0000
1000
0000
0000
0001
0000
0000
1000
0000
,
0100
0000
0000
1000
0000
0000
0100
0000
0010
0000
0001
0000
0010
0000
0001
0000
,
1000
0000
0000
0001
0000
0000
1000
0000
0001
0000
0000
0010
0000
0000
0100
0000
,
0010
0000
0000
0100
0010
0000
0000
0000
0001
0000
0000
0010
0001
0000
0000
0000
,
1000
0000
0000
0010
0000
0000
0010
0000
0100
0000
0000
0010
0000
0000
0010
0000
,
1000
0100
0010
0001
0020
0000
0230
0000
,
0310
0000
0000
0000
,
0000
0000
0000
0000
0010
0000
0000
0010
0000
0000
0110
0000
0000
0000
0000
0000
,
0100
0000
0000
0000
0100
0000
0000
0100
0000
0000
0110
0000
0000
0000
0000
0000
,
0000
0000
0000
0000
0001
0000
0000
1000
0000
0000
1001
0000
0000
0000
0000
0000
,
0001
0000
0000
0001
0000
0000
1000
0000
0000
1000
0000
0000
0001
0000
0010
0000
,
0100
0000
0000
0000
1000
0000
0000
1000
0000
0000
1100
0000
0000
0000
0000
0000
,
0001
0000
0000
0000
0001
0000
0000
0001
0000
0000
0011
0000
0000
0000
0000
0000
,
0000
0000
0000
0000
0010
0000
0000
0100
0000
0000
0110
0000
0000
0000
0000
0000
,
0010
0000
0000
0001
0000
0000
0100
0000
0010
0000
0000
1000
0000
0000
0100
0000
,
0000
0000
0000
0000
0010
0000
0000
0010
0000
0000
0010
0000
0001
0000
1000
0000
,
0100
0000
0000
0000
0100
0000
0000
0100
0000
0000
0100
0000
0010
0000
0100
0000
,
0010
0000
0000
0000
0001
0000
0000
1000
0000
0000
0001
0000
0010
0000
0100
0000
,
0010
0000
0000
0011
0000
0000
1000
0000
0000
1100
0000
0000
0001
0000
1000
0000
,
0001
0000
0000
0000
1000
0000
0000
1000
0000
0000
1000
0000
0100
0000
0010
0000
,
0100
0000
0000
0000
0010
0000
0000
0010
0000
0000
0010
0000
0001
0000
0001
0000
,
2000
3002
0203
0310
,
2001
0000
3020
0000
,
0130
0000
0000
0000
0000
0001
0100
0001
,
0000
0000
0000
0010
0000
0000
0100
0000
,
0110
0000
1100
0000
1000
0001
0000
0010
,
0000
0100
1000
0200
0000
0000
0310
0000
,
0000
0001
0100
1000
0100
0001
0000
0010
,
0000
0100
0000
0010
0000
0001
0000
1000
,
0002
0000
0000
0000
1003
0100
0010
0100
,
0000
0010
0000
0001
0000
1000
1000
0000
,
1001
0000
0000
0000
0000
1000
0100
0001
,
0000
0000
0000
0100
0000
0000
1000
0000
,
0100
0000
0010
0000
0100
0010
0000
0001
,
0000
0010
0001
0200
0000
0000
0310
0000
,
0000
0001
0010
1000
0010
0001
0000
0010
,
0000
1000
0000
0010
0000
0100
0000
0001
,
2000
0000
3002
0000
,
0013
0000
0000
0100
0000
0000
0010
0000
0000
0110
0000
0000
0000
0000
0000
0000
,
1000
0000
0000
0010
0000
0000
1010
0000
0000
0000
1000
0000
0100
0000
1000
0000
,
0001
0001
0001
0010
0000
0100
1000
0001
,
0010
0000
0000
0001
0000
0000
0100
0000
0010
0000
1000
0000
0001
0000
1000
0000
,
0100
0011
0101
0011
,
0001
0000
0000
0100
0000
0000
0001
0200
0000
0000
0310
0000
1000
0000
0100
0000
,
1000
0000
0000
0010
0000
0000
1000
0020
0000
0000
0130
0000
0001
0000
1000
0000
,
0001
0000
0000
0001
0000
0000
1000
0000
0001
0000
0010
0000
0001
0000
1000
0000
,
0001
1010
1100
1010
,
0001
0000
0000
0100
0000
0000
0101
0000
0000
0000
0001
0000
0010
0000
0001
0000
,
1000
1000
1000
0100
0000
0010
0001
1000
,
0100
0000
0000
1000
0000
0000
0010
0000
0100
0000
0001
0000
1000
0000
0001
0000
,
0100
0110
1001
0011
,
1000
0000
1000
0000
1000
0000
0000
0000
0010
0000
0000
0100
0000
0000
0010
0000
,
0000
0000
0100
0000
0100
0000
0000
0000
0001
0000
0000
0010
0000
0000
0001
0000
,
1000
0100
0010
0001
1000
0100
0010
0001
,
0010
1100
0110
0011
,
0001
0100
0000
0010
1000
0010
0000
0100
,
0001
0010
0100
1000
0001
0010
0100
0000
,
1000
0010
1000
0010
0100
0001
0100
0000
,
0001
0000
0000
0100
0000
0000
1000
0000
0001
0000
0000
0010
0000
0000
1000
0000
,
1010
0000
0000
0000
,
0000
0000
0000
0000
;
#NOTES:
     dance-single:
     :
     Hard:
     16:
     :
0000
0000
0000
0000
,
0000
0000
0000
0000
,
0000
0000
0000
0000
,
0000
0000
0000
0000
,
0000
0000
0000
0000
,
0000
0000
0000
0000
,
1000
0100
0010
0001
1000
0010
0100
0001
,
0010
1000
0010
0001
0100
1000
0100
0001
,
1000
0100
1000
0100
0010
0001
0010
0001
0100
0010
0100
0010
1000
0001
1000
0001
,
2000
0000
0000
0000
0000
0000
0000
0000
3010
0100
0010
0000
0110
0000
0000
0000
,
1001
0000
1000
0000
0100
0000
0010
0000
0100
1000
0001
0000
1000
0000
0020
0000
,
0000
0001
0000
0100
0000
1030
0100
0010
,
0100
0000
1000
0000
0001
0000
0010
0100
1000
0000
0100
0000
0001
0000
0100
0000
,
0010
0100
0001
0000
0100
1000
0000
0010
0100
0000
0001
0100
0001
0100
0001
0000
,
1001
0000
0001
0000
0010
0000
0100
0000
0010
0001
1000
0000
0001
0000
0200
0000
,
0000
1000
0000
0010
0000
0301
1000
0010
,
0100
0000
1000
0000
0100
0000
0001
1000
0010
0000
0001
0000
0010
0000
1000
0000
,
0001
0010
0001
0000
0010
0001
0000
1000
0100
1000
0100
1000
0001
0010
0001
0000
,
0011
0001
1100
0000
1000
0100
0010
0100
,
0001
0100
1000
0001
0010
0001
1000
0100
,
0010
0000
0001
0000
0010
0000
1000
0010
0100
0000
0001
0000
0100
0000
1000
0000
,
0010
1000
0010
0000
0100
0010
0000
0100
0010
1000
0001
0010
0100
1000
0001
0000
,
0101
0001
1010
0000
0101
0001
0010
0100
,
0010
1000
0010
0001
0100
1000
0100
0010
,
0100
0000
0100
0000
0010
0000
0010
0000
1000
0010
0100
0001
1000
0100
0010
0002
,
2000
0000
0000
3003
,
0001
0010
0000
0001
1000
1000
0001
0001
,
0100
0000
0000
0010
0100
0000
0010
0000
1000
0000
0000
0001
1000
0000
1100
0000
,
1001
0000
0000
0001
0000
0000
0100
0000
0010
0000
0010
0000
0100
0000
0100
0000
,
1000
0000
0000
0100
0001
0000
0100
0000
0101
0000
0000
0001
0100
0000
0010
0000
,
1000
0000
0000
0010
1000
0000
0000
1000
0100
0000
0000
1000
0100
0000
0000
1000
,
0010
0000
0000
0010
0001
0000
0000
0010
0001
0000
0000
0010
0100
0000
0000
0001
,
0100
0000
0000
0010
0000
0000
1000
0000
0000
0001
0000
0000
0010
0000
0001
0000
0100
0000
0010
0000
1000
0000
0100
0000
,
0010
0000
0000
0000
0001
0000
1000
0000
0001
0010
0100
1000
0001
0010
0100
1000
,
0000
0000
0000
0001
1000
0010
0100
0000
0001
0010
0100
0000
0000
0000
0000
0000
,
1000
0001
0010
0000
0001
1000
0010
0000
1000
0001
0010
0000
0100
0000
0100
0000
,
0000
0000
0000
1000
0010
0100
1000
0000
0001
0010
0100
0000
0001
0000
1000
0000
,
0100
0010
0000
0001
1000
0000
0010
0100
0000
0001
1000
0000
0100
0000
0010
0000
,
0000
0000
0000
0001
0100
0001
0100
0000
0010
0100
0001
0000
0000
0000
0000
0000
,
0010
0100
1000
0000
0010
0100
1000
0000
0001
0010
1000
0000
0000
0000
0000
0000
,
0000
0000
0000
0001
0010
0100
1000
0000
0001
0010
0100
0000
0010
0000
0001
0000
,
1000
0000
0000
0001
0000
0000
1000
0000
0001
0100
0010
0100
0001
0000
0000
0000
,
0000
0000
0000
0001
1000
0000
0001
1000
0000
0001
0100
0000
0010
0000
1000
0000
,
0100
1000
0001
0000
0100
0001
1000
0000
0100
1000
0001
0000
0010
0000
0010
0000
,
0100
0000
0000
1000
0010
0100
0001
0000
0100
0010
1000
0000
0001
0000
1000
0000
,
0010
0100
0000
0010
0100
0000
0001
1000
0000
0001
1000
0000
0010
0000
0100
0000
,
0110
0000
0000
1000
0100
0010
0100
0000
0010
0100
0001
0000
0100
0000
1000
0000
,
0100
0000
0000
0010
0001
0000
0010
0001
0000
1000
0100
0000
0010
0000
0010
0000
,
0001
0010
0100
1000
0100
0010
0100
0010
0001
0010
0100
0010
0100
0010
0100
0020
,
0200
0000
0000
0000
0000
0000
0000
0300
0031
0100
0001
0100
0001
0100
0001
0100
,
0002
0000
0000
0000
0000
1003
0100
0020
,
0000
0000
0000
1000
0000
0000
0100
0000
,
0031
0000
0100
0000
0010
0100
0000
0010
,
0000
1000
0100
0001
0000
0001
0100
0000
,
0000
0001
0100
1000
0010
0001
0000
0010
,
0000
1000
0000
0100
0000
0010
0000
0001
,
0100
0001
0100
0001
0100
0001
0100
0001
1000
0000
0010
0000
1000
0000
0100
0000
,
0010
0001
1000
0001
0100
0000
0001
1000
0010
0000
0100
0010
0100
0000
0000
0000
,
1001
0000
1000
0100
0000
1000
0100
0000
0010
0001
0000
0010
0001
0000
0101
0000
,
0001
0100
0001
0100
0010
0000
1000
0000
0001
0000
1000
0000
0100
0000
1100
0000
,
1001
0000
1000
0010
0000
1000
0010
0000
1000
0000
0010
0000
0100
0000
1000
0000
,
0110
0000
1001
0000
0000
0000
0000
0000
1010
0000
0000
1001
0000
0000
1100
0000
,
0100
0010
0100
0010
0001
0010
0001
0010
,
0001
1000
0001
1000
0100
1000
0100
1000
,
0010
0100
0010
0100
0010
1000
0010
1000
0001
0100
0001
0100
0001
1000
0001
1000
,
0010
0000
0000
1000
0000
0000
0001
0000
0000
0100
0000
0000
1001
0000
0000
0000
,
2000
0000
0000
3020
0000
0000
0032
0000
0000
0000
0013
0000
0010
0000
0010
0100
,
0010
1000
0010
1000
0100
0000
0020
0000
0000
0000
0031
0000
0001
0000
0001
1000
,
0001
0000
0000
1000
0000
0000
0001
0000
0010
0000
0100
0000
0010
0000
0001
0000
,
0011
0000
0001
1000
0001
0000
0100
0000
0101
0000
0001
1000
0001
0000
0010
0000
,
0100
0000
0000
0010
0000
0000
0100
2000
0000
0000
3010
0000
0100
0000
1000
0000
,
0100
0000
0000
0001
0000
0000
0010
0200
0000
0000
0310
0001
1000
0100
1000
0100
,
0010
0000
0000
1000
0000
0000
0010
0001
0100
0000
0001
0000
0010
0000
0100
0000
,
0110
0001
0110
0010
1001
0100
1001
0000
,
0002
0000
0000
0203
0000
0000
2300
0000
0000
0000
3100
0000
0100
0000
0100
0010
,
0100
0001
0100
0001
0010
0000
0200
0000
0000
0000
1300
0000
1000
0000
1000
0001
,
1000
0000
0000
0001
0000
0000
1000
0000
0100
0000
0010
0000
0100
0000
1000
0000
,
1100
0000
1000
0001
1000
0000
0010
0000
1010
0000
1000
0001
1000
0000
0100
0000
,
0110
0000
0110
0000
0110
0000
0000
0000
0001
0000
0000
1000
0000
0000
0001
0000
,
0000
0000
1001
0000
1001
0000
0000
0000
1000
0000
0000
0010
0000
0000
0100
0001
,
0100
0000
0010
0000
0100
0000
0001
0000
0100
0010
0100
0010
1000
0001
1000
0001
,
1000
0100
0010
0001
0010
0001
1100
0000
,
1000
0100
0010
0001
0010
0001
0000
0001
,
0100
0010
1000
0010
1000
0100
0000
0010
,
0001
0000
0001
0000
1000
0000
1000
0000
1000
0100
0010
0001
0010
0100
0010
0100
,
1000
0000
0000
0010
0000
0000
0100
0000
0010
0000
0000
0100
0000
0000
0001
0000
,
1001
0000
0000
0000
,
0000
0000
0000
0000
;
#NOTES:
     dance-double:
     :
     Easy:
     7:
     :
00000000
00000000
00000000
00000000
,
00000000
00000000
00000000
00000000
,
00000000
00000000
00000000
00000000
,
00000000
00000000
00000000
00000000
,
00000000
00000000
00000000
00000000
,
00000000
00000000
00000000
00000000
,
00010000
00010000
00001000
00001000
,
00100000
00100000
00010000
00010000
,
01000000
00010000
10000000
00100000
,
02000000
00000000
03100000
01100000
,
10000000
01000000
00100000
00001000
,
00000000
00010000
00000000
00000100
00000000
00000000
00001000
00000000
,
00000001
00000000
00000001
00000000
,
00000100
00000000
00000100
00000000
,
00000001
00000010
00000100
00010000
,
00000000
00001000
00000000
00100000
00000000
00000000
00010000
00000000
,
10000000
00000000
10000000
00000000
,
00010000
00000000
00010000
00000000
,
11000000
00000000
10000000
01000000
,
00010000
00001000
00010000
01000000
,
00100000
00000000
00100000
00000000
,
00001000
00000000
00001000
00000000
,
00011000
00000000
00010000
00000100
,
00000010
00000100
00010000
00001000
,
00010000
00000000
00001000
00000000
,
00022000
00000000
00033000
00000000
,
00001000
00010000
00100000
10000000
,
01000000
00010000
01000000
00000000
,
00010000
00001000
00000010
00000001
,
00000100
00001000
00000100
00000000
,
00000110
00000000
00010010
00000000
,
00011000
00000000
00101000
00000000
,
00100000
00010000
00100000
00010000
,
20020000
00000000
00000000
30030000
,
00000000
10000000
10000000
00000000
,
01000000
01000000
01000000
00000000
,
00000000
00010000
00010000
00001000
,
00020000
00000000
00000000
00032000
00000000
00000000
00013000
00000000
,
00000000
00000100
00000100
00000000
,
00000010
00000010
00000010
00000000
,
00000000
00000001
00000001
00000100
,
00000101
00000000
00000100
00000100
,
00000000
00000010
00000010
00000100
,
00001000
00010000
00001000
00010000
,
00000100
00001000
00000010
00010000
,
00002000
00000000
00000000
00203000
00000000
00000000
00310000
00000000
,
00000000
00100000
00100000
01000000
,
00010000
00001000
00010000
00001000
,
00100000
00010000
01000000
00001000
,
00011000
00000000
00002000
00000000
,
00013000
00000000
00000000
00000000
,
00000100
00000000
00000010
00000000
,
00000001
00000000
00000010
00000000
,
00000100
00000000
00000000
00000000
,
00002000
00000000
00003000
00000000
,
00000020
00000000
00000030
00000000
,
00000220
00000000
00000330
00000000
,
00000001
00000100
00000010
00001010
,
00020010
00000000
00000000
00000000
00000000
00000000
00000000
00031000
,
00002000
00000000
00000000
00000000
00000000
00010000
00000000
00013000
,
00001000
00000000
00100000
00000000
,
01000000
01000000
00000000
00000000
20000000
00000000
00000000
00000000
,
30010000
00010000
00010000
00010000
,
00100000
00100000
00100000
00100000
,
00002000
00000000
00023000
00000000
,
00030200
00000000
00000000
00000310
,
00000001
00000100
00000001
00000010
,
00000001
00000001
00000001
00001000
,
00000100
00010000
00000010
00001000
,
00001010
00001010
00010010
00011000
,
00001000
00100000
00001000
00000000
,
00010000
00000100
00010000
00000000
,
00001000
00010000
00100000
01000000
,
01100000
01100000
01100000
10010000
,
10000000
01000000
10000000
00100000
,
10000000
10000000
10000000
00010000
,
00100000
00010000
01000000
00001000
,
00010000
00011000
00001000
00101000
,
00200000
00300000
00010000
00010000
,
02000000
03000000
00100000
00100000
,
10000000
01000000
00100000
00001000
,
00010000
00100000
01000000
00001000
,
00011000
00000000
00010000
00010000
,
00010100
00000000
00000100
00000100
,
00000010
00000010
00000001
00000001
,
00000001
00000100
00001000
00010000
,
00011000
00000000
00000000
00000000
,
00000000
00000000
00000000
00000000
;
#NOTES:
     dance-double:
     :
     Medium:
     12:
     :
00000000
00000000
00000000
00000000
,
00000000
00000000
00000000
00000000
,
00000000
00000000
00000000
00000000
,
00000000
00000000
00000000
00000000
,
00000000
00000000
00000000
00000000
,
00000000
00000000
00000000
00000000
,
10000000
01000000
00010000
00000000
00010000
01000000
00100000
00000000
,
00001000
00010000
00100000
00000000
00010000
00001000
00000100
00000000
,
00000010
00001000
00000010
00001000
00000100
00000010
00000100
00000000
,
00002000
00000000
00003001
00000000
,
00001000
00000010
00000100
00000010
00000000
00000001
00000010
00001000
,
00000000
00000100
00000000
00010000
00001000
00010000
00100000
00000000
,
10000000
01000000
00100000
00000000
,
00010000
01000000
00100000
00000000
,
10000000
01000000
00100000
01000000
00000000
10000000
01000000
00010000
,
00000000
00001000
00000000
00010000
00001000
00010000
00000100
00000000
,
00000010
00000001
00000100
00000000
,
00000010
00001000
00000100
00000000
,
00001000
00001000
00001000
00000000
00000010
00000000
00000010
00000000
,
00000001
00000010
00001000
00000010
00000001
00000010
00000100
00000000
,
00000001
00000100
00001010
00000000
,
00000010
00010000
00011000
00000000
,
00010000
00010000
00010000
00000000
00001000
00010000
00100000
00010000
,
00001000
00000100
00001000
00010000
00100000
00010000
00001000
00000000
,
01000000
00100000
01100000
00000000
,
10000000
01000000
00110000
00000000
,
00100000
00010000
00000000
10000000
01000000
00100000
00000000
01000000
,
00100000
00000000
00010000
00000000
00000000
00000000
00100000
00000000
00001000
00000000
00000000
00010000
00000000
00000000
00001000
00000000
,
00010000
00000000
00000000
00001000
00000000
00000000
00000010
00000000
00000001
00000000
00000100
00000000
00000001
00000000
00000010
00000000
,
00000001
00000000
00000000
00001000
00000000
00000000
00000001
00000000
00001000
00000000
00000000
00000010
00000000
00000000
00000100
00000000
,
00001000
00000000
00000000
00001000
00010000
00000000
00000000
00000000
00100000
00000000
00000000
00100000
10000000
00000000
00000000
00000000
,
00010000
00000000
00000000
00010000
00000000
00000000
00010000
00000000
10000000
00000000
00000000
10000000
00000000
00000000
10000000
00000000
,
01000000
00010000
01000000
10000000
00020000
00000000
20030000
00000000
,
30100000
00000000
00000000
00000000
,
00000000
00000000
00000000
00000000
00100000
00000000
00000000
00100000
00000000
00000000
00100000
00000000
00000000
00000000
00000000
00000000
,
01000000
00000000
00000000
00000000
01000000
00000000
00000000
01000000
00000000
00000000
01000000
00000000
00000000
00000000
00000000
00000000
,
00000000
00000000
00000000
00000000
00010000
00000000
00000000
00010000
00000000
00000000
00010000
00000000
00000000
00000000
00000000
00000000
,
00100000
00000000
00000000
00001000
00000000
00000000
00010000
00000000
00000000
00000010
00000000
00000000
00001000
00000000
00000001
00000000
,
00001000
00000000
00000000
00000000
00000001
00000000
00000000
00000001
00000000
00000000
00000001
00000000
00000000
00000000
00000000
00000000
,
00001000
00000000
00000000
00000000
00001000
00000000
00000000
00001000
00000000
00000000
00001000
00000000
00000000
00000000
00000000
00000000
,
00000000
00000000
00000000
00000000
00000010
00000000
00000000
00000100
00000000
00000000
00000010
00000000
00000000
00000000
00000000
00000000
,
00000100
00000000
00000000
00001000
00000000
00000000
00010000
00000000
00100000
00000000
00000000
00010000
00000000
00000000
00001000
00000000
,
00000000
00000000
00000000
00000000
00100000
00000000
00000000
00100000
00000000
00000000
00100000
00000000
00010000
00000000
10000000
00000000
,
01000000
00000000
00000000
00000000
00010000
00000000
00000000
00010000
00000000
00000000
00010000
00000000
00001000
00000000
00010000
00000000
,
00001000
00000000
00000000
00000000
00000010
00000000
00000000
00000100
00000000
00000000
00000010
00000000
00000001
00000000
00001000
00000000
,
00000010
00000000
00000000
00000010
00000000
00000000
00000100
00000000
00000000
00000100
00000000
00000000
00001000
00000000
00010000
00000000
,
00001000
00000000
00000000
00000000
01000000
00000000
00000000
01000000
00000000
00000000
01000000
00000000
00010000
00000000
00100000
00000000
,
00010000
00000000
00000000
00000000
10000000
00000000
00000000
10000000
00000000
00000000
10000000
00000000
01000000
00000000
01000000
00000000
,
00200000
00320000
00032000
00003100
,
00000120
00000000
00000032
00000000
,
00001003
00000000
00000000
00000000
00000000
00001000
00000100
00000010
,
00000000
00000000
00000000
00001000
00000000
00000000
00010000
00000000
,
01000000
00000000
10000000
00000000
00100000
00010000
00000000
00100000
,
00000000
10000000
01000000
00200000
00000000
00000000
00310000
00000000
,
00000000
10000000
01000000
00010000
00001000
00000100
00000000
00001000
,
00000000
00010000
00000000
00100000
00000000
00010000
00000000
00001000
,
00020000
00000000
00000000
00000000
00031000
00010000
00001000
00000100
,
00000000
00000010
00000000
00001000
00000000
00000001
00000001
00000000
,
00001001
00000000
00000000
00000000
00000000
00000001
00000100
00000010
,
00000000
00000000
00000000
00000100
00000000
00000000
00001000
00000000
,
00000100
00000000
00000001
00000000
00000010
00001000
00000000
00010000
,
00000000
00001000
00010000
00200000
00000000
00000000
01300000
00000000
,
00000000
00100000
10000000
01000000
10000000
00100000
00000000
00010000
,
00000000
00001000
00000000
00000100
00000000
00000010
00000000
00010000
,
00002000
00000000
00023000
00000000
,
00031000
00000000
00000000
00000010
00000000
00000000
00000001
00000000
00000000
00001001
00000000
00000000
00000000
00000000
00000000
00000000
,
00000001
00000000
00000000
00000100
00000000
00000000
00001000
00000000
00000000
00000000
00000100
00000000
00000001
00000000
00000010
00000000
,
00000100
00000100
00000100
00000010
00000000
00001000
00010000
00001000
,
00000100
00000000
00000000
00001000
00000000
00000000
00010000
00000000
00100000
00000000
01000000
00000000
00100000
00000000
10000000
00000000
,
00010000
00110000
00101000
01010000
,
00010000
00000000
00000000
01000000
00000000
00000000
20000000
00000000
00000000
00000000
31000000
00000000
00010000
00000000
00100000
00000000
,
00001000
00000000
00000000
00010000
00000000
00000000
00002000
00000000
00000000
00000000
00013000
00000000
00001000
00000000
00000100
00000000
,
00000010
00000000
00000000
00001000
00000000
00000000
00000010
00000000
00000001
00000000
00000010
00000000
00001000
00000000
00000100
00000000
,
00000001
00000110
00001001
00010100
,
00010000
00000000
00000000
00001000
00000000
00000000
00010000
00000000
00000000
00000000
00100000
00000000
10000000
00000000
01000000
00000000
,
00100000
00100000
00100000
00010000
00000000
10000000
01000000
00100000
,
00001000
00000000
00000000
00010000
00000000
00000000
00001000
00000000
00000010
00000000
00000100
00000000
00010000
00000000
00001000
00000000
,
00000010
00000110
00001001
00000011
,
00000001
00000000
00000001
00000000
00000001
00000000
00000000
00000000
00000100
00000000
00000000
00000010
00000000
00000000
00000100
00000000
,
00000000
00000000
00000010
00000000
00000010
00000000
00000000
00000000
00001000
00000000
00000000
00000100
00000000
00000000
00001000
00000000
,
00000001
00000100
00001000
00010000
00100000
10000000
01000000
00010000
,
00001000
00011000
00101000
01010000
,
00010000
10000000
00000000
00100000
01000000
00100000
00000000
01000000
,
00010000
00100000
10000000
00100000
01000000
10000000
00010000
00000000
,
00100000
00001000
00100000
00001000
00010000
00000100
00010000
00000100
,
00001000
00000000
00000000
00000010
00000000
00000000
00000001
00000000
00001000
00000000
00000000
00000100
00000000
00000000
00000001
00000000
,
00000101
00000000
00000000
00000000
,
00000000
00000000
00000000
00000000
;
#NOTES:
     dance-double:
     :
     Hard:
     16:
     :
00000000
00000000
00000000
00000000
,
00000000
00000000
00000000
00000000
,
00000000
00000000
00000000
00000000
,
00000000
00000000
00000000
00000000
,
00000000
00000000
00000000
00000000
,
00000000
00000000
00000000
00000000
,
00000001
00000010
00001000
00000010
00000100
00010000
00000010
00001000
,
00000001
00000100
00001000
00010000
00100000
10000000
00100000
00010000
,
00001000
00010000
00001000
00010000
00001000
00010000
00001000
00010000
00001000
00010000
00001000
00010000
00001000
00010000
00001000
00010000
,
00002000
00000000
00013000
00101000
,
00100000
00010000
01000000
00100000
10000000
00010000
01000000
00100000
,
00000000
00010000
00000000
00001000
00000000
00010000
01000000
10000000
,
00100000
00000000
10000000
00000000
01000000
00000000
00100000
00010000
00100000
00000000
00001000
00000000
00010000
00000000
00100000
00000000
,
00010000
00001000
00010000
00000000
00001000
00010000
00000000
00001000
00000100
00000000
00000001
00000000
00000010
00000000
00000001
00000000
,
00000010
00000001
00000100
00000010
00001000
00000100
00000001
00000100
,
00000000
00001000
00000000
00010000
00000000
00100000
00010000
10000000
,
01000000
00000000
00100000
00000000
01000000
00000000
10000000
01000000
10000000
00000000
01000000
00000000
00010000
00000000
00001000
00000000
,
00000010
00000100
00000010
00000000
00000100
00000010
00000000
00000001
00000010
00000001
00000010
00000001
00001000
00000100
00001000
00000000
,
00001010
00000010
00000010
00000000
00001000
00000100
00010000
00000010
,
00001000
00000100
00010000
00001000
00100000
01000000
00010000
00001000
,
00000010
00000000
00000001
00000000
00000010
00000000
00001000
00000010
00001000
00000000
00000010
00000000
00000001
00000000
00000100
00000000
,
00000010
00001000
00000010
00000000
00000100
00000010
00000000
00000100
00000010
00000000
00001000
00000001
00001000
00000001
00001000
00000000
,
00000101
00000001
00000001
00000000
00000100
00000001
00000100
00000010
,
00010000
00001000
00010000
00100000
10000000
01000000
00100000
00010000
,
10000000
00000000
01000000
00000000
00100000
00000000
00010000
00000000
10000000
00010000
10000000
00010000
10000000
00010000
10000000
00020000
,
20000000
00000000
00000000
30030000
,
10000000
01000000
00000000
10000000
01000000
01000000
00100000
00100000
,
01000000
00000000
00000000
10000000
00000000
00000000
00100000
00000000
01000000
00000000
00000000
00010000
00000000
00000000
00100000
00000000
,
00001000
00000000
00000000
00010000
00000000
00000000
00001000
00000000
00000100
00000000
00000100
00000000
00000010
00000000
00000010
00000000
,
00001000
00000000
00000000
00000100
00000000
00000000
00000001
00000000
00001000
00000000
00000000
00000010
00000100
00000000
00010000
00000000
,
00001000
00000000
00000000
00010000
00001000
00000000
00000000
00001000
00000100
00000000
00000000
00000100
00001000
00000000
00000000
00001000
,
00010000
00000000
00000000
00010000
00100000
00000000
00000000
00100000
01000000
00000000
00000000
01000000
00010000
00000000
00000000
10000000
,
01000000
00000000
00000000
00010000
00000000
00000000
00001000
00000000
00000000
00000010
00000000
00000000
00000001
00000000
00000100
00000000
00001000
00000000
00000001
00000000
00000010
00000000
00001000
00000000
,
00000100
00000000
00000000
00000000
00001000
00000000
00000001
00000000
00001000
00000100
00000010
00000001
00001000
00000100
00000010
00000001
,
00000000
00000000
00000000
00000001
00000100
00000010
00001000
00000000
00000001
00000100
00000010
00000000
00000000
00000000
00000000
00000000
,
00001000
00000001
00000010
00000000
00000001
00001000
00000010
00000000
00001000
00000001
00000010
00000000
00000100
00000000
00000100
00000000
,
00000000
00000000
00000000
00010000
00001000
00010000
00001000
00000000
00100000
00010000
00100000
00000000
00001000
00000000
00010000
00000000
,
01000000
10000000
00000000
01000000
10000000
00000000
00010000
00100000
00000000
00010000
00100000
00000000
01000000
00000000
00100000
00000000
,
00000000
00000000
00000000
00010000
00100000
00010000
00100000
00000000
00001000
00010000
00001000
00000000
00000000
00000000
00000000
00000000
,
00010000
00001000
01000000
00000000
00001000
00010000
00000100
00000000
00010000
00001000
01000000
00000000
00000000
00000000
00000000
00000000
,
00000000
00000000
00000000
00010000
00100000
01000000
10000000
00000000
00010000
00100000
01000000
00000000
00001000
00000000
01000000
00000000
,
00100000
00000000
00000000
00001000
00000000
00000000
00010000
00000000
00001000
00010000
00001000
00010000
00001000
00000000
00000000
00000000
,
00000000
00000000
00000000
00010000
00000100
00000000
00001000
00000010
00000000
00000100
00000001
00000000
00000010
00000000
00001000
00000000
,
00010000
00001000
00100000
00000000
00010000
01000000
00100000
00000000
10000000
00010000
00100000
00000000
10000000
00000000
00100000
00000000
,
00010000
01000000
10000000
01000000
00010000
00001000
00000010
00000001
,
00000010
00000100
00000000
00000010
00000100
00000000
00000001
00001000
00000000
00000001
00001000
00000000
00000010
00000000
00000100
00000000
,
00000110
00000000
00000000
00000001
00001000
00000001
00001000
00000000
00000001
00000100
00000010
00000000
00000100
00000000
00001000
00000000
,
00010000
00100000
10000000
00100000
00010000
00100000
10000000
01000000
,
00100000
00000000
00010000
00000000
01000000
00000000
00001000
00000000
00010000
00000000
00000000
00001000
00000000
00000000
00010000
00000000
,
00022000
00000000
00000000
00000000
00000000
00000000
00030000
00003000
00010000
00001000
00010000
00001000
00010000
00001000
00010000
00001000
,
00020000
00000000
00000000
00000000
00000000
00031000
00010000
00200000
,
00000000
00000000
00000000
00010000
00000000
00000000
01000000
00000000
,
10300000
00000000
01000000
00000000
00010000
00001000
00000000
00100000
,
00000000
01000000
00010000
00001000
00000000
00001000
00010000
00000000
,
00000000
01000000
10000000
00100000
00010000
00001000
00000000
00000010
,
00000000
00001000
00000000
00010000
00000000
01000000
00000000
00100000
,
01000000
00100000
01000000
00100000
01000000
00100000
01000000
00100000
01000000
00000000
00010000
00000000
00001000
00000000
00000010
00000000
,
00000001
00000010
00000001
00000010
00000001
00000000
00000010
00000001
00001000
00000000
00000001
00000100
00000010
00000000
00000000
00000000
,
00001001
00000000
00000001
00000000
00000100
00000000
00001000
00000000
00010000
00000000
00001000
00010000
00000000
00001000
00010000
00000000
,
00011000
00010000
00001000
00000100
00000010
00000100
00000000
00000100
,
00000101
00000110
00001010
00010100
,
00011000
00000000
00010000
00000000
00001000
00000000
00000000
00000000
00010000
00000000
00000000
00100000
00000000
00000000
01000000
00000000
,
00100000
01000000
10000000
01000000
00010000
01000000
00010000
00001000
,
00000010
00001000
00000010
00000001
00000010
00000100
00000010
00000100
,
00000001
00000100
00000001
00000100
00000010
00001000
00000010
00001000
00000100
00010000
00000100
00010000
00001000
00010000
00001000
00010000
,
00001000
00000000
00000000
01000000
00000000
00000000
00100000
00000000
00000000
01100000
00000000
00000000
10010000
00000000
00000000
00000000
,
20000000
00000000
00000000
30200000
00000000
00000000
00310000
00000000
00001000
00000000
00010000
00000000
00100000
00000000
01000000
00100000
,
10000000
00100000
10000000
00100000
10000000
00000000
01000000
00000000
00000000
00000000
00100000
00000000
00100000
00000000
00100000
00010000
,
00100000
00000000
00000000
00001000
00000000
00000000
00010000
00000000
01000000
00000000
10000000
00000000
00100000
00000000
00010000
00000000
,
00001000
00000000
00000000
00000100
00000010
00000000
00000000
00010000
00001000
00000000
00000000
00000010
00000100
00000000
00000000
00000001
,
00000100
00000000
00000000
00001000
00000000
00000000
00000100
00000002
00000000
00000000
00000103
00000000
00001000
00000000
00010000
00000000
,
00100000
00000000
00000000
10000000
00000000
00000000
00100000
02000000
00000000
00000000
03100000
00010000
00100000
01000000
00100000
01000000
,
00100000
00000000
00000000
10000000
00000000
00000000
00100000
00010000
10000000
00000000
01000000
00000000
00010000
00000000
01000000
00000000
,
10010000
00100000
10010000
01000000
10010000
00100000
10010000
00000000
,
00020000
00000000
00000000
00230000
00000000
00000000
10300000
00000000
00100000
00000000
00010000
00000000
00010000
00000000
01000000
00100000
,
10000000
00100000
10000000
00100000
10000000
00000000
00100000
00000000
00010000
00000000
00001000
00000000
00001000
00000000
00001000
00010000
,
00001000
00000000
00000000
00000100
00000000
00000000
00000001
00000000
00000010
00000000
00000100
00000000
00000010
00000000
00001000
00000000
,
00010000
00000000
00000000
00100000
01000000
00000000
00000000
00001000
00010000
00000000
00100000
01000000
00100000
00000000
10000000
00000000
,
00010000
00000000
00010000
00000000
00010000
00000000
00000000
00000000
00100000
00000000
00000000
01000000
00000000
00000000
00100000
00000000
,
00000000
00000000
00001000
00000000
00001000
00000000
00000000
00000000
00010000
00000000
00000000
00001000
00000000
00000000
00000010
00000001
,
00000010
00000000
00001000
00000000
00010000
00000000
01000000
00000000
10000000
00010000
10000000
00010000
10000000
00010000
10000000
00010000
,
10000000
00010000
01000000
00100000
10000000
00010000
11000000
00000000
,
10000000
01000000
00100000
00010000
10000000
01000000
00000000
00010000
,
00001000
00000100
00000010
00010000
00001000
00000100
00000000
00000010
,
00001000
00000000
00001000
00000000
00000001
00000000
00000001
00000000
00001000
00000100
00001000
00000100
00000010
00000001
00000010
00000001
,
00001000
00000000
00000000
00000010
00000000
00000000
00010000
00000000
00001000
00000000
00000000
00010000
00000000
00000000
00001000
00000000
,
00011000
00000000
00000000
00000000
,
00000000
00000000
00000000
00000000
;
