
//----- song ID: bigs -----//
#TITLE:BIGソムタム;
#ARTIST:AJURIKA;
#TITLETRANSLIT:BIG som tam;
#BANNER:BIG som tam.png;
#BACKGROUND:BIG som tam-bg.png;
#CDTITLE:./CDTitles/bm IIDX 28 BISTROVER.png;
#MUSIC:BIG som tam.ogg;
#SAMPLESTART:77.005;
#SAMPLELENGTH:15;
#BPMS:0=187;
#BGSTAGE:15;
#NOTES:
     dance-single:
     :
     Beginner:
     3:
     :
0000
0000
0000
0000
,
0000
0000
0000
0000
,
0000
0000
0000
0000
,
0000
0000
0000
0000
,
0001
0000
0000
0000
,
0001
0000
0000
0000
,
0010
0000
0000
0000
,
0000
0000
0000
0000
,
0010
0000
0000
0000
,
0010
0000
0000
0000
,
1000
0000
0000
0000
,
0000
0000
0000
0000
,
1000
0000
0000
0000
,
1000
0000
0000
0000
,
0010
0000
0000
0000
,
0000
0000
0000
0000
,
0010
0000
0000
0000
,
0010
0000
0000
0000
,
0001
0000
0000
0000
,
0000
0000
0000
0000
,
1001
0000
0000
0000
,
0001
0000
0001
0000
,
0010
0000
0000
0000
,
0010
0000
0000
0000
,
1001
0000
0000
0000
,
1000
0000
1000
0000
,
0010
0000
0000
0000
,
0010
0000
0000
0000
,
0001
0000
0100
0000
,
0001
0000
0000
0000
,
0002
0000
0000
0000
,
0003
0000
0000
0000
,
1000
0000
0100
0000
,
1000
0000
0000
0000
,
2000
0000
0000
0000
,
3000
0000
0000
0000
,
1001
0000
0000
0000
,
0000
0000
0000
0000
,
0000
0000
0000
0000
,
0000
0000
0000
0000
,
1001
0000
0000
0000
,
0000
0000
0000
0000
,
0000
0000
0000
0000
,
0000
0000
0000
0000
,
1000
0000
1000
0000
,
0010
0000
0000
0000
,
0010
0000
0000
0000
,
0010
0000
0000
0000
,
0001
0000
0001
0000
,
0010
0000
0000
0000
,
0010
0000
0000
0000
,
0010
0000
0000
0000
,
1001
0000
0000
0000
,
0000
0000
0000
0000
,
1000
0000
0100
0000
,
1000
0000
0000
0000
,
1001
0000
0000
0000
,
0000
0000
0000
0000
,
0001
0000
0100
0000
,
0001
0000
0000
0000
,
0001
0000
0001
0000
,
0010
0000
0001
0000
,
0010
0000
0000
0000
,
0010
0000
0000
0000
,
1000
0000
1000
0000
,
0010
0000
1000
0000
,
0010
0000
0000
0000
,
0010
0000
0000
0000
,
0001
0000
0001
0000
,
0100
0000
0000
0000
,
0001
0000
0001
0000
,
0010
0000
0000
0000
,
1000
0000
1000
0000
,
0100
0000
0000
0000
,
1000
0000
1000
0000
,
0010
0000
0000
0000
,
1001
0000
0000
0000
,
0000
0000
0000
0000
,
1000
0000
1000
0000
,
0010
0000
0000
0000
,
0010
0000
0010
0000
,
0001
0000
0000
0000
,
0001
0000
0100
0000
,
0001
0000
0000
0000
,
0002
0000
0000
0000
,
0003
0000
0000
0000
,
0020
0000
0000
0000
,
0030
0000
0000
0000
,
0200
0000
0000
0000
,
0300
0000
0000
0000
,
1000
0000
1000
0000
,
0001
0000
0000
0000
,
1001
0000
0000
0000
,
0000
0000
0000
0000
;
#NOTES:
     dance-single:
     :
     Easy:
     6:
     :
0000
0000
0000
0000
,
0000
0000
0000
0000
,
0000
0000
0000
0000
,
0000
0000
0000
0000
,
0001
1000
0001
0000
,
1000
0001
1000
0000
,
0010
0100
0010
0000
,
0100
0010
0100
0000
,
0001
0100
0010
0000
,
0100
0010
1000
0000
,
1000
0100
0010
0000
,
0100
0010
0001
0000
,
0001
1000
0010
1000
,
0001
0000
0001
0000
,
1000
0001
0010
0001
,
1000
0000
1000
0000
,
0001
1000
0100
1000
,
0001
0000
0001
0000
,
1000
0001
0100
0001
,
1000
0000
1000
0000
,
0002
0000
0000
0003
,
0001
0000
1000
0000
,
2000
0000
0000
3000
,
1000
0000
0010
0000
,
0020
0000
0000
0030
,
0010
0000
0100
0000
,
0200
0000
0000
0300
,
0100
0000
0001
0000
,
1000
0000
1000
0000
,
0010
0000
1000
0000
,
0100
0000
1000
0000
,
0100
0000
0000
0000
,
1000
0000
1000
0000
,
0001
0000
0100
0000
,
0001
0000
0010
0000
,
0001
0000
0000
0000
,
0002
0000
0000
0000
,
0000
0000
0000
0003
,
2000
0000
0000
0000
,
0000
0000
0000
3000
,
0020
0000
0000
0000
,
0000
0000
0000
0030
,
0200
0000
0000
0300
,
0110
0000
0000
0000
,
1000
0000
0100
0000
,
0010
0001
0010
0000
,
0001
0000
0100
0000
,
0010
1000
0010
0000
,
1000
0001
0100
0000
,
0001
1000
0100
0000
,
0110
0000
0110
0000
,
1001
0000
1001
0000
,
0001
0100
0001
0000
,
1000
0100
1000
0000
,
0001
0010
0001
0000
,
1000
0010
1000
0000
,
0001
0010
0001
0010
,
0100
1000
0100
1000
,
0002
0000
0000
0003
,
2000
0000
0000
3000
,
0001
0100
0010
0100
,
0001
0100
0001
0000
,
1000
0100
0010
0100
,
1000
0100
1000
0000
,
0001
0010
0100
0010
,
0001
0010
0001
0000
,
1000
0010
0100
0010
,
1000
0010
1000
0000
,
0001
0100
0010
1000
,
0010
0100
0001
0000
,
1000
0100
0010
0001
,
0010
0100
1000
0000
,
0001
0100
0001
0010
,
0100
1000
0001
0000
,
1000
0010
0100
0010
,
0100
0001
1000
0000
,
1001
0000
0000
0000
,
1000
0100
0010
0000
,
0001
0100
0001
1000
,
0001
0010
0001
0001
,
1000
0100
1000
0001
,
1000
0010
1000
1000
,
0001
0000
1000
0000
,
0001
1000
1001
0000
,
1000
0010
0100
0001
,
0010
0100
1000
0000
,
0001
0010
0100
1000
,
0010
0100
0001
0000
,
1000
0100
0010
0010
,
0001
0100
0010
0010
,
1000
0000
1001
0000
,
0001
1000
0001
0020
,
0000
0000
0030
0000
,
0000
0000
0000
0000
;
#NOTES:
     dance-single:
     :
     Medium:
     11:
     :
0000
0000
0000
0000
,
0000
0000
0000
0000
,
0000
0000
0000
0000
,
0000
0000
0000
0000
,
0001
0000
0100
0010
0000
1000
0001
1000
,
0000
0001
0010
0001
1000
0001
1000
0000
,
0001
0100
0010
0000
1000
0010
0100
0001
,
0010
0000
0110
0000
1000
0001
0000
0000
,
1000
0000
0100
0010
0000
0001
1000
0001
,
0000
0010
0100
0000
1000
0001
1000
0000
,
0001
0000
0100
0000
1000
0100
0001
0000
,
1000
0100
0010
0000
0001
1000
0000
0000
,
0001
0000
0010
0100
0000
1000
0001
1000
,
0000
0001
0100
0001
1000
0001
1000
0000
,
0001
0010
0100
0000
1000
0100
0010
0001
,
0100
0000
0110
0000
1000
0001
0000
0000
,
1000
0000
0010
0100
0000
0001
1000
0001
,
0000
0100
0010
0000
1000
0001
1000
0000
,
0001
0000
0010
0000
1000
0010
0001
0000
,
1000
0010
0100
0000
0001
1000
0001
0000
,
1000
0100
2200
3300
,
1000
0000
0100
0010
0002
0000
0003
0000
,
0001
0100
0202
0303
,
0001
0100
0010
0000
2000
0000
3000
0000
,
1000
0001
0220
0330
,
0001
0000
0010
0100
2000
0000
3000
0000
,
1000
0000
0100
0010
0001
0000
0100
0010
,
1000
0000
0010
0100
0002
0000
0003
0000
,
0001
0010
0022
0033
,
0001
0000
0010
0100
2000
0000
3000
0000
,
1000
0010
2020
3030
,
1000
0010
0100
0000
0002
0000
0003
0000
,
0001
1000
0220
0330
,
1000
0000
0100
0010
0002
0000
0003
0000
,
0001
0000
0010
0100
1000
0000
0010
0100
,
0001
0000
0100
0010
2000
0000
3000
0000
,
2000
0000
3000
0200
,
0000
0000
0000
0300
,
0020
0000
0030
0002
,
0000
0000
0000
0003
,
0002
0000
0003
0200
,
0000
0000
0000
0300
,
0020
0000
0030
1000
,
1001
0000
0000
0000
,
1000
0000
0100
0010
0100
0000
0010
0001
,
0010
0000
0001
0000
1000
0000
0001
0100
,
0010
0000
1010
0000
,
1100
0000
0011
0000
,
1001
0000
1000
0010
,
0100
0000
0001
0000
0010
0100
0010
0100
,
0020
0030
0002
0003
,
2000
3000
0200
0300
,
1000
0010
1000
0000
0010
0000
1000
0000
,
0001
0010
0001
0000
0010
0000
0001
0000
,
1000
0100
1000
0000
0100
0000
1000
0000
,
0001
0100
0001
0000
0100
0000
0001
0000
,
1000
0100
0010
0001
,
1000
0100
0010
0001
,
1000
0001
1000
0001
1000
0001
1000
0001
,
2000
0000
0000
3000
,
0001
0100
0001
0100
0010
1000
0000
1000
,
0000
1000
0100
1000
0010
1000
0001
0000
,
1000
0100
1000
0100
0010
0001
0000
0001
,
0000
0001
0100
0001
0010
0001
1000
0000
,
0001
0100
0010
1000
0001
0100
0000
0100
,
0000
0100
0010
0100
0001
1000
0001
0000
,
1000
0100
0010
0000
0001
0100
0010
1000
,
0000
0001
0000
1001
0000
0001
1000
0001
,
1000
0010
1000
0010
0100
0001
0000
0001
,
0000
0001
0010
0001
0100
0001
1000
0000
,
0001
0010
0001
0010
0100
1000
0000
1000
,
0000
1000
0010
1000
0100
1000
0001
0000
,
1000
0010
0100
0001
1000
0010
0000
0010
,
0000
0010
0100
0010
1000
0001
1000
0000
,
0001
0000
0010
0100
0000
0010
0100
0000
,
1000
0001
0000
1001
0000
1000
0010
1000
,
0002
0000
0000
0003
,
1000
0100
0000
0110
0000
1001
0000
0000
,
0001
0100
0010
0000
1000
0001
0000
1001
,
0000
1000
0001
0000
1000
0010
0100
0000
,
0001
0010
0100
0000
1000
0010
0000
0110
,
0000
0100
0001
0000
1000
0001
1000
0000
,
0001
0000
0010
0001
0000
0100
0001
0000
,
0010
0000
0100
0000
1000
0001
1000
0000
,
0001
0000
0010
0000
0100
0000
1000
0010
,
0000
0010
1000
0000
0100
0000
0010
0001
,
0000
0001
0010
0000
0001
0000
0100
0010
,
0000
0010
1000
0000
0001
0000
1000
0100
,
0000
0100
0010
0000
0001
1000
0001
1000
,
0000
0000
1001
0000
1000
0001
1000
0001
,
1000
0000
0000
1100
0000
0000
0110
0000
,
0001
0010
0000
0100
0000
1000
0001
2000
,
0000
0000
3000
0000
,
0000
0000
0000
0000
;
#NOTES:
     dance-single:
     :
     Hard:
     16:
     :
0000
0000
0000
0000
,
0000
0000
0000
0000
,
0000
0000
0000
0000
,
0000
0000
0000
0000
,
0001
0100
1000
0100
0000
0001
0100
1000
,
0000
0000
0100
0000
0001
0000
1000
0000
0100
0000
0010
0000
0100
1000
0001
1000
,
0001
0000
0010
0000
0100
0000
1000
0000
0010
0000
0100
0000
0001
1000
0001
1000
,
0001
0100
1000
0100
0001
2000
0000
3000
,
2000
0000
3100
0001
0000
0001
0100
1000
,
0000
0000
0100
0000
0001
0000
0100
0000
1000
0000
0001
0000
0100
0010
1000
0010
,
1000
0100
0100
0010
0100
0100
0001
0100
,
1000
0001
0010
0100
1000
0002
0000
0003
,
1000
0010
0001
0010
0000
1000
0010
0001
,
0000
0000
0010
0000
1000
0000
0001
0000
0010
0000
0100
0000
0010
0001
1000
0001
,
1000
0000
0100
0000
0010
0000
0001
0000
0100
0000
0010
0000
1000
0001
1000
0001
,
1000
0010
0001
0010
1000
0002
0000
0003
,
0002
0000
0013
1000
0000
1000
0010
0001
,
0000
0000
0010
0000
1000
0000
0010
0000
0001
0000
1000
0000
0010
0100
0001
0100
,
0001
0000
0010
0100
0010
0000
0001
1000
0001
0000
1000
0010
0100
0000
0001
0010
,
0100
0100
1000
1000
0001
0100
1001
0000
,
2000
0100
0100
0100
0200
0000
3300
0000
,
2001
0000
0000
0000
3001
0010
0100
1000
0002
0000
0000
0000
1003
0000
0000
0000
,
0002
1000
1000
1000
2003
0010
3010
0000
,
0010
1000
0010
0000
0100
0001
0100
0000
0002
0000
0000
0000
2003
0000
0000
0000
,
3002
0010
0010
0010
0020
0000
0033
0000
,
1002
0000
0000
0000
1003
0100
0010
0001
2000
0000
0000
0000
3001
0000
0000
0000
,
2000
0000
0000
0000
3001
0010
0100
1000
0002
0000
0000
0000
1003
0010
0100
0001
,
2000
0000
0000
0000
3100
0010
0001
0000
2000
0000
0001
0000
3001
0000
0000
0000
,
0002
0100
0100
0100
0200
0000
0303
0000
,
1002
0000
0000
0000
1003
0010
0100
0001
2000
0000
0000
0000
3001
0000
0000
0000
,
2000
0001
0001
0001
3002
0010
0013
0000
,
0010
0001
0010
0000
0100
1000
0100
0000
2000
0000
0000
0000
3002
0000
0000
0000
,
2003
0010
0010
0010
0020
0000
3030
0000
,
2001
0000
0000
0000
3001
0100
0010
1000
0002
0000
0000
0000
1003
0000
0000
0000
,
0002
0000
0000
0000
1003
0010
0100
0001
2000
0000
0000
0000
3001
0010
0100
1000
,
0002
0000
0000
0000
0103
0010
1000
0000
0002
0000
1000
0000
1003
0000
0000
0000
,
0200
0000
0000
0020
,
0000
0000
0000
0330
,
0002
0000
0000
2000
,
0000
0000
0000
3003
,
0020
0000
0000
0200
,
0000
0000
0000
0330
,
0002
0000
0000
1003
,
1001
0000
0000
0000
0000
0000
0000
0000
0001
0010
0100
1000
0001
0000
0001
0000
,
1000
0000
0010
0100
0010
1000
0100
0010
,
0001
0000
0000
0000
0001
0000
1000
0000
0010
0000
0000
0000
0100
0010
1000
0001
,
0100
0110
0010
1010
,
1000
0000
1001
0000
0001
0000
0011
0010
,
0001
0100
0001
0100
0010
1000
0010
0000
,
1000
0000
0100
0000
1000
0000
0100
0000
0010
0001
0010
0000
0001
1000
0001
1000
,
0002
0100
0103
0000
0200
0010
0310
0000
,
0020
1000
1030
0000
2000
0001
3001
0000
,
2000
0100
3100
2000
0001
3001
2000
3010
,
0100
0001
0100
1000
0100
0001
0100
0000
,
0002
0100
0103
0002
1000
1003
0002
0013
,
0100
1000
0100
0001
0100
1000
0100
0000
,
1000
1000
0100
0100
0010
0010
0001
0001
,
1000
1000
0010
0010
0100
0100
0001
0001
,
1000
0001
1000
0001
1000
0001
1000
0000
0010
0100
0010
0100
0010
0100
0010
0000
,
0200
1000
0000
0010
0000
0301
1000
0000
,
1001
0001
0010
0100
0001
1000
0010
0100
,
1100
1000
0010
0100
1000
0100
0001
1000
,
1001
0001
0100
0010
0001
1000
0100
0010
,
1010
1000
0100
0001
0100
1000
0010
0000
,
1001
1000
0100
0010
1000
0001
0100
0010
,
0011
0001
0100
0010
0001
0010
1000
0001
,
1001
1000
0010
0100
1000
0001
0010
0100
,
0101
0001
0010
1000
0010
0001
0001
0001
,
1000
1010
0001
0010
0011
0001
0100
0101
,
0001
1001
0100
0010
0100
1001
1000
1010
,
0010
0100
0001
0010
0100
1000
0001
0100
,
0010
1010
0010
0110
0100
0001
0001
0001
,
1000
1100
0100
1000
1001
0001
0100
0101
,
0001
0011
0010
0100
1000
0010
1000
0100
,
0020
0001
0031
0020
1000
1030
0020
0031
,
1000
0110
0000
0011
0000
0101
0100
0010
,
2002
0000
0000
0000
0000
0000
3003
0000
1000
0010
0100
0000
0001
1000
0100
0010
,
0001
0100
0000
0110
0000
2002
0000
3003
,
1000
0010
0100
1000
0100
0010
1000
0100
,
0001
0100
0010
0001
0100
0010
0001
0010
,
1000
0100
0010
1000
0010
0100
1000
0010
,
0001
0010
0100
0001
0010
0100
0001
0100
,
2000
0000
0010
0000
3010
0000
2000
0000
0100
0000
3100
0000
1000
0000
1000
0100
,
0010
0011
0001
1001
0100
0010
1001
0000
,
0001
0100
1000
0001
0010
1000
0001
0100
,
0000
0100
1000
0001
0010
1000
0100
0010
,
0001
0010
1000
0001
0100
1000
0001
0010
,
0000
0010
1000
0001
0100
1000
0001
0100
,
0020
0000
1030
0000
2000
0000
3100
0000
0100
0010
0100
0000
0010
0001
0020
0000
,
0030
0000
0010
0000
0002
0000
0103
0000
0100
0010
0100
0000
0010
1000
0010
0000
,
1000
0010
0010
0001
0010
0010
1000
0010
,
0000
0110
0000
0001
0100
1000
0100
0002
,
0000
0000
0003
0000
,
0000
0000
0000
0000
;
#NOTES:
     dance-single:
     :
     Challenge:
     17:
     :
0000
0000
0000
0000
,
0000
0000
0000
0000
,
0000
0000
0000
0000
,
0000
0000
0000
0000
,
1001
0001
0100
0010
0110
0100
1000
0100
,
0110
0000
0010
0000
1000
0000
0001
0000
1001
0000
1000
0000
0100
0010
0100
0010
,
0200
0000
2300
0000
3002
0000
0203
0000
0310
0000
1000
0000
0100
0010
0001
1000
,
0100
0001
0100
1000
0001
0200
0000
0300
,
0110
0010
0001
0010
0000
0010
1000
0010
,
0000
0000
0100
0000
1000
0000
0100
0000
0001
0000
0010
0000
0100
0010
0100
0010
,
0100
1000
0010
1010
0001
0011
0010
1001
,
1000
0010
0100
0001
1000
0002
0000
0003
,
1001
1000
0010
0100
0110
0010
0001
0010
,
0110
0000
0100
0000
0001
0000
1000
0000
1001
0000
0001
0000
0010
0100
0010
0100
,
0020
0000
0032
0000
2003
0000
3020
0000
0130
0000
0001
0000
0010
0100
1000
0001
,
0010
1000
0010
0001
1000
0020
0000
0030
,
0110
0100
1000
0100
0000
0100
0001
0100
,
0000
0000
0010
0000
0001
0000
0010
0000
1000
0000
0100
0000
0010
0100
0010
0100
,
0010
0000
0000
0000
0000
0000
0001
0000
0000
1000
0000
0000
0001
0000
0000
0000
0000
0000
0100
0000
0000
0000
0000
0000
0010
0000
0000
0000
0000
0000
1000
0000
0100
0000
0010
0000
0001
0000
0000
0000
0000
0000
1001
0000
0000
0000
0000
0000
,
0001
0100
0110
1000
1001
0110
1001
0000
,
1020
2030
3020
0130
0202
0000
0303
0000
,
1002
0000
0000
0000
1003
0100
0010
0001
2000
0000
0000
0000
3001
0000
0000
0000
,
0021
0032
2003
3100
2100
0001
3001
0000
,
1000
0100
0010
0001
0100
0010
1000
0100
0020
0000
0000
0000
0032
0000
0000
0000
,
2003
3020
1030
1001
0202
0000
0303
0000
,
1002
0000
0000
0000
1003
0100
0010
0001
2000
0000
0000
0000
3001
0000
0000
0000
,
2001
0000
0001
0000
3001
0010
0100
1000
0010
0000
0110
0000
0010
1000
0100
0010
,
0001
0000
0011
0000
0010
0001
0100
0010
2000
0000
0001
0000
3001
0000
0000
0000
,
1200
2300
3200
0310
0022
0000
0033
0000
,
1002
0000
0000
0000
1003
0010
0100
0001
2000
0000
0000
0000
3001
0000
0000
0000
,
0201
0302
2003
3010
2010
0001
3001
0000
,
1000
0010
0100
0001
0010
0100
1000
0010
0200
0000
0000
0000
0302
0000
0000
0000
,
2003
3200
1300
1001
0022
0000
0033
0000
,
1002
0000
0000
0000
1003
0010
0100
0001
2000
0000
0000
0000
3001
0000
0000
0000
,
2001
0000
0001
0000
3001
0100
0010
1000
0100
0000
0110
0000
0100
1000
0010
0100
,
0001
0000
0101
0000
0100
0001
0010
0100
2000
0000
0001
0000
3001
0000
0000
0000
,
2000
0100
0001
0100
3001
0001
0020
0001
,
0100
0100
0001
0001
0100
0001
0130
1000
,
0002
0100
1000
0100
1003
1000
0020
1000
,
0100
0100
1000
1000
0100
1000
0130
0001
,
2000
0010
0001
0010
3001
0001
0200
0001
,
0010
0010
0001
0001
0010
0001
0310
1000
,
0002
0010
1000
0010
1003
1000
0100
0010
,
0110
0000
0000
0000
0000
0000
0000
0000
0001
0010
0100
1000
0001
0010
0100
1000
,
0001
0000
0011
0001
1001
1000
1010
0010
,
0101
0000
0010
0000
1001
0000
0010
0000
0101
0000
0001
0000
1000
0100
0010
0001
,
1000
1010
1100
0000
0001
0011
0101
0000
,
1000
1100
1010
0000
0001
0101
0011
0000
,
1001
1000
0010
0100
0001
0010
0100
1000
,
0010
0000
0100
0000
0010
0000
0100
0000
0001
0100
0010
1000
0100
0010
0001
0100
,
0020
1030
1010
0000
2000
3100
1100
0000
,
0002
0013
0011
0000
0002
0103
0101
0000
,
2010
3010
1020
1030
1020
2030
3010
1010
,
2100
3100
1200
1300
1200
2300
3100
1100
,
0012
0013
0021
0031
0021
0032
0013
0011
,
0102
0103
0201
0301
0201
0302
0103
0101
,
2001
3100
1002
0013
2001
3100
1002
0013
,
0210
1300
0120
0031
0210
1300
0120
0031
,
1000
0100
1000
0100
0010
0001
0010
0001
1000
0010
0100
0001
1000
0010
0100
0001
,
1000
0200
0000
0302
0000
1003
0010
0000
,
0001
0011
1100
1000
1010
0101
0001
1001
,
1000
0110
0010
1001
0001
0110
0100
1001
,
1000
1010
0110
0001
0101
0110
1000
1001
,
0001
0011
0010
0110
0100
1100
1000
0001
,
1000
1010
0110
0010
0110
0101
0100
0110
,
0010
1010
0001
0101
1000
1100
0001
0011
,
0020
0031
0011
0001
2000
3010
1010
0010
,
0200
0301
2000
3100
0020
0001
0001
0031
,
1000
1010
0101
0001
0011
1100
1000
1001
,
0001
0110
0010
1001
1000
0110
0100
1001
,
0001
0011
0110
1000
1100
0110
0001
1001
,
1000
1010
0010
0110
0100
0101
0001
1000
,
0001
0011
0110
0010
0110
1100
0100
0110
,
0010
0011
1000
1100
0001
0101
1000
1010
,
0020
1030
1010
0002
0013
0011
0001
1000
,
0100
1100
0000
0110
0000
0011
0001
1000
,
2002
0000
0000
0000
0000
0000
3003
0000
1000
0010
0100
0001
0010
0100
1000
0010
,
0100
0101
0000
0011
0000
2002
0000
3003
,
1001
0001
1000
0100
1100
1000
0100
0010
,
0011
0001
0100
0010
0110
0100
0001
1000
,
1010
0010
0100
0001
0101
0100
0001
0010
,
0011
0001
1000
0010
0110
0100
0001
1000
,
1100
0000
0110
0000
0110
0000
0011
0000
0110
0000
0110
0000
1100
0000
1000
0100
,
0010
0000
0011
0000
0101
0000
0011
0000
0001
0010
0100
1000
0002
0000
1003
0000
,
1000
1010
0011
0001
0101
1100
1000
1002
,
0100
0103
0001
0001
0011
0100
1010
2001
,
0100
3100
1000
1000
1010
0010
0110
0102
,
1000
1003
1010
0010
0110
0100
0101
2001
,
0000
0000
3100
0000
0100
0000
0100
0000
1000
0100
0010
0001
0100
0010
2000
0000
,
0000
0000
3001
0000
0001
0000
0001
0000
0010
0100
1000
0010
0100
0001
0010
0000
,
0011
1000
0100
1100
0001
0100
0101
1010
,
0000
1001
0000
1000
0010
0100
0001
0200
,
0000
0000
0300
0000
,
0000
0000
0000
0000
;
#NOTES:
     dance-double:
     :
     Easy:
     6:
     :
00000000
00000000
00000000
00000000
,
00000000
00000000
00000000
00000000
,
00000000
00000000
00000000
00000000
,
00000000
00000000
00000000
00000000
,
00001000
00010000
00001000
00000000
,
00010000
00001000
00010000
00000000
,
00001000
00000000
00000010
00000000
,
00000001
00001000
00000001
00000000
,
00000100
00000010
00000100
00000000
,
00000001
00001000
00000001
00000000
,
00001000
00000100
00001000
00000000
,
00000100
00010000
00001000
00000000
,
00010000
00001000
00010000
00000000
,
00001000
00010000
00001000
00000000
,
00010000
00001000
00100000
00000000
,
00010000
00100000
00010000
00000000
,
10000000
00010000
10000000
00000000
,
00100000
01000000
00100000
00000000
,
10000000
01000000
00100000
00010000
,
10000000
00000000
10000000
00000000
,
02000000
00000000
00000000
03000000
,
01000000
00000000
00100000
00000000
,
00020000
00000000
00000000
00030000
,
00010000
00000000
00100000
00000000
,
00002000
00000000
00000000
00003000
,
00001000
00000000
00010000
00000000
,
00000200
00000000
00000000
00000300
,
00000100
00000000
00001000
00000000
,
00000001
00000010
00000100
00000000
,
00001000
00000000
00001000
00000000
,
00000010
00000100
00000010
00000000
,
00001000
00000000
00000010
00000000
,
00010000
00001000
00010000
00000000
,
00001000
00000000
00001000
00000000
,
00100000
00010000
00100000
00000000
,
00010000
00000000
01000000
00000000
,
00200000
00000000
00000000
00000000
,
00300000
00000000
00000000
00000000
,
20000000
00000000
00000000
00000000
,
30000000
00000000
00000000
00000000
,
00020000
00000000
00000000
00000000
,
00030000
00000000
00000000
00000000
,
02000000
00000000
00000000
03000000
,
01100000
00000000
00000000
00000000
,
10000000
00000000
01000000
00000000
,
00010000
00000000
00001000
00010000
,
00001000
00000000
00001000
00000000
,
00010000
00000000
00010000
00000000
,
00001000
00000000
00000010
00000000
,
00000001
00001000
00000001
00000000
,
00000010
00000000
00000100
00000000
,
00000110
00000000
00001001
00000000
,
00000001
00000010
00000001
00000000
,
00001000
00000010
00001000
00000000
,
00000010
00010000
00000010
00000000
,
00010000
00001000
00010000
00000000
,
00001000
01000000
00001000
00000000
,
01000000
00010000
01000000
00000000
,
00010000
10000000
00010000
10000000
,
00020000
00000000
00000000
00030000
,
00010000
10000000
00010000
10000000
,
00100000
10000000
00100000
00000000
,
10000000
01000000
10000000
01000000
,
00100000
00010000
00100000
00000000
,
00010000
00100000
00001000
00010000
,
00001000
00100000
00001000
00000000
,
00010000
00001000
00010000
00000100
,
00001000
00000100
00000010
00000000
,
00000001
00000100
00000001
00000010
,
00000100
00001000
00000100
00000000
,
00001000
00000100
00010000
00001000
,
00010000
00001000
01000000
00000000
,
00010000
01000000
00100000
10000000
,
01000000
00100000
00010000
00000000
,
10000000
01000000
10000000
00100000
,
01000000
00001000
00010000
00000000
,
00011000
00000000
00000000
00000000
,
00011000
00000000
00000000
00000000
,
00010000
00001000
00010000
00000100
,
00001000
00000100
00001000
00001000
,
00000001
00000010
00000100
00001000
,
00000010
00000100
00000010
00000010
,
00001000
00000000
00000100
00000000
,
00010000
00001000
00011000
00000000
,
00001000
00010000
00100000
10000000
,
00010000
01000000
00010000
00000000
,
10000000
01000000
00010000
00001000
,
00010000
00001000
00000010
00000000
,
00000001
00000010
00000100
00000100
,
00001000
00000100
00010000
00010000
,
00001000
00000000
00011000
00000000
,
00010000
00100000
10000000
00020000
,
00000000
00000000
00030000
00000000
,
00000000
00000000
00000000
00000000
;
#NOTES:
     dance-double:
     :
     Medium:
     11:
     :
00000000
00000000
00000000
00000000
,
00000000
00000000
00000000
00000000
,
00000000
00000000
00000000
00000000
,
00000000
00000000
00000000
00000000
,
00001000
00000000
00010000
00001000
00000000
00001000
00100000
00001000
,
00000000
00100000
00010000
00100000
01000000
00100000
01000000
00000000
,
10000000
00010000
01000000
00000000
00010000
10000000
01000000
00000000
,
00100000
00000000
00110000
00000000
00010000
00100000
00001000
00000000
,
00010000
00000000
00001000
00010000
00000000
00010000
00000100
00010000
,
00000000
00010000
00000010
00000000
00001000
00000010
00001000
00000000
,
00000001
00000000
00000100
00000000
00001000
00000100
00000001
00000000
,
00001000
00000100
00000010
00000000
00000001
00001000
00000000
00000000
,
00000001
00000000
00000010
00000100
00000000
00001000
00000001
00001000
,
00000000
00000100
00001000
00000100
00010000
00000100
00010000
00000000
,
00001000
00000000
00010000
01000000
00100000
00010000
00100000
00000000
,
00010000
00000000
10010000
00000000
10000000
00010000
00000000
00000000
,
10000000
00000000
00100000
01000000
00000000
00010000
10000000
00010000
,
00000000
00100000
00010000
00000000
00100000
00001000
00100000
00000000
,
00001000
00000000
00010000
00000000
00001000
00000010
00000001
00000000
,
00001000
00000100
00000010
00000000
00000001
00001000
00000001
00000000
,
00001000
00000100
00002200
00003300
,
00000001
00000000
00000010
00000100
00002000
00000000
00003000
00000000
,
00001000
00000100
00020200
00030300
,
00010000
00001000
00010000
00000000
00002000
00000000
00003000
00000000
,
00001000
00010000
00022000
00033000
,
00001000
00000000
00010000
00100000
20000000
00000000
30000000
00000000
,
00010000
00000000
00100000
01000000
10000000
00000000
01000000
00100000
,
00010000
00000000
00100000
00000000
00001000
00010000
00001000
00000000
,
00010000
00000100
00002200
00003300
,
00000001
00000000
00000100
00000010
00002000
00000000
00003000
00000000
,
00001000
00000010
00020020
00030030
,
00010000
00001000
00010000
00000000
00002000
00000000
00003000
00000000
,
00001000
00010000
00022000
00033000
,
00001000
00000000
00010000
01000000
20000000
00000000
30000000
00000000
,
00010000
00000000
01000000
00100000
10000000
00000000
00100000
01000000
,
00010000
00000000
01000000
00000000
00001000
00010000
00001000
00000000
,
00020000
00000000
00030000
00002000
,
00000000
00000000
00000000
00003000
,
00000020
00000000
00000030
00000002
,
00000000
00000000
00000000
00000003
,
00000002
00000000
00000003
00000200
,
00000000
00000000
00000000
00000300
,
00002000
00000000
00003000
00010000
,
00011000
00000000
00000000
00000000
,
00001000
00000000
00010000
00000000
00100000
01000000
00100000
00000000
,
10000000
00000000
00010000
00000000
00100000
00000000
01000000
00100000
,
00010000
00000000
00110000
00000000
,
00101000
00000000
00011000
00000000
,
00010000
00000100
00001000
00000010
,
00000100
00000000
00000001
00000000
00000010
00000100
00000010
00000100
,
00000020
00000030
00000002
00000003
,
00002000
00003000
00000200
00000300
,
00010000
00000100
00010000
00000000
00001000
00000000
00010000
00000000
,
00001000
00100000
00001000
00000000
00100000
00000000
00010000
00000000
,
01000000
00010000
01000000
00000000
00001000
00000000
00010000
00000000
,
00001000
00010000
00001000
00000000
00010000
00000000
00000010
00000000
,
00001000
00000001
00000100
00000010
,
00001000
00010000
01000000
00100000
,
10000000
00010000
10000000
00010000
10000000
00010000
10000000
00010000
,
20000000
00000000
00000000
30000000
,
10000000
01000000
10000000
01000000
00100000
00010000
00000000
00010000
,
00000000
00010000
00100000
00001000
00010000
00001000
00010000
00000000
,
00001000
00010000
00001000
00010000
00000100
00001000
00000000
00001000
,
00000000
00001000
00000010
00001000
00000100
00000010
00000001
00000000
,
00000001
00000100
00000001
00000100
00000010
00001000
00000000
00001000
,
00000000
00001000
00000010
00010000
00001000
00010000
00001000
00000000
,
00010000
00001000
00010000
00001000
01000000
00010000
00000000
00010000
,
00000000
00010000
00100000
00010000
01000000
00100000
10000000
00000000
,
00010000
10000000
01000000
00100000
00010000
01000000
00000000
01000000
,
00000000
01000000
00100000
00010000
00001000
00010000
00001000
00000000
,
00010000
00000010
00001000
00000100
00000010
00000001
00000000
00000001
,
00000000
00000001
00001000
00000010
00001000
00000100
00001000
00000000
,
00000001
00000100
00000010
00001000
00000100
00001000
00000000
00001000
,
00000000
00001000
00000100
00010000
00001000
00010000
00001000
00000000
,
00010000
00000000
00100000
01000000
00000000
00100000
01000000
00000000
,
00010000
01000000
00000000
01100000
00000000
00100000
10000000
00100000
,
20000000
00000000
00000000
30000000
,
10000000
01000000
00000000
01100000
00000000
10010000
00000000
00000000
,
10000000
01000000
10000000
00000000
01000000
00100000
00000000
01100000
,
00000000
01000000
00010000
00000000
00001000
00010000
00001000
00000000
,
00010000
00000100
00001000
00000000
00000100
00000010
00000000
00000110
,
00000000
00000100
00000001
00000000
00000100
00001000
00000100
00000000
,
00001000
00000000
00000001
00000010
00000000
00000001
00000100
00000000
,
00000001
00000010
00001000
00011000
,
00001000
00000000
00100000
00000000
00010000
00000000
10000000
00100000
,
00000000
00100000
10000000
00000000
00010000
00000000
01000000
00010000
,
00000000
00010000
01000000
00000000
00001000
00000000
00010000
00000100
,
00000000
00000100
00010000
00000000
00001000
00000000
00000010
00000001
,
00000000
00000001
00000010
00000000
00000001
00001000
00000001
00001000
,
00000000
00000000
00001001
00000000
00001000
00000100
00001000
00000000
,
00000100
00010000
00000000
00001000
00010000
00000000
00001000
00100000
,
00000000
00110000
00000000
00010000
00100000
00000000
01000000
20000000
,
00000000
00000000
30000000
00000000
,
00000000
00000000
00000000
00000000
;
#NOTES:
     dance-double:
     :
     Hard:
     16:
     :
00000000
00000000
00000000
00000000
,
00000000
00000000
00000000
00000000
,
00000000
00000000
00000000
00000000
,
00000000
00000000
00000000
00000000
,
00001000
00010000
00100000
00010000
00000000
00001000
00010000
01000000
,
00000000
00000000
01000000
00000000
00010000
00000000
00001000
00000000
00100000
00000000
00001000
00000000
00010000
00001000
00010000
00001000
,
00010000
00000000
00001000
00000000
00100000
00000000
01000000
00000000
00010000
00000000
00001000
00000000
00100000
00010000
00100000
00010000
,
00100000
01000000
00010000
00001000
00010000
00002000
00000000
00003000
,
00002000
00000000
00013000
01000000
00000000
01000000
00100000
00010000
,
00000000
00000000
00010000
00000000
01000000
00000000
00100000
00000000
00010000
00000000
00001000
00000000
00100000
00001000
00100000
00001000
,
00100000
00010000
01000000
00010000
00100000
01000000
00100000
00001000
,
00010000
00100000
00010000
00001000
00100000
00002000
00000000
00003000
,
00010000
00001000
00000010
00001000
00000000
00010000
00001000
00000100
,
00000000
00000000
00000100
00000000
00001000
00000000
00010000
00000000
00000010
00000000
00010000
00000000
00001000
00010000
00001000
00010000
,
00001000
00000000
00010000
00000000
00000010
00000000
00000100
00000000
00001000
00000000
00010000
00000000
00000010
00001000
00000010
00001000
,
00000010
00000100
00001000
00010000
00001000
00020000
00000000
00030000
,
00020000
00000000
00031000
00000100
00000000
00000100
00000010
00001000
,
00000000
00000000
00001000
00000000
00000100
00000000
00000010
00000000
00001000
00000000
00010000
00000000
00000010
00010000
00000010
00010000
,
00000010
00001000
00000100
00001000
00000010
00000100
00000010
00010000
,
00001000
00000010
00001000
00010000
00000020
00000000
00010030
00000000
,
00002000
00010000
00023000
00000100
00030200
00001000
00001300
00000000
,
00001001
00000000
00000000
00000000
00000001
00000010
00000100
00001000
00000002
00000000
00000000
00000000
00001003
00000000
00000000
00000000
,
00000002
00001000
00002003
00000100
00003200
00010000
00020300
00000000
,
00031000
01000000
00001000
00000000
00100000
00010000
00100000
00010000
00200000
00000000
00000000
00000000
01300000
00000000
00000000
00000000
,
02000000
00100000
03200000
00001000
00302000
00010000
00020000
00033000
,
00011000
00000000
00000000
00000000
00010000
00000100
00001000
00000100
00020000
00000000
00000000
00000000
00030010
00000000
00000000
00000000
,
00002000
00000000
00000000
00000000
00003010
00000100
00000001
00001000
00000020
00000000
00000000
00000000
00000130
00000001
00001000
00000010
,
00000200
00000000
00000000
00000000
00000301
00000010
00000100
00000000
00001000
00000000
00000100
00000000
00010000
00000000
00000000
00000000
,
00020000
00001000
00032000
01000000
02003000
00010000
03010000
00000000
,
10010000
00000000
00000000
00000000
10000000
00100000
01000000
00010000
20000000
00000000
00000000
00000000
30010000
00000000
00000000
00000000
,
20000000
00010000
30020000
01000000
02030000
00001000
03002000
00000000
,
00013000
00000100
00010000
00000000
00000010
00001000
00000010
00001000
00000020
00000000
00000000
00000000
00000130
00000000
00000000
00000000
,
00000200
00000010
00000320
00010000
00020030
00001000
00002000
00033000
,
00011000
00000000
00000000
00000000
00001000
01000000
00010000
01000000
00002000
00000000
00000000
00000000
00103000
00000000
00000000
00000000
,
00020000
00000000
00000000
00000000
00130000
01000000
10000000
00010000
00200000
00000000
00000000
00000000
01300000
10000000
00010000
00100000
,
02000000
00000000
00000000
00000000
13000000
00100000
01000000
00000000
00010000
00000000
01000000
00000000
00001000
00000000
00000000
00000000
,
00020000
00000000
00000000
00002000
,
00000000
00000000
00000000
00033000
,
00002000
00000000
00000000
00000020
,
00000000
00000000
00000000
00003030
,
00000020
00000000
00000000
00000002
,
00000000
00000000
00000000
00000033
,
00000002
00000000
00000000
00001003
,
00001001
00000000
00000000
00000000
00000000
00000000
00000000
00000000
00000001
00000100
00000010
00001000
00000001
00000000
00000001
00000000
,
00001000
00000000
00000001
00000010
00000100
00010000
00001000
00100000
,
00010000
00000000
00000000
00000000
00010000
00000000
01000000
00000000
00100000
00000000
00000000
00000000
10000000
00100000
01000000
00010000
,
10000000
11000000
01000000
01100000
,
00100000
00010000
01000000
00000000
00100000
10000000
01000000
00000000
,
01100000
00000000
10010000
00000000
10000000
01000000
00100000
00000000
,
00010000
00000000
00100000
00000000
00001000
00000000
00100000
00000000
00001000
00010000
00001000
00000000
00010000
00000100
00010000
00000100
,
00002000
00000100
00003100
00000000
00000020
00000001
00000031
00000000
,
00000002
00000100
00000103
00000000
00000020
00001000
00001030
00000000
,
00000002
00000100
00000103
00000002
00000010
00000013
00000002
00000103
,
00000001
00000100
00000010
00001000
00010000
01000000
00100000
00000000
,
20000000
01000000
31000000
20000000
00100000
30100000
20000000
31000000
,
10000000
01000000
00100000
00010000
00001000
00000100
00000010
00000000
,
00000001
00000001
00000100
00000100
00001000
00010000
00001000
00010000
,
00100000
00100000
10000000
10000000
01000000
00100000
01000000
00100000
,
00010000
00100000
00010000
00000000
00100000
00001000
00100000
00000000
00001000
00010000
00001000
00010000
00001000
00010000
00001000
00000000
,
00020000
00001000
00000000
00100000
00000000
00031000
00011000
00000000
,
00011000
00010000
00000100
00001000
00000010
00000100
00000001
00000010
,
00000011
00000001
00001000
00000100
00010000
00001000
00100000
00010000
,
10010000
10000000
00100000
01000000
00010000
00100000
01000000
00010000
,
00011000
00001000
00000010
00000001
00001000
00000100
00000010
00000000
,
00000011
00000001
00000100
00001000
00010000
00100000
10000000
00010000
,
01010000
01000000
10000000
01000000
00010000
00100000
01000000
00010000
,
00011000
00001000
00000010
00000100
00010000
00001000
00000100
00001000
,
00011000
00010000
00001000
00000010
00000001
00001000
00001000
00001000
,
00000001
00000011
00000010
00000001
00001001
00001000
00000100
00010100
,
00010000
00011000
00001000
01001000
01000000
01010000
00010000
00110000
,
00100000
00001000
00010000
01000000
00100000
00001000
00010000
00100000
,
01000000
01010000
01000000
11000000
01000000
00010000
00010000
00010000
,
10000000
11000000
01000000
00100000
00110000
00010000
00100000
00101000
,
00001000
00011000
00010000
00010010
00000010
00001010
00001000
00000100
,
00000020
00000001
00000031
00000020
00001000
00001030
00000020
00000031
,
00001000
00001100
00000000
00010100
00000000
00011000
00001000
00100000
,
02000000
00000000
00000000
00000000
00000000
00000000
03000000
00000000
10000000
01000000
00100000
00000000
00010000
10000000
01000000
00100000
,
00010000
00100000
00001000
00010000
00000000
00022000
00000000
00033000
,
00010000
00001000
00000010
00000100
00010000
00001000
00000100
00000010
,
00010000
00001000
00010000
01000000
00100000
00001000
00010000
00001000
,
01000000
00100000
00010000
00001000
00000100
00000010
00010000
00000010
,
00000100
00001000
00010000
00100000
00010000
00001000
00010000
01000000
,
20000000
00000000
01000000
00000000
31000000
00000000
20000000
00000000
00100000
00000000
30100000
00000000
10000000
00000000
10000000
01000000
,
00100000
00000000
00010000
00000000
00001000
00000000
00000100
00000000
00000010
00000001
00000010
00000001
00000010
00000000
00000000
00000000
,
00000001
00000100
00001000
00010000
00100000
00000000
10000000
00010000
,
00000000
10010000
00000000
10000000
01000000
00010000
00001000
00000010
,
00000000
00000011
00000000
00000001
00000100
00010000
00001000
00100000
,
00000000
00100000
01000000
00010000
10000000
01000000
00001000
00010000
,
00000020
00000000
00000130
00000000
00000200
00000000
00001300
00000000
00001000
00000100
00001000
00000000
00000100
00010000
00000100
00000000
,
00020000
00000000
00031000
00000000
00002000
00000000
01003000
00000000
01000000
00010000
01000000
00000000
00100000
10000000
00100000
00000000
,
10000000
01000000
01000000
00010000
01000000
01000000
10000000
00010000
,
00000000
10010000
00000000
10000000
00100000
00010000
00001000
00020000
,
00000000
00000000
00030000
00000000
,
00000000
00000000
00000000
00000000
;
#NOTES:
     dance-double:
     :
     Challenge:
     17:
     :
00000000
00000000
00000000
00000000
,
00000000
00000000
00000000
00000000
,
00000000
00000000
00000000
00000000
,
00000000
00000000
00000000
00000000
,
00011000
00001000
01000000
00010000
00110000
00100000
01000000
10000000
,
10010000
00000000
00010000
00000000
01000000
00000000
00010000
00000000
00110000
00000000
00100000
00000000
00001000
00010000
00001000
00010000
,
00002000
00000000
00023000
00000000
00030200
00000000
00002300
00000000
00003010
00000000
00000100
00000000
00000001
00000010
00000100
00001000
,
00000001
00000100
00001000
00010000
00100000
00020000
00000000
00030000
,
00011000
00001000
00010000
01000000
00000000
01000000
00010000
00001000
,
00000000
00000000
00001000
00000000
00010000
00000000
00100000
00000000
00010000
00000000
00001000
00000000
00000100
00000010
00000100
00000010
,
00000100
00000001
00000100
00000101
00000001
00000011
00000010
00000110
,
00000100
00010000
00001000
01000000
00010000
20000000
00000000
30000000
,
10010000
00010000
00100000
01000000
01100000
00100000
01000000
00010000
,
00011000
00000000
00001000
00000000
00000010
00000000
00000001
00000000
00001001
00000000
00001000
00000000
00000100
00000010
00000100
00000010
,
00000200
00000000
00002300
00000000
00003002
00000000
00000023
00000000
00001030
00000000
00010000
00000000
01000000
00100000
00010000
00100000
,
01000000
10000000
00100000
00010000
00001000
00020000
00000000
00030000
,
00011000
00010000
00001000
00000100
00000000
00000100
00001000
00010000
,
00000000
00000000
00010000
00000000
00001000
00000000
00000010
00000000
00000001
00000000
00001000
00000000
00000100
00000010
00000100
00000010
,
00000100
00000000
00000000
00000000
00000000
00000000
00001000
00000000
00000000
00000001
00000000
00000000
00001000
00000000
00000000
00000000
00000000
00000000
00000001
00000000
00000000
00000000
00000000
00000000
00000010
00000000
00000000
00000000
00000000
00000000
00000001
00000000
00000100
00000000
00000010
00000000
00001000
00000000
00000000
00000000
00000000
00000000
00000001
00000000
00000000
00000000
00000000
00000000
,
00000010
00001000
00010000
01000000
01100000
00100000
10010000
00000000
,
10200000
20300000
30200000
01300000
02020000
00000000
03030000
00000000
,
10020000
00000000
00000000
00000000
10030000
01000000
00100000
00001000
00020000
00000000
00000000
00000000
00031000
00000000
00000000
00000000
,
00021000
00032000
00023000
00032000
00023000
00001000
00031000
00000000
,
00010000
00001000
00010000
00000100
00001000
00000100
00000010
00000001
00002000
00000000
00000000
00000000
00003002
00000000
00000000
00000000
,
00002003
00003020
00001030
00001010
00000220
00000000
00000330
00000000
,
00002001
00000000
00000000
00000000
00003001
00000010
00000100
00001000
00000200
00000000
00000000
00000000
00010300
00000000
00000000
00000000
,
00021000
00000000
00001000
00000000
00031000
00100000
00010000
00100000
01000000
00000000
01100000
00000000
00100000
00010000
01000000
00100000
,
10000000
00000000
10100000
00000000
00100000
01000000
00010000
10000000
01000000
00000000
00100000
00000000
00010000
00000000
00000000
00000000
,
12000000
23000000
32000000
03100000
00220000
00000000
00330000
00000000
,
10020000
00000000
00000000
00000000
10030000
00100000
01000000
00001000
00020000
00000000
00000000
00000000
00031000
00000000
00000000
00000000
,
00021000
00032000
00023000
00032000
00023000
00001000
00031000
00000000
,
00010000
00001000
00010000
00000010
00001000
00000010
00000100
00000001
00002000
00000000
00000000
00000000
00003002
00000000
00000000
00000000
,
00002003
00003200
00001300
00001100
00000220
00000000
00000330
00000000
,
00002001
00000000
00000000
00000000
00003001
00000100
00000010
00001000
00000020
00000000
00000000
00000000
00010030
00000000
00000000
00000000
,
00021000
00000000
00001000
00000000
00031000
01000000
00010000
01000000
00100000
00000000
01100000
00000000
01000000
00010000
00100000
01000000
,
10000000
00000000
11000000
00000000
01000000
00100000
00010000
10000000
00200000
00000000
01000000
00000000
01300000
00000000
00000000
00000000
,
20000000
01000000
32000000
00100000
03200000
00001000
00302000
00000000
,
00010000
00000100
00010000
00003010
,
00000002
00000010
00000023
00000100
00000230
00010000
00020300
00000000
,
00001000
01000000
00001000
00130000
,
20000000
00100000
00010000
00100000
30020000
00100000
00230000
00001000
,
00302000
00100000
00010000
00100000
00023000
00000100
00031000
00000100
,
00002000
00010000
00023000
00000100
00030200
00001000
00001300
00000010
,
00000110
00000000
00000000
00000000
00000000
00000000
00000000
00000000
00000001
00000010
00000100
00001000
00000001
00000010
00000100
00001000
,
00000001
00000000
00000011
00000001
00001001
00001000
00001100
00000100
,
00010100
00000000
00001000
00000000
00010100
00000000
00000000
00000000
01001000
00000000
00010000
00000000
01001000
00000000
01000000
00010000
,
00100000
01100000
11000000
00000000
10000000
10100000
01100000
00000000
,
01010000
01001000
00011000
00000000
00010100
00001100
00001010
00000000
,
00001001
00000001
00000010
00001000
00000010
00000001
00000100
00001000
,
00010000
00000000
00100000
00000000
10000000
00000000
01000000
00000000
00100000
00010000
01000000
00100000
10000000
01000000
00100000
00010000
,
00200000
00301000
00011000
00000000
00002000
00013000
00010010
00000000
,
00000020
00001030
00001100
00000000
00002000
00003100
00000110
00000000
,
00000012
00000013
00000021
00000031
00000012
00000023
00000031
00000011
,
00000001
00000101
00000100
00001100
00001000
00010000
00100000
00000000
,
20100000
30100000
10200000
10300000
20100000
30200000
10300000
10100000
,
10000000
11000000
01000000
01010000
00010000
00001000
00000010
00001000
,
00012000
00103000
00021000
00030010
00012000
01003000
00021000
00030100
,
00010200
00001300
00020010
00031000
02001000
03010000
00102000
00013000
,
00001000
00100000
00010000
01000000
00100000
01000000
00010000
00100000
00001000
00010000
00000100
00001000
00000010
00000100
00000010
00001000
,
00000100
00020000
00000000
00032000
00000000
00013000
00011000
00000000
,
00001000
00101000
00101000
00100000
00110000
01010000
01000000
01100000
,
10000000
01100000
00010000
01100000
10000000
00010000
00010000
00010000
,
10000000
11000000
11000000
01000000
01100000
00110000
00010000
00101000
,
00001000
00011000
00010000
00011000
00001000
00010000
00010000
00010000
,
00001000
00010100
00010100
00000100
00001100
00001010
00000010
00000110
,
00000001
00000110
00001000
00000110
00000001
00001000
00001000
00001000
,
00000200
00000310
00000110
00000010
00000002
00001003
00001001
00001000
,
00000200
00010300
00002000
01003000
00020000
10000000
10000000
10030000
,
00010000
00110000
11000000
10000000
10100000
01010000
00010000
10010000
,
10000000
01000000
00010000
00001000
00100000
00001000
00011000
00011000
,
00010000
00010100
00001100
00001000
00001010
00001001
00000001
00000011
,
00000010
00000001
00000100
00001000
00010000
00100000
00100000
00100000
,
10000000
10100000
10010000
00010000
01010000
10010000
10000000
11000000
,
01000000
01100000
00100000
00101000
00001000
00011000
00010000
00010100
,
00020000
00100000
00130000
00020000
00001000
00031000
00010000
01000000
,
00100000
00110000
00000000
00001100
00000000
00000011
00000001
00001000
,
00002002
00000000
00000000
00000000
00000000
00000000
00003003
00000000
00000001
00000100
00001000
00000000
00010000
00100000
01000000
00100000
,
01000000
01010000
00000000
10100000
00000000
20020000
00000000
30030000
,
10010000
01000000
00100000
01000000
10010000
10000000
01000000
00010000
,
00011000
00001000
00000010
00001000
00011000
00010000
00100000
00010000
,
00011000
00001000
00010000
00000100
00001100
00001000
00000001
00000010
,
00000110
00000100
00010000
00000100
00000110
00000010
00001000
00000010
,
00000011
00000000
00001001
00000000
00001001
00000000
00001100
00000000
00010100
00000000
00010100
00000000
00011000
00000000
00001000
00100000
,
00010000
00000000
00110000
00000000
01100000
00000000
11000000
00000000
10000000
01000000
00100000
00010000
20000000
00000000
30010000
00000000
,
10010000
10000000
00100000
00010000
00001000
00000100
00000110
00002010
,
00000001
00003001
00000011
00000010
00000110
00000100
00010000
00012000
,
00100000
00103000
00110000
00010000
01010000
01000000
01100000
20100000
,
00010000
30010000
00110000
00001000
00110000
00001000
00011000
00020000
,
00000100
00000000
00030100
00000000
00001000
00000000
00001010
00000000
00000001
00000100
00000010
00000000
00001000
00000010
00020000
00000000
,
00000000
00000000
00031000
00000000
00011000
00000000
00010000
00000000
00001000
00100000
00010000
00000000
01000000
00100000
10000000
00000000
,
11000000
00100000
00100000
01010000
00100000
00100000
11000000
10010000
,
00000000
10000000
01000000
00010000
00001000
00000010
00000001
00002000
,
00000000
00000000
00003000
00000000
,
00000000
00000000
00000000
00000000
;
