
//----- song ID: ausu -----//
#TITLE:Autosummer;
#ARTIST:Aoi;
#BANNER:Autosummer.png;
#BACKGROUND:Autosummer-bg.png;
#CDTITLE:./CDTitles/DDR WORLD.png;
#MUSIC:Autosummer.ogg;
#SAMPLESTART:69.154;
#SAMPLELENGTH:15;
#DISPLAYBPM:89:177;
#BPMS:0=177,132=88.5,148=177,180=88.5,184=177;
#STAGE:16;
#NOTES:
     dance-single:
     :
     Beginner:
     3:
     :
0000
0000
0000
0000
,
0000
0000
0000
0000
,
0000
0000
0000
0000
,
0000
0000
0000
0000
,
0000
0000
0000
0000
,
1000
0000
0000
0000
,
0000
0000
0000
0000
,
1000
0000
0000
0000
,
0000
0000
0000
0000
,
0010
0000
0000
0000
,
0010
0000
0000
0000
,
0001
0000
0000
0000
,
0000
0000
0000
0000
,
0001
0000
0000
0000
,
0001
0000
0000
0000
,
0010
0000
0000
0000
,
0000
0000
0000
0000
,
0010
0000
0000
0000
,
1000
0000
0000
0000
,
0010
0000
0000
0000
,
0000
0000
0000
0000
,
0010
0000
0000
0000
,
0001
0000
0000
0000
,
0010
0000
0000
0000
,
0000
0000
0000
0000
,
0001
0000
0001
0000
,
0010
0000
0000
0000
,
0010
0000
0010
0000
,
1000
0000
0000
0000
,
1000
0000
1000
0000
,
0010
0000
0000
0000
,
0010
0000
0010
0000
,
0001
0000
0000
0000
,
0002
0000
0003
0000
,
0020
0000
0030
0000
,
2000
0000
3000
0000
,
0200
0000
0300
0000
,
1000
0000
0000
0000
,
1000
0000
0000
0000
,
1000
0000
0010
0000
,
1000
0000
0000
0000
,
0010
0000
0000
0000
,
0010
0000
0000
0000
,
0001
0000
0001
0000
,
0010
0000
0000
0000
,
0001
0000
0000
0000
,
0001
0000
0000
0000
,
0001
0000
0000
0000
,
0001
0000
0001
0000
,
0010
0000
0000
0000
,
0010
0000
0000
0000
,
1000
0000
0000
0000
,
0010
0000
0010
0000
,
1000
0000
0000
0000
,
2000
0000
0000
0000
,
3000
0000
0000
0000
,
1000
0000
0100
0000
,
1000
0000
0000
0000
,
2000
0000
0000
0000
,
3000
0000
0000
0000
,
1000
0000
1000
0000
,
0010
0000
0000
0000
,
0020
0000
0000
0000
,
0030
0000
0000
0000
,
0002
0000
0000
0000
,
0003
0000
0000
0000
,
0001
0000
0100
0000
,
0001
0000
0000
0000
,
0001
0000
0001
0000
,
0010
0000
0000
0000
,
1001
0000
0000
0000
,
0000
0000
0000
0000
;
#NOTES:
     dance-single:
     :
     Easy:
     8:
     :
0000
0000
0000
0000
,
0000
0000
0000
0000
,
0000
0000
0000
0000
,
0000
0000
0000
0000
,
0000
0000
0000
0000
,
1000
0000
0000
0000
,
0001
0000
0000
0000
,
1000
0000
0000
0000
,
0001
0000
0000
0000
,
1000
0001
1000
0001
,
0100
0001
0100
0000
,
0001
1000
0001
1000
,
0010
1000
0010
0000
,
1000
0100
0010
0000
,
0001
0100
0010
0000
,
1000
0001
1000
0001
,
2000
0000
0000
3000
,
1000
0001
0010
0000
,
0001
1000
0010
0000
,
1000
0001
0100
0000
,
0001
1000
0100
0000
,
1000
0010
0100
0010
,
1000
0100
0010
0000
,
0001
0100
0010
0100
,
0001
0010
0100
0000
,
1000
0100
0001
0100
,
1000
0010
0100
0000
,
0001
0100
1000
0100
,
0001
0010
0100
0000
,
1000
0100
0010
0010
,
0001
0100
0010
0010
,
1000
0001
1000
0001
,
2000
0000
0000
3000
,
1001
0000
0000
0000
,
1001
0000
0000
0000
,
0001
0100
0001
0000
1000
0010
1000
0000
,
0001
0010
0001
0000
1000
0100
1000
0000
,
0002
0000
0000
0003
,
0001
0000
0010
0000
0100
1000
0100
0000
,
2000
0000
0000
3000
,
1000
0000
0010
0000
0100
0001
0100
0000
,
0001
1000
0100
0110
,
1000
0001
0100
0110
,
0001
0000
0100
0000
0010
0100
0010
0000
,
2000
0000
0000
3000
,
1001
0000
0000
0000
,
0002
0000
0000
0003
,
0001
1000
0010
0000
0100
0010
0100
0000
,
0002
0000
0000
0003
,
0001
0010
0100
0000
,
2000
0000
0000
3000
,
1000
0001
0010
0000
0100
0010
0100
0000
,
2000
0000
0000
3000
,
1000
0010
0100
0000
,
0001
0010
1000
0010
,
0001
0000
1000
0000
0100
0010
0001
0000
,
1000
0010
0001
0010
,
1000
0000
0001
0000
0100
0010
1000
0000
,
0001
0001
0100
0110
,
1000
1000
0100
0110
,
0001
1000
0001
0000
1000
0001
1000
0000
,
0100
0010
0100
0010
0100
0000
0110
0000
,
1001
0000
0000
0000
,
0000
0000
0000
0000
,
1001
0000
0000
0000
,
0000
0000
0000
0000
,
1000
0000
0001
0000
0100
0010
1000
0000
,
0001
0000
1000
0000
0010
0100
0001
0000
,
2000
3000
0002
0003
,
1001
0000
1000
0001
1000
0001
1000
0000
,
1001
0000
0000
0000
,
0000
0000
0000
0000
;
#NOTES:
     dance-single:
     :
     Medium:
     12:
     :
0000
0000
0000
0000
,
0000
0000
0000
0000
,
0000
0000
0000
0000
,
0000
0000
0000
0000
,
0000
0000
0000
0000
,
2000
0000
3000
0000
,
0200
0000
0300
0000
,
0020
0000
0030
0000
,
0002
0000
0003
0000
,
1000
0000
0001
1000
0010
0100
0001
1000
,
0000
0100
0010
0100
0000
1000
0001
1000
,
0000
0001
0100
0010
0100
0001
1000
0001
,
0000
1001
0000
1100
0000
0100
0010
0001
,
0010
0000
0001
1000
0100
0000
0010
0001
,
0100
0000
0010
1000
0100
0000
1000
0001
,
0010
0100
1000
0001
0000
0100
0010
1000
,
0000
0001
1000
0000
0001
1000
0000
0000
,
0001
0100
1000
0100
0001
1000
0001
0000
,
1000
0100
0001
0100
1000
0001
1000
0000
,
0001
0010
1000
0010
0001
1000
0001
0000
,
1000
0010
0001
0010
1000
0001
1000
0000
,
0001
0100
0010
1000
0100
0010
0001
0000
,
0010
0100
1000
0010
0100
0001
1000
0000
,
0001
0010
1000
0010
0001
1000
0100
0001
,
0100
1000
0001
0100
0000
0010
0100
0000
,
0001
0000
0100
0000
0010
0000
0000
1000
0000
0000
1001
0000
0000
0101
0000
0000
,
0100
0010
1000
0100
0010
0100
1000
0000
,
0001
0010
0100
0001
0100
1000
0001
0000
,
0010
0001
0100
0010
1000
0100
0010
0000
,
0001
0000
0010
0000
0100
0000
1000
0000
0010
0000
0000
0110
0000
0000
0000
1010
,
0000
0000
1000
0000
0001
0000
0000
0000
0100
0000
0000
0110
0000
0000
0000
0101
,
0000
0001
0010
1000
0010
0001
0100
0010
,
2000
3200
0320
0032
,
1003
0000
0010
0000
,
0100
0000
0001
0000
,
1000
0100
1000
0000
0001
0100
0001
0000
,
1000
0000
0010
0000
1000
0000
0000
0000
0001
0000
1000
0001
1000
0001
1000
0000
,
1001
0000
0000
0000
0001
0010
0100
1000
,
0000
0000
1001
0000
1000
0010
0100
0001
,
0000
0000
0001
1000
0000
0000
0001
1000
,
0000
0100
0010
0100
0010
0100
0010
0000
,
0002
0000
0103
0000
0200
0000
0310
1000
,
0200
0000
0310
0000
0020
0000
0031
0100
,
0010
1000
0100
0010
0001
0100
0010
1000
,
0200
0000
0310
0100
1000
0001
1000
0000
,
1001
0000
0000
0000
,
1000
0100
0001
0100
0010
0001
1000
0100
,
1000
0100
0001
0100
0010
0001
0100
0010
,
1000
0010
0001
0010
1000
0010
0100
0001
,
1000
0000
0100
0000
1000
0000
0010
0000
1000
0001
0000
1000
0001
0000
1000
0000
,
0001
0100
1000
0100
0010
1000
0001
0100
,
0001
0100
1000
0100
0010
1000
0100
0010
,
0001
0010
1000
0010
0001
0010
0100
1000
,
0001
0000
0100
0000
0001
0000
0000
0010
0000
0000
0001
0000
0000
1000
0000
0000
,
0001
0100
0010
1000
0001
0010
1000
0010
,
0001
1000
0100
0001
0100
0010
0100
0000
,
1000
0100
0010
0001
1000
0010
0001
0010
,
1000
0001
0100
1000
0100
0010
0100
0000
,
0001
0000
0010
0000
0100
0000
1000
0000
0001
0010
0001
0000
1000
0000
0000
0000
,
0001
0000
0100
0000
0010
0000
1000
0000
0001
0100
0001
0000
1000
0000
0000
0000
,
0001
0100
1000
0100
0001
0010
1000
0010
,
0001
0000
0001
0000
1000
0000
1000
0000
0010
0100
0000
0010
0100
0000
0010
0000
,
2000
0000
0000
0000
,
3000
0000
0000
0000
,
0002
0000
0000
0000
,
0003
0000
0000
0000
,
1000
0100
1000
0100
0010
0000
0011
0000
,
0001
0100
0001
0100
0010
0000
1010
0000
,
1000
0010
0100
0001
0010
0100
1000
0010
,
0200
0000
1300
0100
0001
1000
0001
0000
,
1001
0000
0000
0000
,
0000
0000
0000
0000
;
#NOTES:
     dance-single:
     :
     Hard:
     15:
     :
0000
0000
0000
0000
,
0000
0000
0000
0000
,
0000
0000
0000
0000
,
0000
0000
0000
0000
,
0000
0000
0000
0000
,
2000
0000
0000
3000
,
0002
0000
0000
0003
,
0200
0000
0000
0300
,
0020
0000
0000
0030
,
1000
0010
0100
0001
1000
0100
0010
0001
,
0010
0000
0100
0000
1000
0000
0010
0000
0100
0001
0100
0000
0001
0000
0000
0000
,
1000
0010
0100
0001
0010
0001
0100
0010
,
1000
0000
0100
0000
0010
0000
0001
0000
1000
0010
1000
0000
0010
0000
0000
0000
,
1000
0100
1000
0100
0010
0001
0010
0001
,
0100
0001
0100
0001
1000
0010
1000
0010
,
1000
0001
0100
0000
0010
0000
1000
0000
0001
1000
0100
0000
0010
0000
0001
0000
,
2000
0000
0000
3000
,
0001
0000
0100
0010
1000
0000
0100
0000
0010
0001
0000
0010
0001
0000
0000
0000
,
0001
0000
0010
0100
0000
0010
0100
0000
1000
0001
0000
1000
0001
0000
1000
0000
,
0010
0000
0100
0001
0100
0000
0010
0000
1000
0100
0000
1000
0100
0000
1000
0001
,
1000
0000
0010
0000
0001
0000
0010
0000
1000
0100
0000
0010
0001
0000
1000
0000
,
0001
0000
0010
0100
0010
0000
0001
0000
1000
0010
0000
1000
0010
0000
0000
0000
,
0010
0000
0100
0001
0000
0100
0001
0000
1000
0001
0000
1000
0001
0000
0010
0100
,
0010
0000
0001
0000
1000
0000
0010
0100
0010
0000
1000
0100
0000
0010
0001
0010
,
0001
0000
0100
0000
0010
0000
0110
0000
0000
0000
0100
0010
1000
0001
0100
0000
,
0001
0000
1000
0000
0010
0000
0100
0010
0000
0000
0110
0000
0000
0010
0100
0010
,
1000
0000
0100
0000
0010
0001
1000
0001
0000
1000
0000
1000
0000
0010
0000
0010
,
0100
0000
0001
0000
1000
0001
1000
0000
0100
0010
0000
0010
0000
0001
0000
0001
,
0100
0000
0010
1000
0001
0100
0001
0000
1000
0100
0010
0000
0001
1000
0001
1000
,
0001
0000
0010
0000
1000
0000
0010
0000
0001
1000
0000
0001
0000
1000
0000
1001
,
0000
0000
1001
0000
1000
0000
0100
0000
0010
0100
0000
0010
0000
0100
0000
0110
,
0000
0000
0010
0000
0001
0000
0100
0000
0010
1000
0000
0010
0000
1000
0000
0010
,
1000
0001
1000
0000
0001
0100
0001
0000
0100
0010
0100
0000
0010
1000
0010
0000
,
2000
0000
0000
3000
0200
0000
0000
0300
,
0020
0000
0000
0030
0002
0000
0000
0003
,
1000
0000
0010
0000
1000
0001
0000
0010
1000
0010
0001
0000
1001
0000
0001
0100
,
0001
0000
0010
0000
0001
1000
0010
0001
0000
0010
1000
0001
0100
0010
1000
0100
,
0000
0000
0110
0000
0010
0001
0100
0010
,
0000
0000
0110
0000
0010
1000
0100
0010
,
0000
0010
0001
0101
0000
0100
0010
1010
,
0000
1000
0010
0001
0010
1000
0010
0010
,
1000
0001
1000
0000
0010
0000
0100
0000
0001
1000
0001
0000
0010
0000
0100
0000
,
1000
0001
0100
0000
0010
0000
0100
0000
0001
1000
0100
0000
0010
0000
0100
0000
,
1000
0100
0010
0000
0001
0100
0010
0000
0100
0001
0010
0000
0100
1000
0010
0000
,
0210
0000
0000
0000
1300
0000
0100
0000
0001
1000
0001
1000
0001
0000
0010
0000
,
0110
0000
0000
0000
,
0001
0100
0010
0000
0100
0010
1000
0000
0010
0100
0001
0100
0000
0001
1000
0000
,
0001
0010
0100
0000
0010
0100
1000
0000
0100
0010
0001
1000
0000
0010
0100
0000
,
0001
0100
0010
0000
1000
0100
0010
0000
0001
1000
0100
1000
0000
0010
0100
0000
,
0001
0100
0001
0000
1000
0100
1000
0000
0010
0100
0000
0010
0000
0100
0010
0000
,
1000
0010
0100
0000
0010
0100
0001
0000
0100
0010
1000
0010
0000
1000
0001
0000
,
1000
0100
0010
0000
0100
0010
0001
0000
0010
0100
1000
0001
0000
0100
0010
0000
,
1000
0010
0100
0000
0001
0010
0100
0000
1000
0001
0010
0001
0000
0100
0010
0000
,
1000
0010
1000
0000
0001
0010
0001
0010
0000
0000
0100
0000
0000
0110
0000
0000
,
1000
0000
0100
0000
0001
0000
0100
0000
1000
0000
0010
0000
0100
0001
1000
0001
,
0100
0000
0010
0000
1000
0000
0100
0000
1000
0010
0000
0000
0110
0000
0100
0001
,
0100
0000
0001
0000
0100
0000
1000
0000
0100
0001
0000
0001
0010
0000
0100
0010
,
0001
0000
0011
0000
1000
0000
1010
0000
0010
0100
0000
0001
2000
0000
0000
0000
,
3001
0010
0001
0000
1000
0100
1000
0000
0010
1000
0010
0000
0100
0001
0100
0000
,
0001
0100
0010
0000
1000
0010
0100
0000
0001
1000
0100
0000
0010
0001
1000
0000
,
0010
1000
0100
0000
0010
0001
0100
0000
0010
0000
0100
0010
0000
0010
0100
0010
,
1000
0000
1100
0000
0001
0000
0011
0000
0010
0100
0000
0100
1000
0000
0001
1000
,
0002
0000
0000
0000
,
0000
0000
0000
0003
,
2000
0000
0000
0000
,
0000
0000
0000
3000
,
0001
0010
0100
1000
0010
0100
0001
0010
,
0100
1000
0010
0100
0001
0010
0100
1000
,
0001
0010
0100
1000
0010
0100
0001
0000
1000
0100
0010
0001
0100
0010
1000
0000
,
0001
0000
0100
0001
0010
0000
0100
1000
0000
0010
1000
0100
1000
0000
0001
0000
,
1001
0000
0000
0000
,
0000
0000
0000
0000
;
#NOTES:
     dance-double:
     :
     Easy:
     8:
     :
00000000
00000000
00000000
00000000
,
00000000
00000000
00000000
00000000
,
00000000
00000000
00000000
00000000
,
00000000
00000000
00000000
00000000
,
00000000
00000000
00000000
00000000
,
00001000
00000000
00000000
00000000
,
00010000
00000000
00000000
00000000
,
00001000
00000000
00000000
00000000
,
00010000
00000000
00000000
00000000
,
00001000
00010000
00001000
00010000
,
00001000
01000000
00001000
00000000
,
01000000
00010000
01000000
00010000
,
01000000
00100000
01000000
00000000
,
00100000
10000000
01000000
00000000
,
00100000
00010000
01000000
00000000
,
00010000
01000000
00001000
00010000
,
00002000
00000000
00000000
00003000
,
00001000
00010000
00000010
00000000
,
00001000
00000010
00001000
00000000
,
00000100
00000010
00000001
00000000
,
00001000
00000001
00001000
00000000
,
00000001
00000100
00001000
00000000
,
00010000
00001000
00010000
00000000
,
00001000
00010000
00100000
00000000
,
10000000
00100000
10000000
00000000
,
10000000
00010000
00100000
01000000
,
00100000
00010000
10000000
00000000
,
10000000
01000000
00100000
00001000
,
00010000
00001000
00010000
00000000
,
00001000
00010000
00000100
00000100
,
00001000
00000010
00000100
00000100
,
00000001
00000010
00000100
00000000
,
00002000
00000000
00000000
00003000
,
00001001
00000000
00000000
00000000
,
00000001
00000100
00001000
00000000
,
00011000
00000000
00000000
00000000
,
00010000
00100000
10000000
00000000
,
00020000
00000000
00000000
00030000
,
00010000
00000000
10000000
00000000
01000000
00100000
01000000
00000000
,
00020000
00000000
00000000
00030000
,
00010000
00000000
00001000
00000000
00010000
00001000
00010000
00000000
,
00001000
00000010
00000001
00000000
,
00001000
00000100
00000010
00000000
,
00000001
00000000
00000100
00000000
00000010
00000100
00000010
00000000
,
00001000
00000000
00000000
00000000
,
00001001
00000000
00000000
00000000
,
00000002
00000000
00000000
00000003
,
00000001
00000100
00000010
00000000
00001000
00000000
00000010
00000000
,
00020000
00000000
00000000
00030000
,
00010000
00001000
00100000
00000000
,
00020000
00000000
00000000
00030000
,
10000000
00010000
01000000
00000000
00010000
00000000
00100000
00000000
,
00002000
00000000
00000000
00003000
,
00001000
00010000
00001000
00000000
,
00010000
00001000
00000010
00000001
,
00001000
00000000
00000100
00000000
00000010
00000001
00001000
00000000
,
00000001
00000100
00001000
00010000
,
00100000
00000000
10000000
00000000
00010000
01000000
00100000
00000000
,
10000000
01000000
01100000
00000000
,
00100000
00001000
00011000
00000000
,
00010000
00000100
00001000
00000001
,
00000100
00000010
00000100
00000010
00000100
00000000
00000001
00000000
,
00001001
00000000
00000000
00000000
,
00000000
00000000
00000000
00000000
,
00000001
00000010
00001000
00000000
,
00010000
01000000
10000000
00000000
,
10000000
00000000
00100000
00000000
01000000
00010000
01000000
00000000
,
00010000
00000000
00100000
00000000
00001000
00010000
00001000
00000000
,
00010000
00000100
00001000
00000100
,
00000110
00000000
00000001
00001000
00000001
00001000
00000001
00000000
,
00001001
00000000
00000000
00000000
,
00000000
00000000
00000000
00000000
;
#NOTES:
     dance-double:
     :
     Medium:
     12:
     :
00000000
00000000
00000000
00000000
,
00000000
00000000
00000000
00000000
,
00000000
00000000
00000000
00000000
,
00000000
00000000
00000000
00000000
,
00000000
00000000
00000000
00000000
,
00001000
00010000
00001000
00000000
,
00010000
00001000
00010000
00000000
,
00001000
00010000
00100000
00000000
,
10000000
00010000
10000000
00000000
,
00010000
00000000
10000000
01000000
10000000
01000000
00100000
00000000
,
00010000
00000000
01000000
00010000
01000000
00001000
00010000
00000000
,
00001000
00000000
00010000
00000100
00010000
00000100
00001000
00000000
,
00000010
00000000
00001000
00000010
00000100
00000001
00000100
00000000
,
00000001
00000010
00000100
00000000
00001000
00000000
00000100
00000000
,
00010000
00001000
00010000
00000000
00001000
00000000
01000000
00000000
,
00010000
00100000
01000000
00000000
10000000
00100000
01000000
00000000
,
10010000
00000000
00010000
10000000
00010000
10000000
00010000
00000000
,
10000000
01000000
00100000
01000000
00010000
00001000
00010000
00000000
,
00001000
00010000
00000100
00001000
00000100
00010000
00001000
00000000
,
00010000
00000100
00001000
00000100
00000010
00000001
00000010
00000000
,
00000001
00000100
00001000
00000100
00000001
00001000
00000001
00000000
,
00000001
00000010
00000100
00000010
00001000
00010000
00001000
00000000
,
00010000
00001000
00100000
00010000
00100000
00001000
00010000
00000000
,
00001000
00100000
00010000
00100000
01000000
10000000
01000000
00000000
,
10000000
00100000
00010000
00100000
00000000
00100000
10000000
00000000
,
00010000
00000000
01000000
00000000
00100000
00000000
00000000
10000000
00000000
00000000
10100000
00000000
00000000
10010000
00000000
00000000
,
00010000
00100000
00001000
00010000
00001000
00010000
00000100
00000000
,
00000010
00000001
00000100
00000010
00001000
00000100
00000010
00000000
,
00000001
00000100
00001000
00000100
00001000
00010000
00001000
00000000
,
00010000
00001000
00010000
00001000
00010000
01000000
00100000
00010000
,
10000000
01000000
10000000
01000000
00100000
00010000
10000000
00000000
,
00010000
01000000
00100000
00010000
00001000
00000100
00000010
00001000
,
00000200
00000000
00000000
00000300
,
00000110
00000000
00000001
00000000
,
00001000
00000000
00010000
00000000
,
10000000
00000000
10000000
00000000
00100000
01000000
00100000
00000000
,
00010000
00001000
00010000
00000000
00002000
00000000
00000000
00000000
,
00013000
00000000
00000000
00000000
00011000
00000000
00010000
00000100
,
00000000
00000000
00000110
00000000
00000010
00000001
00000100
00000010
,
00000000
00000010
00001000
00000100
00000000
00000100
00010000
00001000
,
00000000
00001000
00100000
00000000
00010000
01000000
00010000
00000000
,
20000000
00000000
32000000
00000000
03200000
00000000
00310000
01000000
,
00002000
00000000
00023000
00000000
00030200
00000000
00001300
00000010
,
00000100
00000001
00001000
00000000
00000100
00000010
00000001
00000000
,
00001001
00000000
00000001
00000100
00001000
00010000
00001000
00000000
,
00011000
00000000
00000000
00000000
,
00010000
00001000
00100000
00010000
01000000
00100000
00010000
00100000
,
10000000
01000000
00100000
00010000
01000000
00001000
00010000
00001000
,
00000010
00000001
00001000
00000100
00000001
00000100
00001000
00000001
,
00000100
00000000
00000010
00000000
00001000
00000000
00000100
00000000
00000010
00000100
00000000
00000010
00000100
00000000
00001000
00000000
,
00000001
00000010
00000100
00001000
00000001
00000100
00000001
00001000
,
00000100
00010000
00001000
00100000
00010000
10000000
00100000
10000000
,
00010000
01000000
10000000
01000000
00010000
00100000
01000000
10000000
,
01000000
00000000
00010000
00000000
01000000
00000000
00000000
00100000
00000000
00000000
00010000
00000000
00000000
00100000
00000000
00000000
,
00001000
00010000
00000100
00001000
00000010
00001000
00000100
00000000
,
00000010
00000001
00000100
00001000
00010000
00001000
00010000
00000000
,
00001000
01000000
00010000
01000000
00100000
10000000
01000000
00000000
,
10000000
01000000
00010000
01000000
10000000
00010000
00100000
00000000
,
00010000
00000000
01000000
00000000
00100000
00000000
00010000
00000000
00001000
00010000
00001000
00000000
00010000
00000000
00000000
00000000
,
00001000
00000000
00010000
00000000
00000100
00000000
00001000
00000000
00000010
00000100
00000010
00000000
00001000
00000000
00000000
00000000
,
00000001
00000010
00000100
00010000
00001000
00100000
01000000
10000000
,
00010000
00000000
00010000
00000000
01000000
00000000
01000000
00000000
00100000
10000000
00000000
00100000
10000000
00000000
00010000
00000000
,
02000000
00000000
00000000
00000000
,
03000000
00000000
00000000
00000000
,
00200000
00000000
00000000
00000000
,
00300000
00000000
00000000
00000000
,
10000000
00100000
10000000
00100000
01000000
00000000
01010000
00000000
,
00010000
01000000
00001000
00010000
00001000
00000000
00011000
00000000
,
00010000
00000100
00001000
00000010
00000100
00000001
00000010
00000001
,
00000200
00000000
00000310
00001000
00000010
00010000
00001000
00000000
,
00011000
00000000
00000000
00000000
,
00000000
00000000
00000000
00000000
;
#NOTES:
     dance-double:
     :
     Hard:
     15:
     :
00000000
00000000
00000000
00000000
,
00000000
00000000
00000000
00000000
,
00000000
00000000
00000000
00000000
,
00000000
00000000
00000000
00000000
,
00000000
00000000
00000000
00000000
,
00002000
00000000
00000000
00003000
,
00020000
00000000
00000000
00030000
,
00002000
00000000
00000000
00003000
,
00020000
00000000
00000000
00030000
,
00001000
00010000
00000100
00001000
00000100
00000010
00000001
00000000
,
00000010
00000000
00000001
00000000
00000100
00000000
00000010
00000000
00001000
00000010
00001000
00000000
00000010
00000000
00000000
00000000
,
00001000
00000100
00010000
00001000
00100000
00010000
00100000
00000000
,
00010000
00000000
01000000
00000000
00100000
00000000
10000000
00000000
00010000
01000000
00010000
00000000
10000000
00000000
00000000
00000000
,
00010000
00100000
00010000
00100000
01000000
10000000
01000000
00010000
,
00001000
00010000
00001000
00010000
00000100
00001000
00000010
00001000
,
00000100
00000010
00000001
00000000
00000100
00000000
00000010
00000000
00001000
00000010
00000100
00000000
00000001
00000000
00000010
00000000
,
00000200
00000000
00000000
00000300
,
00001000
00000000
00000100
00000010
00000001
00000000
00000100
00000000
00000010
00001000
00000000
00000010
00001000
00000000
00000000
00000000
,
00001000
00000000
00000100
00010000
00000000
00000100
00010000
00000000
00001000
00010000
00000000
00001000
00010000
00000000
00000000
00000000
,
00001000
00000000
00100000
00010000
00100000
00000000
00010000
00000000
01000000
00010000
00000000
01000000
00010000
00000000
01000000
00100000
,
01000000
00000000
00100000
00000000
10000000
00000000
01000000
00000000
00100000
00010000
00000000
00100000
00001000
00000000
00010000
00000000
,
00001000
00000000
00010000
00001000
00010000
00000000
00000100
00000000
00001000
00000010
00000000
00001000
00000010
00000000
00000000
00000000
,
00000010
00000000
00000100
00000001
00000000
00000100
00000001
00000000
00000010
00000100
00000000
00000010
00000100
00000000
00001000
00000100
,
00001000
00000000
00000100
00000000
00010000
00000000
00001000
00010000
00001000
00000000
01000000
00010000
00000000
00100000
00010000
00100000
,
00010000
00000000
10000000
00000000
01000000
00000000
01100000
00000000
00000000
00000000
00100000
01000000
10000000
00010000
01000000
00000000
,
00100000
00000000
00010000
00000000
00001000
00000000
00010000
00001000
00000000
00000000
00011000
00000000
00000000
00010000
00001000
00010000
,
00000100
00000000
00001000
00000000
00000010
00000100
00000001
00000100
00000000
00000001
00000000
00001000
00000000
00000001
00000000
00000010
,
00000100
00000000
00001000
00000000
00000100
00010000
00000100
00000000
00010000
00001000
00000000
00100000
00000000
00010000
00000000
01000000
,
00010000
00000000
00100000
01000000
10000000
01000000
00100000
00000000
00010000
01000000
00010000
00000000
01000000
00001000
00010000
00001000
,
00010000
00000000
00001000
00000000
00000010
00000000
00000001
00000000
00001000
00000100
00000000
00000010
00000000
00000001
00000000
00001001
,
00000000
00000000
00001001
00000000
00000001
00000000
00000100
00000000
00000010
00001000
00000000
00000010
00000000
00010000
00000000
00011000
,
00000000
00000000
00010000
00000000
00001000
00000000
01000000
00000000
00010000
00100000
00000000
01000000
00000000
10000000
00000000
00100000
,
01000000
00010000
01000000
00000000
00010000
00100000
00010000
00000000
00100000
00001000
00100000
00000000
00001000
00010000
00001000
00000000
,
00020000
00000000
00000000
00030000
00002000
00000000
00000000
00003000
,
00000200
00000000
00000000
00000300
00000002
00000000
00000000
00000003
,
00000001
00000000
00000010
00000000
00000100
00001000
00000000
00001000
00000100
00010000
00001000
00000000
00011000
00000000
00010000
00001000
,
01000000
00000000
00010000
00000000
00100000
01000000
10000000
00010000
00000000
10000000
01000000
00010000
00001000
00000010
00000001
00001000
,
00000000
00000000
00001001
00000000
00000001
00000100
00000010
00001000
,
00000000
00000000
00001010
00000000
00000010
00010000
00001000
00010000
,
00000000
00010000
01000000
10000000
00000000
00100000
00010000
00001000
,
00000000
00000100
00000001
00000010
00000100
00000001
00000100
00001000
,
00000100
00010000
00000100
00000000
00010000
00000000
00001000
00000000
00100000
00010000
00100000
00000000
00010000
00000000
01000000
00000000
,
00100000
10000000
00100000
00000000
10000000
00000000
01000000
00000000
10000000
00010000
10000000
00000000
01000000
00000000
00010000
00000000
,
00001000
00000000
00000010
00000001
00001000
00000000
00000001
00000100
00000010
00000000
00010000
00001000
00010000
00000000
00001000
00100000
,
00020000
00000000
00000000
00000000
01030000
00000000
00100000
00000000
10000000
00010000
10000000
00010000
10000000
00000000
00100000
00000000
,
01100000
00000000
00000000
00000000
,
10000000
01000000
10000000
00000000
00010000
01000000
00010000
00000000
00100000
00010000
00100000
00010000
00000000
00100000
00001000
00000000
,
00010000
00001000
00010000
00000000
00000100
00001000
00000100
00000000
00000010
00000001
00000010
00000001
00000000
00001000
00000001
00000000
,
00000100
00000010
00000100
00000000
00000010
00001000
00000010
00000000
00010000
00000010
00010000
00000010
00000000
00010000
00001000
00000000
,
00010000
00001000
00010000
00000000
00001000
01000000
00001000
00000000
01000000
00010000
00000000
00100000
00000000
01000000
10000000
00000000
,
00010000
00100000
01000000
00000000
10000000
00100000
01000000
00000000
00010000
00100000
01000000
00100000
00000000
00001000
00010000
00000000
,
00001000
00010000
00000010
00000000
00001000
00000010
00000100
00000000
00000001
00000010
00000100
00001000
00000000
00000010
00000100
00000000
,
00000001
00000100
00000010
00000000
00000100
00000010
00001000
00000000
00000010
00010000
00001000
00010000
00000000
00001000
01000000
00000000
,
00010000
01000000
00010000
00000000
00100000
01000000
00100000
01000000
00000000
00000000
10000000
00000000
00000000
10010000
00000000
00000000
,
10000000
00000000
01000000
00000000
00010000
00000000
00001000
00000000
00000010
00000000
00000001
00000000
00001000
00000100
00000010
00000000
,
00000001
00000000
00000100
00000000
00001000
00000000
00010000
00000000
00100000
10000000
00000000
00000000
10100000
00000000
10000000
00010000
,
10000000
00000000
00100000
00000000
00010000
00000000
00001000
00000000
00000100
00000001
00000000
00001000
00000000
00000001
00000100
00000000
,
00000001
00000000
00000011
00000000
00000010
00000000
00000110
00000000
00000100
00001000
00000000
00000100
00000000
00010000
00001000
00000000
,
00010000
00001000
01000000
00000000
00010000
00100000
01000000
00000000
10000000
00100000
10000000
00100000
02000000
00000000
00000000
00000000
,
03010000
00100000
00010000
00000000
00100000
00001000
00010000
00000000
00000100
00001000
00000010
00000100
00000002
00000000
00000000
00000000
,
00000013
00000100
00001000
00000000
00000100
00010000
00001000
00000000
00100000
00000000
00010000
01000000
00000000
01000000
00100000
01000000
,
00010000
00000000
00110000
00000000
00100000
00000000
01100000
00000000
10000000
01000000
00000000
01000000
00100000
00000000
00001000
00010000
,
00002000
00000000
00000000
00000000
,
00000000
00000000
00000000
00003000
,
00020000
00000000
00000000
00000000
,
00000000
00000000
00000000
00030000
,
00010000
00000100
00001000
00000010
00000100
00000001
00000010
00000100
,
00010000
00001000
00100000
00010000
01000000
00100000
10000000
00010000
,
10000000
01000000
00100000
00010000
00100000
00001000
00010000
00000000
00001000
00010000
00000100
00001000
00000100
00000010
00000001
00000000
,
00001001
00000000
00000001
00000100
00000010
00000000
00000100
00001000
00000000
00001000
00010000
00000000
00100000
00000000
10000000
00000000
,
10010000
00000000
00000000
00000000
,
00000000
00000000
00000000
00000000
;
