
//----- song ID: asbl -----//
#TITLE:Astra Blaze;
#ARTIST:MK;
#BANNER:Astra Blaze.png;
#BACKGROUND:Astra Blaze-bg.png;
#CDTITLE:./CDTitles/bm IIDX 33 Sparkle Shower.png;
#MUSIC:Astra Blaze.ogg;
#SAMPLESTART:2.865;
#SAMPLELENGTH:15;
#DISPLAYBPM:168;
#BPMS:0=167.5,4=168;
#BGSTAGE:15;
#NOTES:
     dance-single:
     :
     Beginner:
     3:
     :
0000
0000
0000
0000
,
0000
0000
0000
0000
,
0000
0000
0000
0000
,
0000
0000
0000
0000
,
0000
0000
0000
0000
,
0000
0000
0000
0000
,
2000
0000
0000
0000
,
0000
0000
3000
0000
,
0002
0000
0000
0000
,
0000
0000
0003
0000
,
1000
0000
0000
0000
,
0001
0000
0000
0000
,
0010
0000
0000
0000
,
0200
0000
0300
0000
,
1000
0000
0000
0000
,
0001
0000
0000
0000
,
0010
0000
0000
0000
,
0200
0000
0300
0000
,
2000
0000
0000
3000
,
0000
0000
0000
0000
,
1000
0000
0000
0000
,
0001
0000
0000
0000
,
1000
0000
0000
0000
,
0010
0000
0000
0000
,
0100
0000
0000
0000
,
0001
0000
0000
0000
,
1001
0000
0000
0000
,
1000
0000
1000
0000
,
0001
0000
0000
0000
,
0001
0000
0001
0000
,
1000
0000
0000
0000
,
0010
0000
0010
0000
,
0100
0000
0000
0000
,
0002
0000
0003
0000
,
1000
0000
1000
0000
,
0001
0000
0000
0000
,
0001
0000
0001
0000
,
1000
0000
0000
0000
,
0010
0000
0010
0000
,
0100
0000
0000
0000
,
0010
0010
0000
0000
,
0020
0000
0030
0000
,
1000
0000
0000
0000
,
0001
0000
0000
0000
,
0010
0000
0000
0000
,
0100
0000
0000
0000
,
1000
0000
0000
0000
,
0001
0000
0000
0000
,
1000
0000
0001
0000
,
2000
0000
3000
0000
,
1000
1000
0000
0000
,
0001
0001
0000
0000
,
0010
0010
0000
0000
,
0100
0100
0000
0000
,
1000
0000
1000
0000
,
0001
0000
0001
0000
,
1000
1000
1000
1000
,
2000
0000
3000
0000
,
0001
0000
0000
0000
,
1000
0000
0000
0000
,
0010
0000
0000
0000
,
0100
0000
0000
0000
,
0001
0000
0000
0000
,
1000
0000
0000
0000
,
0010
0010
0000
0000
,
0100
0000
0000
0000
,
0001
0000
0001
0000
,
1000
0000
1000
0000
,
0010
0000
0010
0000
,
0100
0000
0100
0000
,
0001
0000
0000
0000
,
1000
0000
1000
0000
,
1000
0000
0000
0000
,
0001
0000
0001
0000
,
0002
0000
0000
0003
,
0000
0000
0000
0000
,
1000
0000
0000
0000
,
0001
0000
0000
0000
,
1000
0000
1000
0000
,
0001
0000
0001
0000
,
1000
1000
1000
1000
,
0001
0000
1000
0000
,
1001
0000
0000
0000
,
0000
0000
0000
0000
;
#NOTES:
     dance-single:
     :
     Easy:
     7:
     :
0000
0000
0000
0000
,
0000
0000
0000
0000
,
0000
0000
0000
0000
,
0000
0000
0000
0000
,
0000
0000
0000
0000
,
0000
0000
0000
0000
,
1000
0000
0000
1000
0000
0000
0002
0000
,
0000
0000
0003
0000
,
0001
0000
0000
0001
0000
0000
2000
0000
,
0000
0000
3000
0000
,
0010
1001
0000
0000
,
0010
1001
0000
0000
,
0100
1001
0000
0000
,
0001
0000
0000
0002
0000
0000
0003
0000
,
0100
1001
0000
0000
,
0100
1001
0000
0000
,
0010
1001
0000
0000
,
1000
0100
0010
0001
,
2000
0000
3002
0000
,
0203
0000
0320
0000
,
1030
1000
0001
0001
,
0100
0100
0010
0000
,
1000
0100
1000
0100
,
0010
0001
0010
0001
,
1000
1000
0001
0001
,
1000
0001
0100
0010
,
1001
0000
0001
0010
,
0100
0010
0001
1000
,
0010
0000
1000
0010
,
0100
0010
1000
0001
,
0010
0000
0001
0001
,
0010
0010
0100
0100
,
1000
1000
0100
0000
,
0010
0000
0000
0200
0000
0000
0300
0000
,
1000
0010
1000
0010
,
1000
0001
0100
0000
,
0001
0010
0001
0010
,
0001
1000
0100
0000
,
1000
1000
0010
0100
,
0001
0001
1000
0000
,
0001
0001
0010
0100
,
1000
0000
0000
2000
0000
0000
3000
0000
,
0002
0000
0203
0000
,
0320
0000
2030
0000
,
3002
0000
0023
0000
,
0230
0000
2300
0000
,
3001
0000
0001
0000
,
1000
0000
1000
0000
,
0001
0100
0010
2000
,
0000
0000
3000
0000
,
0001
0001
0010
0100
,
1000
1000
0010
0100
,
0010
0010
1000
0001
,
0100
0100
0001
1000
,
0001
0001
1000
1000
,
0010
0010
0100
0100
,
0001
0001
1000
1000
,
0010
0100
0001
1000
,
1001
0000
0001
0001
,
0010
0100
1000
0100
,
0010
0000
0100
0100
,
1000
0100
0010
0100
,
1000
0000
0001
0001
,
0100
0010
1000
0010
,
0100
0000
0010
0010
,
1000
0001
1000
0001
,
1000
1000
0001
0010
,
0100
0010
0001
0001
,
1000
0000
1000
1000
,
0100
0010
0001
0010
,
0100
0000
0010
0010
,
0001
0010
0001
0010
,
0100
0000
1000
1000
,
0010
0010
0100
0100
,
0002
1000
0000
1003
,
2000
0001
0000
3001
,
0001
0010
0100
1000
,
0100
0010
0100
0110
,
1000
1000
0100
0000
,
0010
0010
0001
0000
,
1000
1000
0001
0001
,
0010
0000
0000
0200
0000
0300
1000
0000
,
1001
0000
0000
0000
,
0000
0000
0000
0000
;
#NOTES:
     dance-single:
     :
     Medium:
     13:
     :
0000
0000
0000
0000
,
0000
0000
0000
0000
,
0000
0000
0000
0000
,
0000
0000
0000
0000
,
0000
0000
0000
0000
,
0000
0000
0000
0000
,
2002
3003
0000
0220
0330
0000
2002
0000
,
0000
0000
3003
1000
0100
1000
0010
1000
,
0001
0000
0001
0010
0000
0100
2000
0000
,
0000
0000
0000
3000
,
0001
0000
0001
0000
0001
0000
0000
0000
1000
0000
0001
0010
0000
0001
0010
0000
,
0001
0000
0001
0000
0001
0000
0000
0000
0100
0000
0010
1000
0000
0010
1000
0000
,
0001
0000
0001
0000
0001
0000
0000
0000
0010
0000
0100
1000
0000
0100
1000
0000
,
0002
0023
0032
2003
0000
0000
3001
0000
,
1000
0000
1000
0000
1000
0000
0000
0000
0001
0000
1000
0100
0000
1000
0100
0000
,
1000
0000
1000
0000
1000
0000
0000
0000
0010
0000
0100
0001
0000
0100
0001
0000
,
1000
0000
1000
0000
1000
0000
0000
0000
0100
0000
0010
0001
0000
0010
0001
0000
,
2000
3200
0320
0032
,
2003
0001
0000
3001
,
0002
1000
0000
0013
,
0020
0100
0000
0130
,
0200
0010
0000
1300
,
1000
0100
0001
0000
0001
0100
1000
0000
,
0001
0100
1000
0000
1000
0100
0001
0000
,
0101
0101
1010
1010
,
0020
0030
0000
0000
0000
0000
0000
0000
2000
3000
0000
0000
0000
0000
0000
0000
0020
0030
0000
0000
0000
0000
0000
0000
2000
3000
0000
0000
0000
0000
0000
0000
0001
0000
0000
0000
1000
0000
0000
0000
0001
0000
0000
0000
0000
0000
0000
0000
1001
0000
0000
0000
0000
0000
0000
0000
0000
0000
0000
0000
0000
0000
0000
0000
,
1001
0000
0000
0000
1000
0100
1000
0100
,
1000
0000
0100
0000
1000
0000
0100
0000
1000
0100
1000
0000
1100
0000
0000
0000
,
0011
0000
0000
0000
0001
0010
0001
0010
,
0001
0000
0010
0000
0001
0000
0010
0000
0001
0010
0001
0000
0011
0000
0000
0000
,
1001
0000
0000
0000
1000
0001
1000
0001
,
1000
0000
0001
0000
1000
0000
0001
0000
1000
0001
1000
0000
1001
0000
0000
0000
,
0002
0003
2000
3000
0002
0003
0000
0000
1000
0000
0100
0000
0010
0000
0100
0000
,
2000
3002
0023
0230
0000
0000
1300
0000
,
1000
0000
0000
0001
0000
0000
1000
0000
0001
0000
0000
0001
0100
0000
0000
0000
,
0100
0000
0000
0100
0001
0000
0000
0000
1000
0000
0000
1000
0010
0000
0000
0000
,
1001
0000
0000
0000
0000
0000
0000
0000
1000
0000
0000
1000
0100
0000
0000
0000
,
0100
0000
0000
0100
1000
0000
0000
0000
0001
0000
0000
0001
0010
0000
0000
0000
,
1001
0000
0000
0000
0000
0000
0000
0000
1000
0000
0000
1000
0100
0000
0010
0000
,
0001
0000
0000
0001
0100
0000
0010
0000
1000
0000
0000
1000
0001
0000
0100
0000
,
0001
0000
1000
0000
0001
0000
0000
0000
1000
0000
0000
1000
0010
0000
0100
0000
,
0001
0100
0001
0200
0000
0000
0301
0000
,
0002
0000
0000
0023
0000
0000
2030
0000
,
0000
0000
3000
0000
0010
0001
0010
0100
,
2000
0000
0000
3020
0000
0000
0032
0000
,
0000
0000
0003
0010
1000
0010
0100
0001
,
2000
0000
0000
3200
0000
0000
0320
0000
,
0000
0000
0000
0000
0031
0010
1000
0010
,
0001
0100
0001
0200
0000
0001
0302
0000
,
0000
0000
0000
0003
,
1000
0100
0001
0100
1000
0001
0100
1000
,
0100
0010
0001
0010
1000
0001
0010
0000
,
0100
0010
1000
0010
0001
0100
1000
0100
,
0001
0010
0100
0010
1000
0010
0001
0000
,
1000
0100
1000
0000
0001
0010
0001
0000
,
1000
0010
1000
0000
0001
0100
0001
0000
,
1000
0100
0010
0001
1000
0100
0010
0001
,
1000
0000
1000
0000
0001
0000
0001
0000
1000
0100
1000
0000
1100
0000
0000
0000
,
1001
0000
0000
0000
1000
0000
0100
0000
1000
0100
1000
0000
0001
0000
0000
0000
,
0100
0010
0100
0000
0001
0000
0000
0000
0010
0100
0010
0000
0001
0000
0000
0000
,
1001
0000
0001
0100
0001
0010
0100
1000
,
0001
0100
0010
1000
0001
0010
0100
1000
,
1001
0000
0000
0000
0001
0000
0100
0000
0001
0100
0001
0000
1000
0000
0000
0000
,
0100
0010
0100
0000
1000
0000
0000
0000
0010
0100
0010
0000
1000
0000
0000
0000
,
0001
0001
0001
0000
1000
0100
0010
0001
,
2000
0000
0000
3002
0000
0000
1003
0000
,
0001
0000
0000
1000
0000
0000
0001
0000
1000
0000
0000
1000
0010
0000
0000
0000
,
0010
0000
0000
0010
1000
0000
0000
0000
0001
0000
0000
0001
0100
0000
0000
0000
,
1001
0000
0000
0000
0000
0000
0000
0000
0001
0000
0000
0001
0010
0000
0000
0000
,
0010
0000
0000
0010
0001
0000
0000
0000
1000
0000
0000
1000
0100
0000
0000
0000
,
1001
0000
0000
0000
0000
0000
0000
0000
0001
0000
0000
0001
0010
0000
0100
0000
,
1000
0000
0000
1000
0010
0000
0100
0000
0001
0000
0000
0001
1000
0000
0010
0000
,
1000
0000
0001
0000
1000
0000
0000
0000
0001
0000
0000
0001
0100
0000
0010
0000
,
1000
0100
1000
0100
0010
0001
0010
0001
,
2000
0001
0000
3001
,
0002
1000
0000
0013
,
0020
0100
0000
0130
,
0200
0010
0000
1300
,
1000
0100
0001
0000
0001
0100
1000
0000
,
0001
0100
1000
0000
1000
0100
0001
0000
,
0001
1000
0010
0100
0001
0010
0100
1000
,
0020
0030
0200
0300
0020
0030
0200
0000
0000
0000
0000
0000
0310
0000
0100
0000
,
0001
0000
0000
0000
,
0000
0000
0000
0000
;
#NOTES:
     dance-single:
     :
     Hard:
     16:
     :
0000
0000
0000
0000
,
0000
0000
0000
0000
,
0000
0000
0000
0000
,
0000
0000
0000
0000
,
0000
0000
0000
0000
,
0000
0000
0000
0000
,
2002
3003
0000
0220
0330
0000
2002
0000
,
3003
0000
0000
0000
1000
0000
0100
0001
0100
0000
1000
0000
0010
0000
0100
0000
,
0001
0010
0001
1000
0000
0001
2000
0000
,
0001
0010
0100
3001
,
1100
0000
1010
0000
1001
0000
0001
0010
0001
0000
0010
0100
0000
1000
0001
0000
,
0101
0000
0011
0000
1001
0000
1000
0010
1000
0000
0010
0100
0000
0001
1000
0000
,
1001
0000
1010
0000
1100
0000
0100
0010
0100
0000
0010
0001
0000
1000
0100
0000
,
0020
0230
0320
0032
0000
0000
1003
0100
,
1100
0000
0011
0000
1001
0000
0001
0010
0100
0000
1000
0100
0000
1000
0010
0000
,
1010
0000
0101
0000
1001
0000
1000
0010
0100
0000
0001
0100
0000
0001
0010
0000
,
1100
0000
0101
0000
1001
0000
0001
1000
0001
0000
1000
0100
0000
0010
0100
0000
,
1000
0000
0100
0000
0001
0000
0100
0000
1000
0100
1000
0100
0010
0001
0010
0001
,
2000
0000
0000
0000
3001
0000
0000
1000
0000
0001
0010
0000
1000
0000
0010
0000
,
0001
0000
0000
0000
1000
0000
0000
0001
0000
1000
0010
0000
0001
0000
0010
0000
,
1000
0000
0000
0000
0010
0000
0000
0100
0000
1000
0100
0000
0010
0000
1000
0000
,
0100
0000
0000
0000
0010
0000
0000
0100
0000
0001
0100
0000
0110
0000
0000
0000
,
2000
3100
0020
0031
2000
3010
0200
0301
,
2000
3100
0002
0103
2000
3010
0002
0013
,
1000
0100
1000
0010
1000
0001
1000
0100
,
0020
0030
0000
0000
0000
0000
0000
0000
0002
0003
0000
0000
0000
0000
0000
0000
0020
0030
0000
0000
0000
0000
0000
0000
0002
0003
0000
0000
0000
0000
0000
0000
1000
0000
0000
0000
0100
0000
0000
0000
0010
0000
0000
0000
0100
0000
0000
0000
1000
0000
0000
0000
0000
0000
0000
0000
0000
0000
0000
0000
0000
0000
0000
0000
,
1001
0000
0000
0000
1000
0000
0100
0000
0000
0010
0001
0100
0000
0010
1000
0100
,
0000
0010
0100
1000
0000
0010
0100
0001
1000
0000
0001
0100
0010
0000
0000
0000
,
1001
0000
0000
0000
0001
0000
0100
0000
0000
0001
0010
0100
0000
1000
0010
0100
,
0000
0010
1000
0001
0000
0010
0001
1000
0001
0100
0010
0100
0001
0000
0000
0000
,
1001
0000
0000
0000
1000
0000
0100
0000
1000
0100
1000
0100
0010
0001
0010
0001
,
1000
0100
0010
0001
0010
0100
0010
0100
1000
0000
0001
0100
0010
0000
0000
0000
,
1001
0000
1010
0000
0110
0000
0000
0000
0010
0100
0010
0100
0001
1000
0010
0100
,
0001
0100
0001
0200
0000
0000
0310
0100
,
0110
0000
0000
1010
0000
0000
1001
0000
1000
0100
0000
1000
0100
0000
0010
0000
,
0001
0100
0000
0001
0100
0000
0010
0000
1000
0000
0010
0100
0010
0000
1000
0000
,
1001
0000
0000
0000
0001
0000
0100
0000
1000
0100
0000
0010
1000
0000
0100
0000
,
0001
0100
0000
0010
0001
0000
0100
0000
0001
1000
0100
0010
0001
0000
1000
0000
,
0010
0100
0000
0000
0010
0000
0100
0000
0010
1000
0000
0001
0100
0000
0010
0100
,
0010
1000
0000
0001
0100
0000
0010
0100
0010
0000
1000
0010
0100
0000
0000
0000
,
1001
0000
1010
0000
0101
0000
0000
0000
0001
0100
0001
0100
0010
1000
0010
1000
,
0001
0100
0001
0200
0000
0000
0310
0100
,
0002
0000
0010
0023
0000
0100
0230
0000
,
0010
0000
0000
0000
1300
0000
0100
0010
0001
0000
0100
0000
0001
0000
1000
0000
,
2000
0000
0100
3200
0000
0010
0320
0000
,
0100
0000
0000
0000
0031
0000
0010
0100
1000
0000
0100
0000
0010
0000
0100
0000
,
2000
0000
0001
3002
0000
0010
0023
0000
,
0100
0000
0000
0000
1030
0000
0010
0100
0010
0000
0001
0000
1000
0000
0010
0000
,
0100
1000
0100
0020
0000
0100
0230
0000
,
0010
0001
1000
0301
,
1000
0000
0100
0000
0001
0000
0100
1000
0000
1000
0001
0000
0010
0000
0100
0000
,
1000
0000
0010
0000
0001
0000
0010
1000
0000
1000
0001
0000
0010
0000
0001
0000
,
0010
0000
0100
0000
1000
0000
0001
0010
0000
0100
0010
0000
0001
0000
1000
0000
,
0010
0000
0100
0000
0001
0000
1000
0010
0000
0100
0010
0000
0110
0000
0000
0000
,
2000
3100
0020
0031
2000
3010
0200
0301
,
2000
3100
0002
0103
2000
3010
0002
0013
,
1000
0100
1000
0000
0001
0010
0001
0000
0010
0100
1000
0000
0010
0100
0001
0000
,
1000
0000
1000
0000
0001
0000
0001
0000
1000
0100
0010
0001
1000
0000
0000
0000
,
1001
0000
0000
0000
1000
0000
0100
0000
1000
0000
1000
0001
0010
0000
0010
0100
,
0001
0000
0001
0100
1000
0000
1000
0010
0100
0000
0100
0000
0010
0000
0100
0000
,
1001
0000
0000
0000
1000
0000
0001
0000
0010
0100
0000
1000
0001
0000
0100
0010
,
0000
1000
0001
0000
0010
0001
0000
1000
0100
0000
1000
0001
0000
0010
0001
0000
,
1001
0000
0000
0000
1000
0000
0100
0000
0010
0001
1000
0000
0100
1000
0001
0000
,
0100
0010
0100
0000
0001
1000
0001
0000
0010
0100
1000
0000
0001
0000
0000
0000
,
1001
0000
0101
0000
0011
0000
0000
0000
0010
0001
0000
0100
0010
0000
1000
0010
,
0000
0001
0010
0000
0100
0001
0000
0010
0100
0000
1000
0100
0000
0010
0001
0000
,
1001
0000
0000
0110
0000
0000
1001
0000
0000
0000
0001
0000
1000
0100
1000
0100
,
0000
0000
1000
0000
0001
0100
0001
0100
0010
0000
0001
0010
0100
0000
0000
0000
,
1001
0000
0000
0000
0001
0000
0100
0000
0010
0100
0000
1000
0100
0000
0001
0000
,
0010
0100
0000
0001
0100
0000
1000
0000
0001
1000
0000
0010
0100
0000
0001
0000
,
1000
0001
0000
0000
0100
0000
0010
0000
1000
0010
0000
0100
0001
0000
1000
0000
,
0001
0010
0000
0100
1000
0000
0001
0000
0100
0000
0010
0100
0010
0000
0000
0000
,
1001
0000
1010
0000
1100
0000
0000
0000
1000
0100
0000
1000
0001
0000
0000
0000
,
1000
0100
0010
0001
1000
0100
0010
0001
1000
0010
0100
0001
1000
0010
0100
0001
,
2000
0001
0010
3100
,
0200
1000
0001
0310
,
0020
0100
1000
0031
,
0002
0000
0010
0000
1003
0000
0001
0100
,
0010
0100
0010
1000
0010
0001
0010
0000
,
1000
1000
0000
0000
0001
0001
0000
0000
0010
0010
0000
0000
0100
0100
0000
0000
,
1000
0100
0001
0100
0010
1000
0010
0001
,
1000
0100
1000
0200
0000
0000
1300
1010
,
1001
0000
0000
0000
,
0000
0000
0000
0000
;
#NOTES:
     dance-double:
     :
     Easy:
     8:
     :
00000000
00000000
00000000
00000000
,
00000000
00000000
00000000
00000000
,
00000000
00000000
00000000
00000000
,
00000000
00000000
00000000
00000000
,
00000000
00000000
00000000
00000000
,
00000000
00000000
00000000
00000000
,
10000000
00000000
00000000
00010000
00000000
00000000
20000000
00000000
,
00000000
00000000
30000000
00000000
,
01000000
00000000
00000000
00100000
00000000
00000000
02000000
00000000
,
00000000
00000000
03000000
00000000
,
10000000
11000000
00000000
00000000
,
01000000
01100000
00000000
00000000
,
00100000
00101000
00000000
00000000
,
00001000
00000000
00000000
00020000
00000000
00000000
00030000
00000000
,
00000100
00001100
00000000
00000000
,
00000100
00000110
00000000
00000000
,
00000001
00001001
00000000
00000000
,
00000001
00000010
00000100
00010000
,
00002000
00000000
00023000
00000000
,
00230000
00000000
02300000
00000000
,
03002000
00000000
00023000
00000000
,
00030200
00000000
00001300
00000000
,
00001000
00000100
00001000
00000100
,
00010000
00001000
00010000
00001000
,
00100000
00100000
01000000
01000000
,
10000000
00010000
01000000
00100000
,
10010000
00000000
10000000
00100000
,
01000000
00010000
00100000
00001000
,
00010000
00000000
00001000
00100000
,
00010000
00100000
00001000
00010000
,
00000100
00000000
00000010
00000010
,
00000001
00000001
00001000
00001000
,
00000010
00000000
00001000
00000000
,
00000100
00000000
00000000
00020000
00000000
00000000
00030000
00000000
,
00001000
00010000
00001000
00010000
,
00000010
00000100
00000010
00000000
,
00010000
00001000
00010000
00001000
,
00100000
01000000
00100000
00000000
,
00010000
00010000
00100000
00001000
,
00010000
00000100
00000010
00000000
,
00000001
00000001
00001000
00000010
,
00000100
00000000
00000000
00000020
00000000
00000000
00000030
00000000
,
00020000
00000000
00032000
00000000
,
00003020
00000000
00000230
00000000
,
00020300
00000000
00032000
00000000
,
02003000
00000000
03200000
00000000
,
20300000
00000000
32000000
00000000
,
03200000
00000000
00302000
00000000
,
00013000
00001000
00000010
00000200
,
00000000
00000000
00000300
00000000
,
00001000
00000100
00010000
00000000
,
00001000
00100000
00010000
00000000
,
00100000
00010000
10000000
00000000
,
01000000
00100000
00001000
00010000
,
00001000
00001000
00000010
00000010
,
00000001
00000001
00000100
00000100
,
00000010
00001000
00010000
01000000
,
00010000
00100000
00001000
00010000
,
00011000
00000000
00001000
00000010
,
00000001
00000100
00000010
00010000
,
00011000
00000000
00010000
00100000
,
10000000
01000000
00100000
00001000
,
00011000
00000000
00010000
00001000
,
00000100
00001000
00010000
00100000
,
01000000
00000000
00010000
00100000
,
00010000
00001000
00000100
00000010
,
00000001
00000000
00000001
00000100
,
00001000
00010000
00100000
01000000
,
00010000
00000000
10000000
01000000
,
00010000
00001000
00000010
00000100
,
00001000
00000000
00000010
00001000
,
00000100
00010000
00001000
00100000
,
00010000
00000000
01000000
00010000
,
00100000
00001000
00010000
00000100
,
00000020
00000001
00000000
00000130
,
00000200
00001000
00000000
00010300
,
00020000
00001000
00000000
01030000
,
01000000
00100000
01000000
01100000
,
10000000
10000000
01000000
00000000
,
00100000
00100000
00001000
00000000
,
00010000
00010000
00001000
00001000
,
00000010
00000000
00000000
00000200
00000000
00000300
00001000
00000000
,
00001001
00000000
00000000
00000000
,
00000000
00000000
00000000
00000000
;
#NOTES:
     dance-double:
     :
     Medium:
     13:
     :
00000000
00000000
00000000
00000000
,
00000000
00000000
00000000
00000000
,
00000000
00000000
00000000
00000000
,
00000000
00000000
00000000
00000000
,
00000000
00000000
00000000
00000000
,
00000000
00000000
00000000
00000000
,
20020000
30030000
00000000
22000000
33000000
00000000
00220000
00000000
,
00000000
00000000
00330000
00100000
00010000
00100000
00001000
00010000
,
00020200
00000000
00030300
00000220
00000000
00000330
00002002
00000000
,
00000000
00000000
00000000
00003003
,
00000001
00000000
00001000
00000000
00000001
00000000
00000000
00000000
00000100
00000000
00000001
00000100
00000000
00000001
00000100
00000000
,
00000010
00000000
00010000
00000000
00000010
00000000
00000000
00000000
00001000
00000000
00000100
00010000
00000000
00000100
00010000
00000000
,
00001000
00000000
00010000
00000000
00001000
00000000
00000000
00000000
00100000
00000000
00010000
10000000
00000000
00010000
10000000
00000000
,
02000000
03200000
00302000
00023000
00000000
00000000
00031000
00000000
,
00010000
00000000
00010000
00000000
00010000
00000000
00000000
00000000
00000100
00000000
00001000
00000100
00000000
00001000
00000100
00000000
,
00000010
00000000
00000010
00000000
00000010
00000000
00000000
00000000
00000001
00000000
00001000
00000001
00000000
00001000
00000001
00000000
,
00000100
00000000
00000100
00000000
00000100
00000000
00000000
00000000
00000010
00000000
00001000
00000010
00000000
00001000
00000010
00000000
,
00000200
00002300
00023000
00230000
,
20300000
01000000
00000000
31000000
,
02000000
00100000
00000000
03100000
,
00200000
00010000
00000000
00301000
,
00002000
00010000
00000000
00003100
,
00000100
00000010
00001000
00000000
00000001
00000100
00001000
00000000
,
00000100
00001000
00010000
00000000
00001000
00010000
00100000
00000000
,
01100000
01100000
10010000
10010000
,
20000000
30000000
00000000
00000000
00000000
00000000
00000000
00000000
02000000
03000000
00000000
00000000
00000000
00000000
00000000
00000000
20000000
30000000
00000000
00000000
00000000
00000000
00000000
00000000
02000000
03000000
00000000
00000000
00000000
00000000
00000000
00000000
00100000
00000000
00000000
00000000
00000000
00000000
00000000
00000000
00010000
00000000
00000000
00000000
00000000
00000000
00000000
00000000
00110000
00000000
00000000
00000000
00000000
00000000
00000000
00000000
00000000
00000000
00000000
00000000
00000000
00000000
00000000
00000000
,
00101000
00000000
00000000
00000000
00001000
00010000
00001000
00010000
,
00001000
00000000
00010000
00000000
00001000
00000000
00010000
00000000
00001000
00010000
00001000
00000000
00011000
00000000
00000000
00000000
,
00010100
00000000
00000000
00000000
00000100
00010000
00000100
00010000
,
00000100
00000000
00010000
00000000
00000100
00000000
00010000
00000000
00000100
00010000
00000100
00000000
00010100
00000000
00000000
00000000
,
00000110
00000000
00000000
00000000
00000010
00000100
00000010
00000100
,
00000010
00000000
00000100
00000000
00000010
00000000
00000100
00000000
00000010
00000100
00000010
00000000
00000110
00000000
00000000
00000000
,
00000002
00000003
00002000
00003000
00000002
00000003
00000000
00000000
00000001
00000000
00000010
00000000
00000100
00000000
00001000
00000000
,
00000200
00020300
00032000
00203000
00000000
00000000
00310000
00000000
,
10000000
00000000
00000000
00010000
00000000
00000000
10000000
00000000
01000000
00000000
00000000
01000000
00100000
00000000
00000000
00000000
,
00001000
00000000
00000000
00001000
00010000
00000000
00000000
00000000
00000100
00000000
00000000
00000100
00000010
00000000
00000000
00000000
,
00000110
00000000
00000000
00000000
00000000
00000000
00000000
00000000
00000010
00000000
00000000
00000010
00000001
00000000
00000000
00000000
,
00001000
00000000
00000000
00001000
00000100
00000000
00000000
00000000
00010000
00000000
00000000
00010000
00001000
00000000
00000000
00000000
,
00011000
00000000
00000000
00000000
00000000
00000000
00000000
00000000
00001000
00000000
00000000
00001000
01000000
00000000
00000000
00000000
,
00010000
00000000
00000000
00010000
00100000
00000000
00000000
00000000
01000000
00000000
00000000
01000000
00100000
00000000
00000000
00000000
,
00001000
00000000
00010000
00000000
00001000
00000000
00000000
00000000
00010000
00000000
00000000
00010000
00000100
00000000
00000000
00000000
,
00000010
00000100
00000010
00000200
00000000
00000000
00000310
00000000
,
00000002
00000000
00000000
00000203
00000000
00000000
00002300
00000000
,
00000000
00000000
00003000
00000000
00010000
00001000
00100000
01000000
,
20000000
00000000
00000000
32000000
00000000
00000000
03020000
00000000
,
00000000
00000000
00030000
00001000
00010000
00000100
00001000
00000010
,
00000200
00000000
00000000
00002300
00000000
00000000
00023000
00000000
,
00000000
00000000
00000000
00000000
00031000
01000000
00010000
00100000
,
00010000
00100000
01000000
00200000
00000000
00010000
00320000
00000000
,
00000000
00000000
00000000
00030000
,
10000000
01000000
00010000
01000000
00100000
00010000
00001000
00010000
,
00100000
00001000
00010000
00001000
00000010
00000100
00001000
00000000
,
00000001
00000100
00001000
00000100
00000010
00001000
00010000
00001000
,
00000010
00010000
00001000
00010000
00100000
01000000
00010000
00000000
,
10000000
01000000
10000000
00000000
00010000
00100000
00010000
00000000
,
00100000
00001000
00100000
00000000
00001000
00010000
00001000
00000000
,
00010000
00001000
00000010
00000100
00010000
00001000
00100000
00010000
,
10000000
01000000
00010000
00001000
00000010
00000001
00000010
00000000
,
00001001
00000000
00000000
00000000
00000001
00000010
00001000
00000000
,
00000010
00000100
00010000
00000000
00001000
00100000
00010000
10000000
,
10010000
00000000
00000000
00000000
10000000
00100000
00010000
00100000
,
10000000
01000000
00010000
00001000
00010000
00001000
00000010
00000001
,
00001001
00000000
00000000
00000000
00000000
00000000
00000000
00000000
00000001
00000010
00000001
00000000
00001000
00000000
00000000
00000000
,
00000010
00001000
00000010
00000000
00010000
00000000
00000000
00000000
00001000
00010000
00001000
00000000
00100000
00000000
00000000
00000000
,
00010000
10000000
00010000
00000000
10000000
01000000
00010000
00001000
,
00020000
00000000
00000000
00032000
00000000
00000000
00003100
00000000
,
00000010
00000000
00000000
00000100
00000000
00000000
00000010
00000000
00001000
00000000
00000000
00001000
00000100
00000000
00000000
00000000
,
00010000
00000000
00000000
00010000
00001000
00000000
00000000
00000000
00100000
00000000
00000000
00100000
00010000
00000000
00000000
00000000
,
10010000
00000000
00000000
00000000
00000000
00000000
00000000
00000000
00010000
00000000
00000000
00010000
00100000
00000000
00000000
00000000
,
00001000
00000000
00000000
00001000
00010000
00000000
00000000
00000000
00000100
00000000
00000000
00000100
00001000
00000000
00000000
00000000
,
00001001
00000000
00000000
00000000
00000000
00000000
00000000
00000000
00000001
00000000
00000000
00000001
00000100
00000000
00000010
00000000
,
00001000
00000000
00000000
00001000
00000010
00000000
00010000
00000000
00001000
00000000
00000000
00001000
00100000
00000000
00010000
00000000
,
10000000
00000000
01000000
00000000
10000000
00000000
00000000
00000000
00010000
00000000
00000000
00010000
00100000
00000000
00001000
00000000
,
00010000
00001000
00000010
00000100
00010000
00001000
00000010
00000100
,
00002000
00000100
00000000
00003001
,
00000002
00001000
00000000
00000103
,
00000200
00000010
00000000
00001300
,
00002000
00010000
00000000
00013000
,
00001000
00010000
00000010
00000000
00010000
00001000
00100000
00000000
,
00001000
00010000
00000100
00000000
00010000
00001000
01000000
00000000
,
01100000
01100000
10010000
10010000
,
10000000
01000000
00010000
00002000
00000000
00000000
00013000
00000100
,
00000010
00000000
00000000
00000000
,
00000000
00000000
00000000
00000000
;
#NOTES:
     dance-double:
     :
     Hard:
     16:
     :
00000000
00000000
00000000
00000000
,
00000000
00000000
00000000
00000000
,
00000000
00000000
00000000
00000000
,
00000000
00000000
00000000
00000000
,
00000000
00000000
00000000
00000000
,
00000000
00000000
00000000
00000000
,
00002002
00003003
00000000
00000022
00000033
00000000
00002200
00000000
,
00003300
00000000
00000000
00000000
00001000
00000000
00000100
00010000
00001000
00000000
00010000
00000000
01000000
00000000
00100000
00000000
,
00010000
10000000
01000000
00100000
00000000
00001000
00020000
00000000
,
01000000
00001000
00000100
00031000
,
00011000
00000000
00010100
00000000
00000110
00000000
00000001
00000010
00000001
00000000
00000010
00000100
00000000
00001000
00000001
00000000
,
00001001
00000000
00000101
00000000
00000011
00000000
00000001
00000010
00000001
00000000
00000010
00000100
00000000
00010000
00001000
00000000
,
00011000
00000000
00101000
00000000
01100000
00000000
10000000
01000000
10000000
00000000
01000000
00100000
00000000
00010000
00100000
00000000
,
02000000
03020000
00032000
00003020
00000000
00000000
00000031
00000010
,
00000011
00000000
00001100
00000000
00010100
00000000
00010000
00000100
00010000
00000000
00001000
00010000
00000000
00100000
01000000
00000000
,
10100000
00000000
01010000
00000000
01001000
00000000
00001000
01000000
00001000
00000000
00010000
00001000
00000000
00000010
00000100
00000000
,
00000110
00000000
00001100
00000000
00001001
00000000
00001000
00000001
00001000
00000000
00000001
00000100
00000000
00000010
00000100
00000000
,
00000001
00000100
00001000
00010000
00100000
10000000
01000000
00010000
,
00002000
00000000
00000000
00000000
00013000
00000000
00000000
00000100
00000000
00010000
00001000
00000000
00100000
00000000
00010000
00000000
,
00001000
00000000
00000000
00000000
00000100
00000000
00000000
00010000
00000000
00001000
01000000
00000000
00100000
00000000
00010000
00000000
,
00001000
00000000
00000000
00000000
00100000
00000000
00000000
00010000
00000000
10000000
01000000
00000000
00100000
00000000
00010000
00000000
,
00001000
00000000
00000000
00000000
00000100
00000000
00000000
00000010
00000000
00000001
00000010
00000000
00000110
00000000
00000000
00000000
,
00000002
00000103
00002000
00013000
00200000
10300000
02000000
03010000
,
00002000
00003010
00000002
00001003
00000020
00010030
00002000
01003000
,
00100000
10000000
01000000
00100000
00010000
00001000
00000100
00000010
,
00000002
00000003
00000000
00000000
00000000
00000000
00000000
00000000
00000020
00000030
00000000
00000000
00000000
00000000
00000000
00000000
00000002
00000003
00000000
00000000
00000000
00000000
00000000
00000000
00000020
00000030
00000000
00000000
00000000
00000000
00000000
00000000
00000001
00000000
00000000
00000000
00000010
00000000
00000000
00000000
00000100
00000000
00000000
00000000
00001000
00000000
00000000
00000000
00000001
00000000
00000000
00000000
00000000
00000000
00000000
00000000
00000000
00000000
00000000
00000000
00000000
00000000
00000000
00000000
,
00001001
00000000
00000000
00000000
00000001
00000000
00000100
00000000
00000000
00000010
00001000
00000100
00000000
00001000
00000100
00010000
,
00000000
00000100
00010000
00001000
00000000
00010000
00001000
01000000
00010000
00000000
10000000
00100000
01000000
00000000
00000000
00000000
,
10010000
00000000
00000000
00000000
10000000
00000000
01000000
00000000
00000000
00100000
00010000
01000000
00000000
00010000
01000000
00001000
,
00000000
01000000
00001000
00010000
00000000
00001000
00010000
00000100
00001000
00000001
00000010
00000001
00001000
00000000
00000000
00000000
,
00001001
00000000
00000000
00000000
00001000
00000000
00000010
00000000
00000100
00000001
00000100
00000001
00001000
00000010
00001000
00000010
,
00010000
00001000
00010000
00001000
00100000
00010000
00100000
01000000
10000000
00000000
00010000
01000000
00100000
00000000
00000000
00000000
,
10010000
00000000
00110000
00000000
00101000
00000000
00000000
00000000
00001000
00010000
00001000
00000000
00010000
00000100
00010000
00000000
,
00000010
00000100
00000001
00000200
00000000
00000000
00000310
00000100
,
00000110
00000000
00000000
00001010
00000000
00000000
00001001
00000000
00001000
00000100
00000000
00001000
00000100
00000000
00010000
00000000
,
00001000
01000000
00000000
00001000
01000000
00000000
00010000
00000000
00100000
00000000
00010000
01000000
00010000
00000000
00100000
00000000
,
00101000
00000000
00000000
00000000
00001000
00000000
00100000
00000000
00010000
01000000
00000000
00010000
01000000
00000000
00001000
00000000
,
00010000
00000100
00000000
00010000
00000100
00000000
00001000
00000000
00000010
00001000
00000100
00000010
00000001
00000000
00001000
00000000
,
00000010
00000100
00000000
00000000
00000010
00000000
00001000
00000000
00000100
00010000
00000000
00000100
00010000
00000000
00001000
00000000
,
01000000
00010000
00000000
01000000
00010000
00000000
10000000
00000000
00010000
00000000
00100000
00001000
00010000
00000000
00000000
00000000
,
00011000
00000000
00010100
00000000
00010010
00000000
00000000
00000000
00000010
00000100
00000010
00000100
00000001
00001000
00000001
00001000
,
00000001
00000100
00001000
00020000
00000000
00000000
00031000
00100000
,
00020000
00000000
01000000
02030000
00000000
10000000
23000000
00000000
,
00000000
00000000
00000000
00000000
31000000
00000000
00100000
01000000
00100000
00000000
10000000
00000000
01000000
00000000
00100000
00000000
,
00020000
00000000
00001000
00032000
00000000
00000100
00003200
00000000
,
00000000
00000000
00000000
00000000
00000310
00000000
00000001
00000010
00000100
00000000
00001000
00000000
00000001
00000000
00001000
00000000
,
00000020
00000000
00001000
00002030
00000000
00010000
00023000
00000000
,
00000000
00000000
00000000
00000000
01030000
00000000
00100000
01000000
00100000
00000000
10000000
00000000
00100000
00000000
01000000
00000000
,
00010000
10000000
01000000
00200000
00000000
00001000
00302000
00000000
,
00100000
00010000
00000100
00013000
,
00010000
00000000
00000100
00000000
00000010
00000000
00000001
00000010
00000000
00000010
00000001
00000000
00000100
00000000
00001000
00000000
,
00010000
00000000
00001000
00000000
00100000
00000000
01000000
10000000
00000000
10000000
01000000
00000000
00100000
00000000
00001000
00000000
,
00010000
00000000
00001000
00000000
00000010
00000000
00000001
00000100
00000000
00000100
00000001
00000000
00000010
00000000
00001000
00000000
,
00010000
00000000
01000000
00000000
10000000
00000000
00010000
00100000
00000000
00100000
00010000
00000000
10010000
00000000
00000000
00000000
,
20000000
31000000
00020000
00031000
00000020
00000031
00000200
00001300
,
00020000
00130000
20000000
30010000
00200000
00301000
00020000
00030100
,
00000010
00000001
00000010
00000000
00000100
00001000
00000100
00000000
00010000
00001000
00100000
00000000
00010000
00100000
01000000
00000000
,
00100000
00000000
00100000
00000000
00001000
00000000
00001000
00000000
00010000
00001000
00000100
00000010
00001000
00000000
00000000
00000000
,
00001001
00000000
00000000
00000000
00000001
00000000
00000100
00000000
00000010
00000000
00000010
00000100
00001000
00000000
00001000
00010000
,
00100000
00000000
00100000
10000000
01000000
00000000
01000000
00100000
00010000
00000000
00010000
00000000
00001000
00000000
00000100
00000000
,
00001001
00000000
00000000
00000000
00000001
00000000
00000100
00000000
00000010
00000100
00000000
00001000
00000100
00000000
00000010
00010000
,
00000000
00001000
00100000
00000000
00010000
01000000
00000000
00100000
10000000
00000000
01000000
00100000
00000000
00001000
00010000
00000000
,
00011000
00000000
00000000
00000000
00010000
00000000
00001000
00000000
00100000
00001000
01000000
00000000
00010000
01000000
00001000
00000000
,
00010000
00000100
00001000
00000000
00000010
00001000
00000100
00000000
00001000
00000010
00000100
00000000
00000001
00000000
00000000
00000000
,
00001001
00000000
00001010
00000000
00001100
00000000
00000000
00000000
00001000
00000100
00000000
00010000
00001000
00000000
01000000
00100000
,
00000000
00010000
00001000
00000000
00000010
00000100
00000000
00010000
00000100
00000000
00001000
00000100
00000000
00000010
00000001
00000000
,
00001001
00000000
00000000
00000110
00000000
00000000
00001001
00000000
00000000
00000000
00000001
00000000
00001000
00000100
00001000
00000100
,
00000000
00000000
00010000
00000000
00001000
00010000
00001000
00010000
00100000
00000000
01000000
00100000
01000000
00000000
00000000
00000000
,
10010000
00000000
00000000
00000000
10000000
00000000
01000000
00000000
00100000
01000000
00000000
00100000
00010000
00000000
10000000
00000000
,
01000000
00100000
00000000
00010000
00100000
00000000
00001000
00000000
00010000
00001000
00000000
00000010
00000100
00000000
00001000
00000000
,
00000001
00001000
00000000
00000000
00000001
00000000
00000100
00000000
00000010
00000100
00000000
00000010
00001000
00000000
00000001
00000000
,
00000100
00000010
00000000
00001000
00000010
00000000
00010000
00000000
00001000
00000000
00100000
00010000
00100000
00000000
00000000
00000000
,
00110000
00000000
01010000
00000000
10010000
00000000
00000000
00000000
10000000
01000000
00000000
10000000
00010000
00000000
00000000
00000000
,
10000000
01000000
00100000
00010000
00100000
00001000
00100000
00001000
00010000
00000100
00010000
00000100
00001000
00000100
00000010
00000001
,
00002000
00000001
00000010
00003100
,
00000200
00010000
00001000
00010300
,
00020000
00000100
00001000
01030000
,
02000000
00000000
00100000
00000000
13000000
00000000
10000000
01000000
,
11000000
01100000
00101000
00010100
,
00000100
00000100
00000000
00000000
00001000
00001000
00000000
00000000
00000001
00000001
00000000
00000000
00000100
00000100
00000000
00000000
,
00000010
00001000
00010000
01000000
10000000
01000000
00010000
10000000
,
00010000
01000000
00010000
02000000
00000000
00000000
03010000
00110000
,
10010000
00000000
00000000
00000000
,
00000000
00000000
00000000
00000000
;
