
//----- song ID: asgm -----//
#TITLE:足神様ノ復活祭;
#ARTIST:U1 overground;
#TITLETRANSLIT:Ashikamisama no fukkatsusai;
#BANNER:Ashikamisama no fukkatsusai.png;
#BACKGROUND:Ashikamisama no fukkatsusai-bg.png;
#CDTITLE:./CDTitles/DDR WORLD.png;
#MUSIC:Ashikamisama no fukkatsusai.ogg;
#SAMPLESTART:54.164;
#SAMPLELENGTH:15;
#BPMS:0=146;
#NOTES:
     dance-single:
     :
     Beginner:
     2:
     :
0000
0000
0000
0000
,
0000
0000
0000
0000
,
0000
0000
0000
0000
,
0000
0000
0000
0000
,
0000
0000
0000
0000
,
1000
0000
0000
0000
,
1000
0000
0000
0000
,
1000
0000
0000
0000
,
1000
0000
0000
0000
,
0001
0000
0000
0000
,
0001
0000
0000
0000
,
0001
0000
0000
0000
,
0001
0000
0000
0000
,
1000
0000
1000
0000
,
1000
0000
0000
0000
,
1000
0000
0000
0000
,
0001
0000
0000
0000
,
0001
0000
0001
0000
,
0001
0000
0000
0000
,
0001
0000
0000
0000
,
1000
0000
0000
0000
,
0001
0000
0000
0000
,
1000
0000
0000
0000
,
0001
0000
0000
0000
,
1000
0000
0000
0000
,
0020
0000
0030
0000
,
0000
0000
0000
0000
,
0200
0000
0300
0000
,
0000
0000
0000
0000
,
0010
0000
0000
0000
,
0010
0000
0000
0000
,
0010
0000
0000
0000
,
0000
0000
0000
0000
,
1000
0000
1000
0000
,
0000
0000
0000
0000
,
0001
0000
0001
0000
,
0000
0000
0000
0000
,
1000
0000
0000
0000
,
0001
0000
0000
0000
,
1000
0000
0000
0000
,
0001
0000
0000
0000
,
0010
0000
0010
0000
,
0000
0000
0000
0000
,
0100
0000
0100
0000
,
0000
0000
0000
0000
,
0010
0000
0000
0000
,
0010
0000
0000
0000
,
0200
0000
0300
0000
,
0000
0000
0000
0000
,
1000
0000
0000
0000
,
0001
0000
0000
0000
,
2000
0000
3000
0000
,
0000
0000
0000
0000
,
1000
0000
0000
0000
,
0001
0000
0000
0000
,
1000
0000
0000
0000
,
1000
0000
0000
0000
,
0001
0000
0000
0000
,
0001
0000
0000
0000
,
1000
0000
1000
0000
,
1000
0000
0000
0000
,
0001
0000
0000
0000
,
0001
0000
0000
0000
,
0001
0000
0001
0000
,
0001
0000
0000
0000
,
1000
0000
0000
0000
,
1000
0000
0000
0000
,
0020
0030
0000
0000
,
0020
0030
0000
0000
,
0200
0000
0300
0000
,
0000
0000
0000
0000
,
0001
0000
0000
0000
,
1000
0000
0000
0000
,
0001
0000
0000
0000
,
0000
0000
0000
0000
;
#NOTES:
     dance-single:
     :
     Easy:
     5:
     :
0000
0000
0000
0000
,
0000
0000
0000
0000
,
0000
0000
0000
0000
,
0000
0000
0000
0000
,
0000
0000
0000
0000
,
1000
0100
1000
0000
,
0001
0100
0001
0000
,
2000
0000
0000
0000
,
0000
0000
0000
3000
,
0001
0100
0001
0000
,
1000
0100
1000
0000
,
0010
0000
0100
0000
,
0000
0100
0001
1000
,
0001
0010
0001
0000
,
1000
0010
1000
0000
,
0001
0000
1000
0000
,
0020
0000
0000
0030
,
1000
0010
0100
0000
,
0001
0010
0100
0000
,
2000
3000
0002
0003
,
2000
0000
3001
0000
,
1000
0100
1000
1000
,
0001
0100
0001
0001
,
0010
0010
0100
0010
,
0001
0000
1000
0001
,
2000
0000
3000
0000
,
0002
0000
0003
0000
,
0020
0000
0030
0000
,
0200
0000
0300
0000
,
1000
1000
0100
0010
,
0001
0001
0010
0100
,
2000
0000
0000
0000
,
0002
0000
0000
3003
,
1000
1000
0001
0001
,
0010
0100
0010
0000
,
0001
0001
1000
1000
,
0010
0100
0010
0000
,
1000
0100
0010
0001
,
0010
0100
1000
0000
,
0002
0000
0003
1000
,
2000
0000
0000
3000
,
0001
0010
0001
0010
,
0100
1000
0100
0000
,
1000
0010
1000
0010
,
0100
0001
0100
0000
,
0002
0003
0020
0030
,
0200
0300
2000
3000
,
0001
0000
0000
1000
,
1000
0000
0000
0001
,
0001
0000
0000
0010
,
0010
0000
0001
0100
,
0020
0000
0030
1000
,
1000
0000
0000
1000
,
0100
0010
0001
1000
,
1001
0000
0000
0000
,
1000
0100
1000
0000
,
0100
0010
0100
0000
,
0010
0001
0010
0000
,
0001
1000
0001
0000
,
1000
1000
0100
1000
,
0001
0001
0010
0001
,
2000
0000
0000
3001
,
0002
0000
0000
0003
,
0001
0010
0001
1000
,
0010
0100
0010
0200
,
0000
0000
0000
0300
,
0001
1000
0001
0000
,
2000
3000
0002
0003
,
0200
0300
0020
0030
,
2000
0000
0000
3000
,
0002
0000
0000
0003
,
1000
1000
0001
0001
,
1000
0100
0010
0001
,
1000
0000
0000
0000
,
0000
0000
0000
0000
;
#NOTES:
     dance-single:
     :
     Medium:
     12:
     :
0000
0000
0000
0000
,
0000
0000
0000
0000
,
0000
0000
0000
0000
,
0000
0000
0000
0000
,
0000
0000
0000
0000
,
1000
0100
1000
0000
0001
0100
0001
0000
,
1000
0100
1000
0001
0100
0001
0100
0000
,
0001
0100
0010
0000
1000
0100
0010
0000
,
0001
0001
0000
1000
0000
0010
0100
0010
,
1000
0000
0000
0100
0000
0000
1000
0000
0100
0000
0010
0000
0001
0000
0000
0000
,
0001
0000
0000
0100
0000
0000
0001
0000
0100
0000
0010
0000
1000
0000
0000
0000
,
1000
0100
0010
0100
1000
0001
0100
0000
,
0001
0020
0230
2300
,
3001
0000
0000
0010
0000
0000
0001
0000
0100
0000
0001
0000
1000
0000
0000
0000
,
1000
0000
0000
0010
0000
0000
1000
0000
0100
0000
1000
0000
0001
0000
0000
0000
,
1000
0000
0100
0000
0010
0000
0001
0010
0001
0000
1000
0000
0100
0000
0000
0000
,
2000
0001
0010
3100
,
1000
0000
0000
0001
0000
0000
0100
0000
0010
0000
1000
0000
0010
0000
1000
0000
,
0001
0000
0000
1000
0000
0000
0100
0000
0000
0000
0010
0000
0001
0000
0100
0000
,
0010
0000
1100
0110
,
0011
0000
0000
0000
0001
0010
0001
1000
,
0010
0000
0000
0100
0000
0000
0010
0000
1000
0000
0001
0000
0010
0000
1000
0000
,
0010
0000
0000
0100
0000
0000
0010
0000
0000
0000
0001
0000
0100
0000
0010
0000
,
1000
0000
0000
0001
0000
0000
1000
0000
0100
0000
0010
0000
0100
0000
0100
0000
,
2000
3000
0100
0010
,
0002
0000
0000
2003
0000
0000
3020
0000
,
0230
0000
2300
3200
,
0302
0000
0000
1003
0100
0010
0100
1000
,
0020
0000
2030
3002
,
1003
0100
0010
0100
0010
0001
0010
0001
,
0010
0100
1000
0100
1000
0001
0010
0001
,
2000
0000
0001
0001
,
0002
0000
0000
3003
,
2000
3002
0023
0230
,
1300
0000
0001
0010
0001
0000
1000
0000
0200
0000
0000
0000
0300
0000
1000
0000
,
0002
2003
3020
0230
,
0301
0000
1000
0100
1000
0000
0001
0000
0020
0000
0000
0000
0030
0000
0001
0000
,
2000
3002
0023
0230
,
1300
0000
0001
0100
0001
0000
1000
0000
0002
0000
0000
0000
0003
0000
1000
0000
,
0200
0000
0000
0000
0000
1300
0010
0100
,
0020
0000
0000
0030
,
0200
0320
2030
3200
,
0310
0000
0001
0010
0001
0000
1000
0000
0002
0000
0000
0000
0003
0000
0100
0000
,
0020
0230
0302
0023
,
0130
0000
1000
0100
1000
0000
0001
0000
2000
0000
0000
0000
3000
0000
0100
0000
,
0020
0100
0032
0010
,
2003
0000
3002
0000
,
0023
0000
0000
0230
0000
0000
2300
0000
,
3020
0000
0130
0001
,
2000
0000
0000
3010
0200
0000
0302
0000
,
2003
0000
3200
0320
,
0032
0000
0000
0000
0000
0000
0013
0100
0010
0000
0000
0000
0002
0000
0000
0000
,
0000
2003
3002
0023
,
0230
0000
0010
1000
,
1000
0000
0300
0000
,
1000
0000
0000
0100
0000
0000
0001
0000
,
0001
0000
0000
0100
0000
0000
1000
0000
,
1000
0000
0000
0010
0000
0000
0001
0000
,
0001
0000
0000
0010
0000
0000
1000
0000
,
2000
3002
0023
0230
,
1300
0000
0001
0100
0001
0000
1000
0000
0002
0000
0000
0000
0003
0000
1000
0000
,
0200
0000
0000
0000
0000
1300
0010
0100
,
0020
0000
0000
0030
,
2000
3002
0023
0230
,
1300
0000
0001
0100
0001
0000
1000
0000
0200
0000
0000
0000
0320
0000
0000
0000
,
0000
0100
1000
0031
,
1000
0100
0010
0001
2000
0000
3001
0000
,
2000
0000
3020
0000
,
0230
0000
0302
0000
,
2003
0000
0000
0001
0000
0010
0010
0000
,
3020
0000
0000
1000
0000
0100
0100
0000
,
0230
0000
0000
0010
0000
0001
0001
0000
,
0302
0000
0000
0103
0000
0001
1000
0100
,
0010
0000
0000
0000
,
0000
0000
0000
0000
;
#NOTES:
     dance-single:
     :
     Hard:
     14:
     :
0000
0000
0000
0000
,
0000
0000
0000
0000
,
0000
0000
0000
0000
,
0000
0000
0000
0000
,
0000
0000
0000
0000
,
1000
0100
0001
0100
1000
0100
1000
0000
,
0001
0000
0100
0000
1000
0000
0100
0010
0100
0000
0001
0000
1000
0000
0000
0000
,
0100
0000
0010
0000
0001
0000
0010
0100
0010
0000
0100
0000
1000
0000
0000
0000
,
0001
0011
0000
1100
0000
0100
1000
0001
,
1000
0000
0000
1000
0100
0000
0010
0000
0100
0000
0000
0000
1000
0000
0001
0100
,
0001
0000
0000
0001
0100
0000
0010
0000
0100
0000
0001
0000
0010
0000
0100
0000
,
0110
0000
1000
1001
0000
0010
0110
0000
,
1000
1100
0011
0110
,
1000
0000
0000
0100
1000
0000
0100
0000
0010
0000
0000
0000
0001
0100
0001
0010
,
0001
0000
0000
0100
0001
0000
0010
0000
1000
0000
0010
0000
0001
0000
0000
0000
,
1000
0000
0010
0100
0010
0000
0001
0000
0010
0000
1000
0000
0001
0000
0100
0000
,
0010
0101
1010
0110
,
1000
0000
0000
0000
0002
0000
0010
0000
0000
0000
1003
0000
0001
0000
0100
0010
,
1000
0000
0000
0000
2000
0000
0010
0000
0000
0000
3001
0000
1000
0000
0100
0010
,
0001
0000
0000
1000
1010
0000
0101
0000
,
1001
0000
0000
0000
0002
0000
0100
0000
0000
0000
1003
0000
0001
0000
0100
0010
,
1000
0000
0000
1000
0100
0000
0001
0000
0100
0000
1000
0000
0010
0000
0100
0000
,
0001
0000
0000
0001
0100
0000
1000
0000
0000
0000
1000
0000
0100
0000
0001
0000
,
1000
0000
0000
0010
0100
0000
0001
0000
1000
0000
0001
0000
0010
0000
0010
0000
,
0100
0000
1000
0001
0100
0000
0001
0000
2000
0000
0000
0000
3002
0000
0000
0000
,
0023
0000
0100
0100
0000
0001
0032
0000
,
0100
0000
1000
1003
2000
0000
3020
0000
,
0230
0000
0000
0000
0000
0000
0320
0030
0002
0003
0020
0030
2000
3000
0002
0003
,
0020
0000
0100
0100
0230
0000
2300
0000
,
3001
0000
1000
0100
0010
0000
0001
0000
0100
0000
0001
0000
1000
0000
0001
0000
,
0010
0000
0001
0010
0100
0000
1000
0000
0100
0000
1000
0000
0001
0000
1000
0000
,
0020
0000
0001
0001
0000
0100
0100
0000
,
2000
0000
0000
3030
,
0010
0000
1000
0000
0001
0000
0100
0001
0010
0000
0001
0000
1000
0000
0100
1000
,
0010
0000
0100
0010
0100
0000
0001
0000
1000
0000
0010
0000
1000
0100
0010
0100
,
0010
0000
0001
0000
1000
0000
0100
1000
0010
0000
1000
0000
0001
0000
0100
0001
,
0010
0000
0100
0010
0100
0000
1000
0000
0100
0000
0001
0000
0100
0000
1000
0000
,
0001
0000
0010
0000
0100
0000
1000
0001
0100
0000
0010
0000
0100
0000
0001
0010
,
0001
0000
1000
0100
1000
0000
0100
0000
0010
0000
0001
0000
0100
0000
0010
0100
,
0001
0000
1000
0000
0100
0000
0010
0100
1000
0000
0001
0000
0100
0000
0010
0000
,
0100
0010
0100
0010
1000
0100
1000
0100
1000
0001
1000
0001
1000
0000
0000
0000
,
0001
0000
0100
0000
0010
0000
1000
0010
0100
0000
0010
0000
1000
0000
0001
0010
,
0100
0000
1000
0100
0010
0000
0001
0000
0100
0000
0010
0000
1000
0000
0001
1000
,
0001
0000
0010
0000
0100
0000
1000
0100
0010
0000
0100
0000
1000
0000
0001
0100
,
0010
0100
0010
0100
0001
0000
1000
0000
0010
0000
0100
0001
1000
0000
0100
0000
,
2000
0000
0001
3001
0002
0000
0010
0013
,
0020
0000
0230
0300
,
1000
0000
0000
0000
1000
0000
0000
0000
0001
0000
0000
1000
0000
0000
0010
0000
,
0100
0000
0100
0000
0100
0000
0100
0000
0100
0000
0000
0001
0000
0000
1000
0000
,
0100
0000
1000
0000
0100
0000
0100
0000
0100
0000
0100
0000
0100
0000
0010
0001
,
1000
0000
0010
0000
0100
0000
0100
0000
0010
0000
0010
0000
0100
0000
0010
1000
,
0010
0000
0010
0000
0100
0000
0100
0000
1000
0000
1000
0000
1000
0000
0100
0010
,
0100
0000
0100
0000
0001
0000
0001
0000
1000
0000
1000
0000
0010
0000
0010
1000
,
0100
0000
0100
0000
0100
0000
0100
0000
0100
0000
0100
0000
0010
0001
0010
0001
,
0000
0000
0000
0000
,
2000
3002
0023
0230
,
1300
0000
0001
0010
0001
0000
1000
0000
0100
0000
0100
0000
0000
0000
1000
0000
,
0200
0302
0203
2300
,
3001
0000
0010
0100
1000
0000
0001
0000
0020
0000
0000
0000
0030
0000
0001
0000
,
1000
0000
0010
0000
0100
0000
0001
1000
0100
0000
0010
0000
0100
0000
1000
0010
,
1000
0000
0001
0100
0001
0000
0100
0000
0010
0000
1000
0000
0100
0000
0010
0100
,
0020
0000
0000
0000
0000
0031
0100
0001
,
0100
0010
0100
0010
1000
0100
1000
0100
1000
0001
1000
0001
2000
0000
0000
0000
,
3001
0000
0010
0000
0100
0000
1000
0001
0100
0000
0010
0000
0100
0000
0001
0010
,
0001
0000
1000
0100
1000
0000
0100
0000
0020
0000
0000
0000
0230
0000
0000
0000
,
0010
0000
0001
0001
0000
0000
1300
0000
,
0100
0010
0100
0010
0001
0010
0001
0010
0001
1000
0001
1000
0001
0000
0000
0000
,
1000
0010
1000
0010
1000
0000
0001
0000
0010
0100
0010
0100
0010
0000
0001
0000
,
0100
0010
0100
0010
0100
0000
0001
0000
1000
0100
1000
0100
1000
0000
0001
0000
,
1000
1010
0000
0100
0000
0010
0110
0000
,
0001
0011
0000
0100
0000
0010
0110
0000
,
0001
0101
0000
1000
0000
0010
0110
0000
,
1000
1100
0000
1000
0100
0010
0001
0100
,
1001
0000
0000
0000
,
0000
0000
0000
0000
;
#NOTES:
     dance-single:
     :
     Challenge:
     16:
     :
0000
0000
0000
0000
,
0000
0000
0000
0000
,
0000
0000
0000
0000
,
0000
0000
0000
0000
,
0000
0000
0000
0000
,
1000
0000
0100
0000
0010
0000
0010
0001
0010
0000
0001
0000
0100
0000
0000
0000
,
0100
0000
0010
0000
0010
0000
0010
1000
0010
0000
0100
0000
0010
0000
0000
0000
,
0010
0000
1000
0000
0100
0000
0010
0001
0100
0000
0100
0000
0001
0000
0000
0000
,
1000
1100
0000
0101
0000
1010
1001
0001
,
0010
0000
0000
0010
0100
0000
1000
0000
0010
0000
0000
0000
0110
0000
0000
0100
,
0001
0000
0000
0001
0010
0000
1000
0000
0010
0000
0001
0000
0100
0000
1000
0000
,
1100
0110
0101
1000
1100
0110
0101
0100
,
2100
3020
0230
0302
,
1003
0000
0000
0010
0100
0000
0001
0000
0010
0000
0000
0000
0100
1000
0010
0100
,
0001
0000
0000
0001
0010
0000
0100
0000
1000
0000
0010
0100
0010
0100
0020
0000
,
1030
0000
1000
0000
0010
0000
0010
1000
0100
0000
0001
0000
0100
0000
0100
0000
,
1100
0000
0101
0000
0011
0000
0110
0100
,
1000
0000
0000
1000
0020
0000
0100
0000
0001
0000
0001
0000
0031
0000
0010
0100
,
0001
0000
0000
0001
0020
0000
0100
0000
0000
0000
1000
0000
1030
0000
0010
0100
,
1100
0000
0000
1001
0101
0000
0110
0000
,
2002
0000
3003
0000
0001
0010
0100
1000
,
0110
0000
0000
0010
0100
0000
0001
0000
0010
0000
0010
0000
0010
0000
0010
0100
,
0110
0000
0000
0010
0100
0000
1000
0000
0000
0000
0010
0000
0010
0000
0100
0000
,
0010
0000
0000
0010
0001
0000
0001
0000
0001
0000
0010
0000
1000
0000
1000
0000
,
0100
0000
0010
0001
0100
0000
0010
0000
2000
0000
0000
0000
3002
0000
0000
0000
,
0023
0000
0001
1000
0000
1000
0032
0000
,
0203
0000
0010
0010
2300
0000
3002
0000
,
0023
0000
1000
0001
0100
0001
1000
0130
,
0020
0000
0100
0100
2030
0000
3002
0000
,
0013
0000
0010
0100
0001
0000
0100
0000
1000
0000
0100
0000
0001
0000
0100
0000
,
0010
0000
0010
0100
0010
0000
0010
0000
0010
0000
0100
0010
0100
0000
0100
0000
,
0200
0000
1000
0001
0000
0001
1000
0000
,
0020
0000
0000
0330
,
1001
0000
1000
0100
0010
0000
0001
0100
0010
0000
0100
0001
0010
0000
0100
1000
,
0010
0000
0100
0010
1000
0000
0100
0010
0001
0000
1000
0000
0010
0100
0001
0010
,
0100
0000
0010
0001
0100
0000
0010
1000
0100
0000
0001
0100
1000
0000
0001
0100
,
1000
0000
0100
0010
1000
0000
0100
0000
0001
0100
0010
0100
1000
0000
0001
0000
,
0200
0000
0310
0100
0002
0000
0013
0100
0200
0000
0310
0100
2000
0000
3010
0100
,
0200
0000
0310
0100
0002
0000
0013
0000
0100
0010
0001
0100
0010
0000
0100
0001
,
0020
0000
1000
0000
1030
0000
0010
0001
0100
0000
0010
0000
1000
0000
0001
0000
,
0010
0001
1000
0010
0100
0001
1000
0100
0010
1000
0001
0100
1000
0000
0010
0100
,
0001
0000
0010
0100
0001
0000
0100
0010
0001
0000
0100
0010
0001
0000
0010
0100
,
0001
0000
0010
0100
0001
0000
0100
0000
0010
0001
1000
0010
0100
0000
0001
1000
,
0100
0000
1000
0010
0100
0000
1000
0100
0010
0000
1000
0100
0010
0000
1000
0001
,
0100
0010
0001
1000
0010
0100
1000
0000
0100
0010
1000
0001
0010
0100
0001
0100
,
0020
1000
0001
1000
0230
0001
1000
0001
,
0320
0000
0230
0300
,
1001
0000
0000
0000
1001
0000
0000
0000
1010
0000
0000
0101
0000
0000
0011
0000
,
0110
0000
0100
0000
0100
0000
0100
0000
0010
0000
0000
0001
0000
0000
1000
0000
,
0100
0000
0010
0000
0100
0000
0100
0000
0100
0000
0100
0000
0100
0000
0100
0100
,
0100
0000
0010
0000
0100
0000
0100
0000
0100
0000
0100
0000
0100
0000
0100
1000
,
0010
0000
0010
0000
0010
0000
0010
0000
0010
0000
0010
0000
0010
0000
0010
0010
,
0010
0000
0010
0000
0010
0000
0010
0000
0010
0000
0010
0000
0010
0000
0010
0100
,
0110
0000
0110
0000
0110
0000
0110
0000
0110
0000
0110
0000
0010
0100
0010
0010
,
0000
0000
0000
0000
0000
0010
0010
0010
,
1001
0000
0000
0000
0010
0000
1001
0000
0000
0000
0000
0000
0010
0100
0010
0100
,
1001
0000
0000
0000
0010
0000
0100
0000
0000
0000
0000
0010
0100
0000
0010
0000
,
1001
0000
0000
0000
0010
0000
1001
0000
0000
0000
0000
0000
0010
0100
0010
0100
,
1001
0000
0000
0000
0010
0000
0100
0000
0000
0000
0000
0010
0100
0000
0010
0000
,
1001
0000
1000
0100
1000
0000
1001
0000
0001
0100
0001
0000
0010
0100
0010
0000
,
1001
0000
1000
0010
1000
0000
0001
0010
0001
0000
0100
0010
0100
0010
0100
0000
,
1001
0000
0010
0100
0010
0000
1001
0000
0010
0100
1001
0000
0100
0010
1001
0000
,
0001
0010
0001
0010
0100
1000
0100
1000
0001
0100
0001
0100
1000
0100
1000
0100
,
0110
0000
0001
0010
0100
0000
0110
0000
1000
0010
0100
0000
0110
0000
0010
1000
,
1001
0000
0001
0010
0100
0000
0110
0000
0010
0001
0100
0000
0010
1000
0100
0010
,
0001
0000
0100
0010
1000
0000
1100
0000
0100
1000
0010
0000
0110
0000
0100
0001
,
0010
0100
0001
0100
0010
0001
1000
0010
0100
1000
0100
0010
1000
0000
0001
0000
,
0010
1000
0001
0100
1000
0000
0001
0000
0100
1000
0001
0010
1000
0000
0001
0000
,
1000
0100
0001
1000
0010
0000
0001
0000
1000
0010
0001
1000
0100
0000
0001
0000
,
0011
1010
0000
1010
0000
0011
1010
0000
,
1100
0101
0000
0101
0000
1100
0101
0000
,
1020
0001
0000
0001
0000
1000
0031
0000
,
1200
0001
0000
0001
0000
1000
0001
1300
,
1001
0000
0000
0000
,
0000
0000
0000
0000
;
#NOTES:
     dance-double:
     :
     Easy:
     5:
     :
00000000
00000000
00000000
00000000
,
00000000
00000000
00000000
00000000
,
00000000
00000000
00000000
00000000
,
00000000
00000000
00000000
00000000
,
00000000
00000000
00000000
00000000
,
10000000
00100000
01000000
00000000
,
00010000
00100000
00001000
00000000
,
00020000
00000000
00000000
00000000
,
00000000
00000000
00000000
00030000
,
00010000
00000010
00001000
00000000
,
00000001
00001000
00000010
00000000
,
00010000
00000000
00001000
00000000
,
00000000
00100000
00010000
10000000
,
01000000
00010000
00001000
00000000
,
00010000
00000100
00001000
00000000
,
00000001
00000000
00001000
00000000
,
00000020
00000000
00000000
00000030
,
00001000
00000010
00010000
00000000
,
00001000
00100000
00010000
00000000
,
20000000
30000000
02000000
03000000
,
00020000
00000000
00031000
00000000
,
00010000
00000010
00001000
00000001
,
00000100
00000010
00001000
00000100
,
00010000
00001000
01000000
00010000
,
10000000
00000000
10000000
01000000
,
00200000
00000000
00300000
00000000
,
00020000
00000000
00030000
00000000
,
00002000
00000000
00003000
00000000
,
00000200
00000000
00000300
00000000
,
00001000
00000100
00001000
00000000
,
00000001
00000100
00000001
00000000
,
00000200
00000000
00000000
00000000
,
00000020
00000000
00000000
00000330
,
00000100
00000010
00000100
00000010
,
00010000
00001000
00010000
00000000
,
01000000
00100000
01000000
00100000
,
00001000
00010000
00001000
00000000
,
00010000
00001000
00100000
00010000
,
10000000
00100000
01000000
00000000
,
00020000
00000000
00030000
10000000
,
20000000
00000000
00000000
30000000
,
10000000
01000000
00100000
00010000
,
00100000
00010000
00100000
00000000
,
00100000
00001000
00010000
00000100
,
00000010
00000100
00000010
00000000
,
00000002
00000003
00000200
00000300
,
00000020
00000030
00002000
00003000
,
00000100
00000000
00000000
00010000
,
00010000
00000000
00000000
00001000
,
00001000
00000000
00000000
00100000
,
00100000
00000000
00010000
01000000
,
00200000
00000000
00300000
10000000
,
10000000
00000000
00000000
10000000
,
01000000
00100000
00001000
00010000
,
00011000
00000000
00000000
00000000
,
00010000
00000010
00001000
00000000
,
00000001
00001000
00000010
00000000
,
00010000
00001000
00100000
00000000
,
00010000
10000000
01000000
00000000
,
01000000
00100000
00001000
00010000
,
00000100
00000010
00000001
00000000
,
00000002
00000000
00000003
00001000
,
00002000
00000000
00000000
00003000
,
00000010
00000100
00001000
00010000
,
00001000
00010000
00100000
02000000
,
00000000
00000000
00000000
03000000
,
00100000
01000000
00100000
00000000
,
20000000
30000000
02000000
03000000
,
00200000
00300000
00002000
00003000
,
00020000
00000000
00000000
00030000
,
00002000
00000000
00000000
00003000
,
00010000
00000100
00001000
00000000
,
00000001
00000010
00000100
00001000
,
00000001
00000000
00000000
00000000
,
00000000
00000000
00000000
00000000
;
#NOTES:
     dance-double:
     :
     Medium:
     12:
     :
00000000
00000000
00000000
00000000
,
00000000
00000000
00000000
00000000
,
00000000
00000000
00000000
00000000
,
00000000
00000000
00000000
00000000
,
00000000
00000000
00000000
00000000
,
10000000
01000000
10000000
00000000
01000000
00100000
01000000
00000000
,
00100000
00010000
00100000
00001000
00010000
00001000
00010000
00000000
,
00000010
00001000
00000010
00000000
00000100
00000001
00000100
00000000
,
00000010
00000100
00000000
00000010
00000000
00000100
00000001
00001000
,
00000001
00000000
00000000
00000100
00000000
00000000
00000010
00000000
00001000
00000000
00000100
00000000
00010000
00000000
00000000
00000000
,
00001000
00000000
00000000
00100000
00000000
00000000
00010000
00000000
01000000
00000000
00100000
00000000
10000000
00000000
00000000
00000000
,
10000000
01000000
00100000
00010000
00001000
00000100
00000010
00000000
,
00000001
00002000
00003020
00000230
,
00000301
00000000
00000000
00000010
00000000
00000000
00000100
00000000
00001000
00000000
00000010
00000000
00010000
00000000
00000000
00000000
,
00001000
00000000
00000000
01000000
00000000
00000000
00010000
00000000
00100000
00000000
01000000
00000000
10000000
00000000
00000000
00000000
,
10000000
01000000
00100000
00010000
00001000
00000100
00000010
00000000
,
00000002
00000010
00000100
00001003
,
00000001
00000000
00000000
00000100
00000000
00000000
00000010
00000000
00001000
00000000
00000010
00000000
00000100
00000000
00001000
00000000
,
00010000
00000000
00000000
00000010
00000000
00000000
00001000
00000000
00000000
00000000
00000100
00000000
00001000
00000000
00010000
00000000
,
00100000
00000000
00110000
00011000
,
00001100
00000000
00000000
00000000
00000100
00001000
00000100
00010000
,
00001000
00000000
00000000
00010000
00000000
00000000
00100000
00000000
01000000
00000000
00010000
00000000
01000000
00000000
00001000
00000000
,
00010000
00000000
00000000
00001000
00000000
00000000
00000010
00000000
00000000
00000000
00000100
00000000
00001000
00000000
00000100
00000000
,
00010000
00000000
00000000
00001000
00000000
00000000
00100000
00000000
00010000
00000000
01000000
00000000
00100000
00000000
00100000
00000000
,
20000000
30000000
01000000
00100000
,
00020000
00000000
00000000
20030000
00000000
00000000
32000000
00000000
,
03020000
00000000
00032000
00003020
,
00000230
00000000
00000000
00001300
00000100
00000010
00000100
00001000
,
00000002
00000000
00002003
00003200
,
00010300
00001000
00000100
00001000
00000100
00001000
00010000
00001000
,
00100000
00010000
00100000
00010000
10000000
01000000
10000000
01000000
,
20000000
00000000
00010000
00100000
,
02000000
00000000
00000000
33000000
,
02000000
03200000
00302000
00023000
,
00030100
00001000
00000100
00000010
00000002
00000000
00000003
00000001
,
00000200
00000320
00020030
00032000
,
01003000
00010000
01000000
00100000
20000000
00000000
30000000
10000000
,
02000000
03200000
00302000
00023000
,
00030010
00000100
00000010
00001000
00000002
00000000
00000003
00000001
,
00002000
00000000
00000000
00000000
00000000
00003010
00000100
00000010
,
00000200
00000000
00000000
00000300
,
00000200
00000320
00020030
00032000
,
01003000
00000000
00010000
00100000
01000000
00000000
10000000
00000000
00020000
00000000
00000000
00000000
00030000
00000000
10000000
00000000
,
02000000
03200000
00302000
00023000
,
00030100
00000000
00001000
00000010
00000100
00000000
00000001
00000000
00002000
00000000
00000000
00000000
00003000
00000000
00000001
00000000
,
00000200
00000010
00002300
00010000
,
00203000
00010000
00320000
10000000
,
20030000
00000000
00000000
30200000
00000000
00000000
02300000
00000000
,
03002000
00000000
00013000
00001000
,
00200000
00000000
00000000
00301000
00020000
00000000
00030200
00000000
,
00000320
00000000
00000032
00000203
,
00002300
00000000
00000000
00013000
00010000
00000000
00200000
00000000
,
00000000
20300000
30020000
00230000
,
00302000
00000000
00100000
01000000
,
00010000
00000000
00003000
00000000
,
00001000
00000000
00000000
00000010
00000000
00000000
00000001
00000000
,
00000001
00000000
00000000
00000100
00000000
00000000
00001000
00000000
,
00001000
00000000
00000000
00010000
00000000
00000000
00100000
00000000
,
00100000
00000000
00000000
10000000
00000000
00000000
01000000
00000000
,
02000000
03200000
00302000
00023000
,
00030010
00000000
00000100
00000010
00001000
00000000
00000001
00000000
00002000
00000000
00000000
00000000
00003000
00000000
00000001
00000000
,
00002000
00000000
00000000
00000000
00000000
00003010
00000100
00000010
,
00000200
00000000
00000000
00000300
,
00000020
00002030
00023000
02030000
,
03100000
00000000
10000000
01000000
00100000
00000000
00010000
00000000
00200000
00000000
00000000
00000000
00302000
00000000
00000000
00000000
,
00000000
00100000
00010000
00000100
,
00010000
00000100
00010000
00003100
,
00000200
00000000
00000302
00000000
,
00000023
00000000
00002030
00000000
,
00023000
00000000
00000000
00001000
00000000
00001000
00001000
00000000
,
00032000
00000000
00000000
00010000
00000000
01000000
01000000
00000000
,
02003000
00000000
00000000
00100000
00000000
00010000
00010000
00000000
,
03020000
00000000
00000000
10030000
00000000
00010000
00100000
00001000
,
00010000
00000000
00000000
00000000
,
00000000
00000000
00000000
00000000
;
#NOTES:
     dance-double:
     :
     Hard:
     14:
     :
00000000
00000000
00000000
00000000
,
00000000
00000000
00000000
00000000
,
00000000
00000000
00000000
00000000
,
00000000
00000000
00000000
00000000
,
00000000
00000000
00000000
00000000
,
10000000
01000000
00010000
00001000
00000010
00000001
00001000
00000000
,
00000001
00000000
00000100
00000000
00001000
00000000
00010000
00001000
00010000
00000000
00100000
00000000
10000000
00000000
00000000
00000000
,
10000000
00000000
01000000
00000000
00010000
00000000
00001000
00010000
00001000
00000000
00000010
00000000
00000001
00000000
00000000
00000000
,
00000010
00000110
00000000
00010100
00000000
00010000
00001000
00100000
,
00010000
00000000
00000000
00010000
01000000
00000000
10000000
00000000
01000000
00000000
00000000
00000000
00100000
00000000
00100000
01000000
,
00010000
00000000
00000000
00010000
00100000
00000000
00010000
00000000
00001000
00000000
00000100
00000000
00000010
00000000
00000100
00000000
,
00001100
00000000
00000001
00000011
00000000
00000010
00000110
00000000
,
00000100
00011000
00110000
01100000
,
10000000
00000000
00000000
10000000
01000000
00000000
00010000
00000000
01000000
00000000
00000000
00000000
00100000
00010000
00100000
00001000
,
00010000
00000000
00000000
00010000
00001000
00000000
00000010
00000000
00000001
00000000
00000010
00000000
00000100
00000000
00000000
00000000
,
00001000
00000000
00000010
00000100
00000001
00000000
00000100
00000000
00001000
00000000
00010000
00000000
00100000
00000000
10000000
00000000
,
00100000
01010000
00101000
00010100
,
00000100
00000000
00000000
00000000
00000020
00000000
00000001
00000000
00000000
00000000
00000130
00000000
00001000
00000000
00000100
00010000
,
00001000
00000000
00000000
00000000
00200000
00000000
01000000
00000000
00000000
00000000
00310000
00000000
10000000
00000000
01000000
00100000
,
00010000
00000000
00000000
10000000
11000000
00000000
01010000
00000000
,
00011000
00000000
00020000
00001000
00000000
00030100
00001000
00000100
,
00000010
00000000
00000000
00000010
00000100
00000000
00001000
00000000
00010000
00000000
00100000
00000000
00010000
00000000
10000000
00000000
,
01000000
00000000
00000000
01000000
00100000
00000000
00010000
00000000
00000000
00000000
10000000
00000000
01000000
00000000
00010000
00000000
,
00001000
00000000
00000000
00010000
00001000
00000000
00100000
00000000
00001000
00000000
00010000
00000000
00000100
00000000
00000100
00000000
,
00000010
00000000
00000001
00000010
00000001
00000000
00001000
00000000
00000200
00000000
00000000
00000000
00020300
00000000
00000000
00000000
,
00032000
00000000
00010000
00010000
00000000
00100000
00203000
00000000
,
01000000
00000000
00010000
00310000
00020000
00000000
20030000
00000000
,
30200000
00000000
00000000
00000000
00000000
00000000
02300000
03000000
00020000
00030000
00200000
00300000
20000000
30000000
00200000
00300000
,
00020000
00000000
01000000
01000000
02030000
00000000
03200000
00000000
,
10300000
01000000
00010000
00001000
00010000
00001000
00000010
00000001
,
00000100
00001000
00010000
00001000
00010000
00100000
10000000
00010000
,
00200000
00000000
01000000
01000000
00000000
00010000
00010000
00000000
,
00002000
00000000
00000000
00303000
,
00001000
00000000
00010000
00000000
00100000
00000000
10000000
00000000
01000000
00000000
00010000
00000000
00001000
00000000
00000010
00000100
,
00000010
00000000
00000001
00000010
00000001
00000000
00001000
00000000
00000001
00000000
00000100
00000000
00001000
00000000
00010000
00000000
,
00001000
00000010
00000001
00000100
00001000
00010000
00100000
10000000
,
00100000
00000000
01000000
00100000
01000000
00000000
00010000
00000000
10000000
00000000
00100000
00000000
00010000
00000000
00100000
00000000
,
10000000
00000000
01000000
00000000
00010000
00000000
00001000
00000000
00000010
00000000
00000001
00000000
00000010
00000000
00000100
00000010
,
00000100
00000000
00001000
00000100
00001000
00000000
00000010
00000000
00000100
00000000
00001000
00000000
00010000
00000000
00100000
00000000
,
10000000
01000000
00010000
00001000
00000010
00000100
00001000
00000001
,
00000010
00000001
00000010
00000001
00001000
00000010
00001000
00000010
00010000
00001000
00010000
00001000
00010000
00000000
00000000
00000000
,
00010000
00000000
00001000
00000000
00000010
00000000
00000001
00000000
00000100
00000000
00001000
00000000
00010000
00000000
00100000
01000000
,
00100000
00000000
10000000
00100000
10000000
00000000
00010000
00000000
10000000
00000000
01000000
00000000
00010000
00000000
00001000
00000000
,
00010000
00100000
10000000
01000000
00010000
00001000
00000010
00000001
,
00000010
00000000
00000100
00000010
00000100
00000000
00001000
00000000
00000001
00000000
00000010
00000000
00001000
00000000
00000010
00000000
,
00000002
00000000
00001000
00001003
00002000
00000000
00000100
00003100
,
00000200
00000000
00020300
00030000
,
00001000
00000000
00000000
00000000
00001000
00000000
00000000
00000000
00010000
00000000
00000000
00100000
00000000
00000000
00010000
00000000
,
00001000
00000000
00001000
00000000
00001000
00000000
00001000
00000000
00001000
00000000
00000000
00010000
00000000
00000000
00100000
00000000
,
01000000
00000000
10000000
00000000
01000000
00000000
01000000
00000000
01000000
00000000
01000000
00000000
01000000
00000000
00010000
01000000
,
00010000
00000000
00100000
00000000
01000000
00000000
01000000
00000000
00100000
00000000
00100000
00000000
00010000
00000000
00100000
00010000
,
00100000
00000000
00100000
00000000
00010000
00000000
00010000
00000000
00001000
00000000
00001000
00000000
00001000
00000000
00000010
00000100
,
00000010
00000000
00000010
00000000
00000100
00000000
00000100
00000000
00000001
00000000
00000001
00000000
00000010
00000000
00000010
00000100
,
00001000
00000000
00001000
00000000
00001000
00000000
00001000
00000000
00001000
00000000
00001000
00000000
00000100
00001000
00000100
00001000
,
00000000
00000000
00000000
00000000
,
00000002
00000023
00000230
00002300
,
00003100
00000000
00010000
00001000
00010000
00000000
00100000
00000000
01000000
00000000
01000000
00000000
00000000
00000000
00010000
00000000
,
20000000
32000000
03200000
00320000
,
00130000
00000000
00001000
00010000
00001000
00000000
00000010
00000000
00000200
00000000
00000000
00000000
00000300
00000000
00001000
00000000
,
00000001
00000000
00000100
00000000
00001000
00000000
00010000
00000000
00100000
00000000
10000000
00000000
00100000
00000000
01000000
00100000
,
01000000
00000000
00010000
01000000
00010000
00000000
00100000
00000000
01000000
00000000
00010000
00000000
00001000
00000000
00000010
00000100
,
00000020
00000000
00000000
00000000
00000000
00000031
00000100
00000001
,
00000010
00000001
00000010
00000001
00001000
00000010
00001000
00000010
00010000
00001000
00010000
00001000
00010000
00000000
00000000
00000000
,
00010000
00000000
00100000
00000000
10000000
00000000
01000000
00000000
00010000
00000000
00001000
00000000
00000010
00000000
00000001
00000010
,
00000001
00000000
00001000
00000100
00001000
00000000
00000010
00000000
00020000
00000000
00000000
00000000
00032000
00000000
00000000
00000000
,
00010000
00000000
00100000
00100000
00000000
00000000
01003000
00000000
,
01000000
00010000
01000000
00010000
10000000
00100000
10000000
00100000
10000000
00010000
10000000
00010000
10000000
00000000
00000000
00000000
,
00010000
00100000
00010000
00100000
00010000
00000000
01000000
00000000
00001000
00010000
00001000
00010000
00001000
00000000
00010000
00000000
,
00000100
00001000
00000100
00001000
00000100
00000000
00010000
00000000
00000010
00000100
00000010
00000100
00000010
00000000
00001000
00000000
,
00000001
00000011
00000000
00000010
00000000
00000100
00010100
00000000
,
00010000
00011000
00000000
00010000
00000000
01000000
01100000
00000000
,
10000000
11000000
00000000
01000000
00000000
00100000
00101000
00000000
,
00001000
00011000
00000000
00001000
00000100
00000010
00001000
00000100
,
00001001
00000000
00000000
00000000
,
00000000
00000000
00000000
00000000
;
#NOTES:
     dance-double:
     :
     Challenge:
     16:
     :
00000000
00000000
00000000
00000000
,
00000000
00000000
00000000
00000000
,
00000000
00000000
00000000
00000000
,
00000000
00000000
00000000
00000000
,
00000000
00000000
00000000
00000000
,
00001000
00000000
00010000
00000000
01000000
00000000
00100000
00010000
10000000
00000000
00100000
00000000
01000000
00000000
00000000
00000000
,
01000000
00000000
00100000
00000000
00100000
00000000
00010000
00001000
00010000
00000000
00001000
00000000
00000100
00000000
00000000
00000000
,
00000100
00000000
00000001
00000000
00000001
00000000
00000010
00000100
00001000
00000000
00001000
00000000
00000010
00000000
00000000
00000000
,
00000100
00001100
00000000
00011000
00000000
01010000
11000000
10000000
,
00100000
00000000
00000000
00100000
00010000
00000000
00001000
00000000
00010000
00000000
00000000
00000000
00011000
00000000
00000000
00010000
,
01000000
00000000
00000000
01000000
10000000
00000000
00010000
00000000
01000000
00000000
00100000
00000000
00010000
00000000
00001000
00000000
,
00001100
00000110
00000101
00001000
00001100
00000110
00000101
00000100
,
00000020
00002030
00023000
02030000
,
13000000
00000000
00000000
10000000
00100000
00000000
00010000
00000000
00001000
00000000
00000000
00000000
00010000
00000010
00000100
00000001
,
00000010
00000000
00000000
00000010
00000100
00000000
00010000
00000000
00001000
00000000
01000000
00100000
00010000
00001000
00020000
00000000
,
00030100
00000000
00000100
00000000
00000010
00000000
00000010
00000001
00000100
00000000
00001000
00000000
00010000
00000000
00100000
00000000
,
10100000
00000000
01001000
00000000
00010010
00000000
00000101
00000001
,
00000010
00000000
00000000
00000010
00002000
00000000
00010000
00000000
00000100
00000000
00000100
00000000
00003100
00000000
00001000
00000000
,
00010000
00000000
00000000
00010000
00002000
00000000
00000010
00000000
00000000
00000000
00010000
00000000
00013000
00000000
00001000
00000000
,
00000100
00000000
00000000
00000101
00001001
00000000
00010100
00000000
,
00022000
00000000
00033000
00000000
00010000
00100000
10000000
01000000
,
00100000
00000000
00000000
00100000
00010000
00000000
10000000
00000000
00100000
00000000
00100000
00000000
00100000
00000000
00100000
01000000
,
00100000
00000000
00000000
00100000
00010000
00000000
00001000
00000000
00000000
00000000
00000010
00000000
00000010
00000000
00000100
00000000
,
00000010
00000000
00000000
00000010
00000001
00000000
00000001
00000000
00000001
00000000
00000010
00000000
00001000
00000000
00001000
00000000
,
00010000
00000000
01000000
10000000
00100000
00000000
01000000
00000000
00200000
00000000
00000000
00000000
20300000
00000000
00000000
00000000
,
30020000
00000000
01000000
00001000
00000000
00001000
02030000
00000000
,
03002000
00000000
00010000
00010000
00003200
00000000
00000302
00000000
,
00002003
00000000
00000100
00010000
01000000
00010000
00000100
00000001
,
00003020
00000000
00000100
00000130
00002000
00000000
00023000
00000000
,
00130000
00000000
00100000
01000000
00010000
00000000
10000000
00000000
01000000
00000000
00010000
00000000
00001000
00000000
00000100
00000000
,
00000010
00000000
00000010
00000100
00001000
00000000
00010000
00000000
00001000
00000000
00100000
01000000
00010000
00000000
00001000
00000000
,
00020000
00000000
00001000
00100000
00000000
00100000
00031000
00000000
,
00000220
00000000
00000000
00000330
,
00001001
00000000
00000001
00000100
00000010
00000000
00000100
00000001
00001000
00000000
00000100
00000010
00001000
00000000
00010000
00001000
,
01000000
00000000
00100000
10000000
00010000
00000000
00100000
01000000
10000000
00000000
00010000
00000000
01000000
00001000
00010000
01000000
,
00100000
00000000
01000000
10000000
00010000
00000000
01000000
00100000
00010000
00000000
00001000
00000100
00000001
00000000
00001000
00000100
,
00000001
00000000
00000100
00000010
00000001
00000000
00000100
00000000
00000010
00010000
00001000
00000010
00000100
00000000
00000010
00000000
,
00000200
00000000
00001300
00000100
00020000
00000000
00031000
00010000
00020000
00000000
00031000
00010000
02000000
00000000
03010000
01000000
,
02000000
00000000
03100000
01000000
20000000
00000000
30100000
00000000
01000000
00010000
00100000
00001000
00010000
00000000
00000100
00000000
,
00002000
00000000
00010000
00000000
00010000
00000000
00003100
00000010
00000100
00000000
00000010
00000000
00001001
00000000
00000000
00000000
,
00001000
00000100
00010000
00001000
01000000
00010000
10000000
01000000
00100000
00001000
00010000
00000010
00000100
00000000
00000001
00000010
,
00000100
00000000
00001000
00000010
00000100
00000000
00000010
00010000
00001000
00000000
00010000
00000100
00000010
00000000
00000100
00010000
,
00001000
00000000
00010000
00000010
00000100
00000000
00001000
00000000
00010000
00001000
00100000
01000000
10000000
00000000
00010000
01000000
,
00100000
00000000
10000000
01000000
00100000
00000000
01000000
00010000
00001000
00000000
00010000
00100000
01000000
00000000
00100000
00010000
,
00001000
00000000
00010000
01000000
00100000
00000000
00010000
00000000
10000000
01000000
00100000
00010000
00001000
00000100
00000010
00000001
,
00002000
00000100
00010000
00000100
00023000
01000000
00001000
01000000
,
00032000
00000000
00023000
00030000
,
00011000
00000000
00000000
00000000
00011000
00000000
00000000
00000000
00101000
00000000
00000000
01010000
00000000
00000000
10100000
00000000
,
01100000
00000000
01000000
00000000
01000000
00000000
01000000
00000000
00100000
00000000
00000000
00010000
00000000
00000000
00001000
00000000
,
00000100
00000000
00000010
00000000
00000100
00000000
00000100
00000000
00000100
00000000
00000100
00000000
00000100
00000000
00000100
00000100
,
00000100
00000000
00001000
00000000
00010000
00000000
00010000
00000000
00010000
00000000
00010000
00000000
00010000
00000000
00010000
01000000
,
00100000
00000000
00100000
00000000
00100000
00000000
00100000
00000000
00100000
00000000
00100000
00000000
00100000
00000000
00100000
00100000
,
00010000
00000000
00010000
00000000
00010000
00000000
00010000
00000000
00010000
00000000
00010000
00000000
00010000
00000000
00010000
01000000
,
01001000
00000000
01001000
00000000
00010010
00000000
00010010
00000000
00001001
00000000
00001001
00000000
00000001
00001000
00000001
00000001
,
00000000
00000000
00000000
00000000
,
00000002
00000023
00002030
00023000
,
01030000
00000000
00100000
00010000
01000000
00000000
00010000
00000000
10000000
00000000
10000000
00000000
00000000
00000000
00100000
00000000
,
02000000
03020000
00032000
00003020
,
00000031
00000000
00000010
00001000
00000100
00000000
00010000
00000000
00001000
00000000
00000000
00000000
00000000
00000000
00010000
00000000
,
00011000
00000000
00001000
00010000
01000000
00000000
01100000
00000000
00100000
00010000
01000000
00000000
00100000
00010000
00001000
00000000
,
00011000
00000000
00001000
00000100
00000010
00000000
00001000
00000001
00000010
00000000
00000100
00001000
00000010
00000100
00001000
00000000
,
00011000
00000000
00010000
00000100
00000010
00000000
00000110
00000000
00000100
00000010
00001000
00000000
00001000
00010000
01000000
00000000
,
00100000
00000000
00010000
00000000
00100000
00000000
00010000
00000000
01000000
00000000
00001000
00000000
01000000
00000000
00001000
00000000
00010000
00000000
00000100
00000000
00010000
00000000
00000100
00000000
00001000
00000100
00002000
00000000
00003000
00000000
00000000
00000000
,
00000001
00000000
00001000
00000010
00000100
00000000
00000110
00000000
00000100
00001000
00010000
00000000
00011000
00000000
00001000
00000010
,
00000110
00000000
00000100
00001000
00000010
00000000
00000110
00000000
00000100
00001000
00010000
00000000
00011000
00010000
01000000
00100000
,
01100000
00000000
00100000
00010000
01000000
00000000
01100000
00000000
00100000
10000000
01000000
00000000
01100000
00000000
00100000
00001000
,
00010000
00001000
01000000
00100000
00010000
00001000
00010000
00000100
00000010
00001000
00010000
00001000
01000000
00000000
00010000
00000000
,
00100000
00010000
00200000
00000000
00300000
00000000
00000000
00000000
00001000
00000000
00000000
00000000
00010000
00000000
00000000
00000000
00001000
00010000
00002000
00000000
00003000
00000000
00000000
00000000
00010000
00000000
00000000
00000000
00000100
00000000
00000000
00000000
,
00001000
00000100
00002000
00000000
00003000
00000000
00000000
00000000
00000001
00000000
00000000
00000000
00000100
00000000
00000000
00000000
00000010
00001000
00000020
00000000
00000030
00000000
00000000
00000000
00001000
00000000
00000000
00000000
00000100
00000000
00000000
00000000
,
00001100
00011000
00000000
00011000
00000000
00001100
00011000
00000000
,
01010000
00011000
00000000
00011000
00000000
01010000
00011000
00000000
,
00002100
00010000
00000000
00010000
00000000
00000100
00013000
00000000
,
01020000
00001000
00000000
00001000
00000000
01000000
00001000
01030000
,
00011000
00000000
00000000
00000000
,
00000000
00000000
00000000
00000000
;
