
//----- song ID: arca -----//
#TITLE:Arcadia;
#ARTIST:OMOCHI feat.星野奏子;
#ARTISTTRANSLIT:OMOCHI feat. Kanako Hoshino;
#BANNER:Arcadia.png;
#BACKGROUND:Arcadia-bg.png;
#CDTITLE:./CDTitles/DDR WORLD.png;
#MUSIC:Arcadia.ogg;
#SAMPLESTART:60.171;
#SAMPLELENGTH:15;
#BPMS:0=177;
#BGSTAGE:3;
#NOTES:
     dance-single:
     :
     Beginner:
     3:
     :
0000
0000
0000
0000
,
0000
0000
0000
0000
,
0000
0000
0000
0000
,
0000
0000
0000
0000
,
0000
0000
0000
0000
,
0001
0000
0000
0000
,
0010
0000
0000
0000
,
0001
0000
0000
0000
,
0000
0000
0000
0000
,
0010
0000
0000
0000
,
0010
0000
0000
0000
,
0100
0000
0000
0000
,
0000
0000
0000
0000
,
0001
0000
0000
0000
,
0001
0000
0000
0000
,
0100
0000
0000
0000
,
0000
0000
0000
0000
,
0100
0000
0000
0000
,
0100
0000
0000
0000
,
1000
0000
0000
0000
,
0000
0000
0000
0000
,
1000
0000
0000
0000
,
1000
0000
0000
0000
,
0010
0000
0000
0000
,
0000
0000
0000
0000
,
0010
0000
0000
0000
,
0010
0000
0000
0000
,
0001
0000
0000
0000
,
0000
0000
0000
0000
,
1001
0000
0000
0000
,
0000
0000
0000
0000
,
0001
0000
0001
0000
,
0010
0000
0000
0000
,
1001
0000
0000
0000
,
0000
0000
0000
0000
,
0100
0000
0100
0000
,
0001
0000
0000
0000
,
0001
0000
0000
0000
,
0010
0000
0000
0000
,
1000
0000
0000
0000
,
0000
0000
0000
0000
,
1000
0000
1000
0000
,
0010
0000
0000
0000
,
2000
0000
0000
0000
,
3000
0000
0000
0000
,
1000
0000
1000
0000
,
0100
0000
0000
0000
,
0100
0000
0010
0000
,
0100
0000
0000
0000
,
1001
0000
0000
0000
,
0000
0000
0000
0000
,
1001
0000
0000
0000
,
0000
0000
0000
0000
,
0001
0000
0001
0000
,
0010
0000
0000
0000
,
0010
0000
0100
0000
,
0010
0000
0000
0000
,
1001
0000
0000
0000
,
0000
0000
0000
0000
,
1001
0000
0000
0000
,
0000
0000
0000
0000
,
1000
0000
1000
0000
,
0010
0000
0000
0000
,
1000
0000
0100
0000
,
1000
0000
0000
0000
,
0010
0000
0000
0000
,
0100
0000
0000
0000
,
0010
0000
0010
0000
,
0100
0000
0000
0000
,
1001
0000
0000
0000
,
0000
0000
0000
0000
,
0001
0000
0001
0000
,
0010
0000
0010
0000
,
0001
0000
0000
0000
,
0100
0000
0000
0000
,
0010
0000
0000
0000
,
0010
0000
0010
0000
,
0100
0000
0000
0000
,
1001
0000
0000
0000
,
0000
0000
0000
0000
,
2000
0000
0000
0000
,
3000
0000
0000
0000
,
0002
0000
0000
0000
,
0003
0000
0000
0000
,
1001
0000
0000
0000
,
0000
0000
0000
0000
;
#NOTES:
     dance-single:
     :
     Easy:
     7:
     :
0000
0000
0000
0000
,
0000
0000
0000
0000
,
0000
0000
0000
0000
,
0000
0000
0000
0000
,
0000
0000
0000
0000
,
0001
0000
0010
0000
,
0001
1000
0001
0000
,
0100
0000
0010
0000
,
0110
0000
0000
0000
,
1000
0000
0010
0000
,
1000
0001
1000
0000
,
0100
0000
0010
0000
,
0110
0000
0000
0000
,
0001
0000
1000
0000
,
0010
0100
0001
0000
,
0010
0100
1000
0000
,
0100
0010
0001
0000
,
1000
0000
0001
0000
,
0100
0010
1000
0000
,
0100
0010
0001
0000
,
0010
0100
1000
0000
,
0001
0100
0001
0100
,
0010
1000
0010
0000
,
1000
0100
1000
0100
,
0010
0001
0010
0000
,
0001
1000
0010
0100
,
0010
1000
0001
0000
,
1000
0001
0010
0100
,
0010
0010
0010
0000
,
0110
0000
1001
0000
,
0001
0010
1000
0000
,
0110
0000
1001
0000
,
1000
0100
0001
0000
,
0110
0000
1001
0000
,
1000
0001
1000
0001
,
2000
0000
0000
3000
,
0002
0000
0000
0003
,
1000
0010
0100
0010
,
1000
0000
0010
0000
0100
0010
0100
0000
,
0001
0010
0100
0010
,
0001
0010
0001
0000
0010
0000
0000
0000
,
0001
0000
0000
0001
0000
0000
0000
0000
,
1000
0000
0000
1000
0000
0000
0000
0000
,
0020
0000
0000
0030
,
0110
0000
0000
0000
,
1000
0100
0001
0100
,
1000
1000
1000
0000
,
1010
0000
0101
0000
,
0001
1000
1001
0000
,
0010
0100
0110
0000
,
0100
0010
0110
0000
,
1001
0000
0110
0000
,
2002
0000
0000
3003
,
0001
0100
1000
0100
,
0001
0001
0001
0000
,
0011
0000
1100
0000
,
1000
0001
1001
0000
,
0010
0100
0110
0000
,
0100
0010
0110
0000
,
1001
0000
0110
0000
,
2002
0000
0000
3003
,
0001
0100
0001
0010
,
0100
1000
0010
1000
,
0001
0100
0001
0000
1000
0000
0010
0000
,
0200
0000
0000
0300
,
0001
0010
1000
0010
,
0001
0000
1000
0000
0100
0010
0100
0000
,
1100
0000
0101
0000
,
2002
0000
0000
0000
,
3003
0000
0000
0000
,
0000
1001
0000
0000
,
0220
0000
0000
0330
,
1000
0010
1000
0010
,
0100
0001
0010
0000
,
0001
1000
0001
0000
1000
0000
0000
0000
,
0010
0100
0110
0000
,
1000
0001
0100
0001
,
1000
0100
0010
0000
,
0001
0000
0000
1000
0000
0000
0000
0000
,
0000
0000
0000
0000
,
1001
0000
0110
0000
,
0001
0100
0010
0000
,
1001
0000
0110
0000
,
1000
0100
0010
0000
,
1001
0000
0000
0000
,
0000
0000
0000
0000
;
#NOTES:
     dance-single:
     :
     Medium:
     10:
     :
0000
0000
0000
0000
,
0000
0000
0000
0000
,
0000
0000
0000
0000
,
0000
0000
0000
0000
,
0000
0000
0000
0000
,
1000
0000
0001
0000
0100
0010
0100
0000
,
0001
0000
1000
0000
0100
0010
0100
0000
,
2000
3100
0002
0103
,
0020
0000
0000
0100
0130
0000
0110
0000
,
0001
0000
0010
0000
1000
0010
0001
0000
,
1000
0000
0100
0010
0002
0000
0003
0000
,
0011
0001
0101
0100
,
0010
1000
0010
0000
0100
0001
0100
0000
,
0001
1000
0001
1000
,
0100
0000
0010
0000
0100
0010
0100
0000
,
1000
0010
1000
0010
,
0100
0000
0001
0000
0100
0001
0100
0000
,
0001
0010
1000
0010
,
0001
0000
1000
0000
0001
0100
0001
0000
,
1000
0010
0001
0010
,
1000
0010
1000
0000
0001
0010
0001
0000
,
1001
0000
0000
0000
1000
0000
0100
0010
,
0000
0010
0001
0010
0000
0000
0001
0000
,
0100
0000
0010
1000
0000
0100
1000
0000
,
0010
0100
0000
0000
0000
0001
1000
0000
,
0001
0000
1001
0000
1000
0100
0010
0000
,
0001
0000
1001
0000
1000
0010
0100
0000
,
0001
0001
1000
1000
,
1010
0110
0101
1001
,
1000
0010
0000
0000
1001
0000
0000
0000
,
0001
0010
0000
0000
1001
0000
0000
0000
,
1000
0100
0000
0000
1001
0000
0000
0000
,
0001
0100
0000
0000
0001
0000
1001
0000
,
1000
0100
0000
0000
0110
0000
0000
0000
,
0001
0100
0000
0000
0010
0000
0110
0000
,
1000
0000
0000
0100
0000
0000
0020
0000
0000
0000
0000
0000
0030
0000
0000
0000
,
0001
1000
0001
2000
0000
0000
3000
0000
,
0000
1000
0000
1010
0000
0000
1001
0000
,
0001
0000
0010
0000
0100
1000
0100
0000
,
1000
0010
0001
0010
,
0100
0010
0100
0000
0010
0100
0010
0000
,
1000
0010
0000
1100
0000
0000
0000
0001
,
0010
0001
0000
0101
0000
0000
0000
0000
,
0001
0000
0100
0000
1000
0000
0100
0010
,
0000
0010
0010
0000
0000
0000
0000
0000
,
1000
0000
0010
0000
0100
0001
0010
0000
,
0001
1000
0010
0100
0001
0000
0000
0000
,
0002
0010
0203
0010
,
0301
0000
1000
0002
0000
0000
0003
0000
,
0000
1000
0010
0100
0001
0000
0000
0000
,
0011
0000
1000
0000
1100
0000
0000
0100
,
1000
0000
0000
0000
0000
0000
1000
0000
0010
0000
0000
0100
0000
0000
0010
0000
,
0100
0000
0110
0000
1000
0001
1000
0000
,
0001
0000
0100
0000
0010
1000
0100
0000
,
1000
0001
0100
0010
1000
0000
0000
0000
,
2000
0100
3020
0100
,
1030
0000
0001
2000
0000
0000
3000
0000
,
0000
0001
0100
0010
1000
0000
0000
0000
,
1100
0000
0001
0000
0011
0000
0000
0010
,
0001
0000
0000
0000
0000
0000
0001
0000
0100
0000
0000
0010
0000
0000
0100
0000
,
0010
0000
0000
1000
0000
0000
0001
0000
1000
0000
0000
0100
0000
0000
0010
0000
,
0001
0000
0100
0000
0010
1000
0010
0000
,
0100
0001
0100
0000
0001
1000
0001
0000
,
0020
0230
2300
3002
,
0103
0000
0010
2000
0000
0000
3000
0000
,
1000
0000
0100
0010
0000
0010
0001
0000
,
0100
0000
0010
0200
0000
0000
0300
0000
,
0001
0100
0010
0000
1000
0100
0010
0000
,
0001
1000
0001
1000
0002
0000
0000
0000
,
0003
0000
0000
0000
,
0000
0000
1001
0000
0000
1000
0000
0001
,
0000
0010
0000
0100
0000
1000
0001
0000
,
2000
0010
0100
3010
,
1000
0000
0001
0200
0000
0000
0300
0000
,
0000
0001
1000
0000
0100
0000
0010
0001
,
0000
0100
0000
0101
0000
0000
0000
0001
,
0100
0000
0000
0000
0000
0000
0010
0000
1000
0000
0000
0001
0000
0000
1000
0000
,
0200
0010
2300
0001
,
3002
0000
0000
2000
0000
0000
0000
0000
,
0000
0000
0000
3003
,
1001
0100
0110
0000
,
0001
0000
0010
0100
0000
0000
0010
0000
0100
1000
0000
0000
,
1001
0010
0110
0000
,
1000
0000
0100
0010
0000
0000
0100
0000
0010
0001
0000
0000
,
1001
0000
0000
0000
,
0000
0000
0000
0000
;
#NOTES:
     dance-single:
     :
     Hard:
     13:
     :
0000
0000
0000
0000
,
0000
0000
0000
0000
,
0000
0000
0000
0000
,
0000
0000
0000
0000
,
0000
0000
0000
0000
,
1000
0100
1000
0100
0010
0001
0100
0010
,
1000
0010
1000
0010
0100
0001
1000
0000
,
0001
0010
0100
0000
1000
0010
0100
0000
,
0002
0000
0103
0010
2000
0000
3000
0000
,
0010
1000
0100
0000
0010
0001
0100
0000
,
0001
1000
0100
0010
0002
0000
0003
0000
,
0001
0000
0001
0100
0000
0100
0010
0000
0010
1000
0000
1000
,
0001
0010
0100
1000
0100
0010
0001
1000
0100
0020
0000
0000
,
0031
1000
0001
1000
0010
0100
0010
0000
,
1000
0010
1000
0010
0100
0001
0100
0000
,
0001
0010
0001
0010
0100
1000
0100
0000
,
1000
0010
0100
0000
0001
0010
0100
0000
,
1000
0001
1000
0001
0100
0010
0100
0000
,
0001
0100
0001
0100
0010
1000
0010
0000
,
1000
0100
1000
0100
0010
0001
0010
0000
,
0001
0100
0010
0000
1000
0100
0010
0000
,
0002
0000
0203
0000
1300
0100
0001
0010
,
0200
0000
0302
0000
0103
1000
0001
0010
,
0100
0000
1000
0010
0000
0010
0100
0000
,
0100
0001
0000
0001
0010
0000
1001
0000
,
2000
0000
3020
0000
0031
0010
1000
0100
,
0020
0000
2030
0000
3010
0001
1000
0100
,
0010
0001
0010
0000
0100
1000
0100
0000
,
1000
0000
1000
0010
0000
0010
0100
0001
1000
0010
0000
0000
,
1000
1000
0000
0000
1100
0000
0000
0100
,
0010
0001
0000
0000
0011
0000
1001
0000
,
0001
0001
0000
0000
0101
0000
0000
0100
,
0010
1000
0000
0000
1010
0000
1001
0000
,
1000
1000
0000
0000
1010
0000
0000
0010
,
0100
0001
0000
0000
0101
0000
1001
0000
,
0001
0001
0000
0000
0011
0000
0000
0010
,
0100
1000
0100
2000
0000
0000
3000
0000
,
0000
1000
0100
0110
0000
0010
1001
0000
,
0001
0010
0100
0010
0001
0100
0010
1000
,
0100
0010
0100
0010
0001
0100
0001
0100
,
0010
1000
0100
0010
0001
0100
0010
0000
,
1000
0010
0100
0001
0000
0001
1000
0000
,
0001
0010
0100
1000
0000
1000
0001
0100
,
0000
0100
0010
1000
0100
0010
0001
0100
,
0000
0110
0110
0000
0000
0000
0000
0000
,
1000
0010
1000
0100
1000
0010
0100
0001
,
1000
0100
0001
0100
1000
0001
0010
0000
,
0001
0010
0001
0100
0001
0010
0100
1000
,
0001
0100
1000
0100
0001
1000
0010
1000
,
0000
0010
1000
1000
0100
0000
0110
0010
,
0001
0000
1000
0000
0001
0000
0020
0000
0000
0000
0000
0000
0030
0000
0001
1000
,
0001
0000
0000
0000
0001
0000
0100
0000
0010
0000
0000
0010
0000
0000
1000
0000
,
0010
0100
0001
1000
0010
0100
0001
1000
,
0000
0000
1001
0000
1000
0010
0001
0010
,
1000
0100
1000
0010
0100
0001
0010
0001
,
0020
0000
1000
0000
0130
1000
0001
0100
,
0000
0100
0010
0200
0000
0000
0310
0000
,
0000
1000
0010
0100
0001
0000
1000
0100
,
0001
0100
1000
0100
0001
0000
0110
0000
,
1000
0001
0100
0000
0001
1000
0100
0000
,
0010
0000
0000
0010
0000
0000
0010
0000
0001
0000
1000
0000
0010
0000
0000
0000
,
2000
0000
3001
0100
0010
0001
0010
0100
,
0001
0010
0100
1000
0100
0001
0100
0000
,
1000
0010
0001
0010
1000
0010
0001
0010
,
1000
0100
0010
0001
0000
0001
1000
0000
,
0002
0000
0100
0000
0013
0100
0001
0100
,
2000
0000
0100
0000
3010
0001
0010
0100
,
0001
0010
0001
0010
0100
1000
0100
1000
,
0001
1000
0001
1000
0001
1000
0001
1000
,
0001
0000
0000
0000
,
0000
0000
1001
0000
0000
0011
0000
1100
,
1000
0100
0010
0001
1000
0100
0010
0000
,
0002
0000
0010
0000
1003
0010
1000
0100
,
0000
0010
0001
0010
0001
0000
1001
0000
,
0000
1000
0010
0100
0001
0000
0010
0001
,
0000
0100
0001
0010
0000
0001
1000
0001
,
1000
0000
0000
0000
0010
0000
0100
0000
0010
0000
0000
1000
0000
0000
0100
0000
,
0001
0000
0000
0100
0000
0000
1000
0000
0001
0000
0000
0010
0000
0000
0001
0000
,
2000
0000
0000
0002
0000
0000
0000
0000
,
0000
0000
0000
3003
,
1000
0000
1000
0100
0000
0100
0010
0000
0010
0001
0000
0000
,
1000
0010
0100
0001
0000
0000
1000
0010
0100
0001
0000
0000
,
0001
0000
0001
0100
0000
0100
0010
0000
0010
1000
0000
0000
,
0001
0010
0100
1000
0000
0000
0001
0010
0100
1000
0000
0000
,
1001
0000
0000
0000
,
0000
0000
0000
0000
;
#NOTES:
     dance-double:
     :
     Easy:
     7:
     :
00000000
00000000
00000000
00000000
,
00000000
00000000
00000000
00000000
,
00000000
00000000
00000000
00000000
,
00000000
00000000
00000000
00000000
,
00000000
00000000
00000000
00000000
,
00001000
00000000
00010000
00000000
,
00001000
00010000
00001000
00000000
,
00010000
00000100
00010000
00000000
,
00000200
00000000
00000000
00000300
,
00000100
00000000
00000010
00000000
,
00000001
00001000
00000001
00000000
,
00000100
00000010
00001000
00000000
,
00000010
00010000
00001000
00000000
,
00011000
00000000
00001000
00000000
,
00010000
00001000
00100000
00000000
,
00020000
00000000
00000000
00030000
,
00200000
00000000
00000000
00300000
,
01000000
00000000
10000000
00000000
,
00100000
01000000
00100000
00000000
,
10000000
01000000
00100000
00001000
,
00020000
00000000
00000000
00030000
,
00010000
00001000
00010000
00000010
,
00001000
00000010
00001000
00000000
,
00000001
00000010
00000100
00000010
,
00000001
00001000
00000001
00000000
,
00001000
00001000
00000100
00000000
,
00010000
00010000
00001000
00000000
,
01000000
00010000
00100000
01000000
,
10000000
10000000
10000000
00000000
,
10010000
00000000
01100000
00000000
,
10000000
01000000
00010000
00000000
,
00011000
00000000
00011000
00000000
,
00010000
00001000
00000010
00000000
,
00000110
00000000
00001001
00000000
,
00000001
00000010
00000001
00000100
,
00000020
00000000
00000000
00000030
,
00001000
00000001
00001000
00000000
,
00000001
00000100
00000001
00000100
,
00000010
00001000
00000010
00010000
,
00001000
00010000
00001000
01000000
,
00010000
00000000
00100000
00000000
01000000
00100000
01000000
00000000
,
10000000
00000000
00000000
10000000
00000000
00000000
00000000
00000000
,
00010000
00000000
00000000
00010000
00000000
00000000
00000000
00000000
,
00100000
00001000
00010000
00001000
,
00011000
00000000
00000000
00000000
,
00010000
00001000
00000010
00000000
,
00000001
00001000
00000001
00000000
,
00000001
00000100
00000010
00001000
,
00000200
00000000
00000000
00000300
,
00000100
00000100
00010000
00000000
,
00001000
00001000
00010000
00000000
,
00001000
00100000
00001000
00010000
,
00022000
00000000
00000000
00033000
,
00001000
00010000
00100000
00000000
,
10000000
00010000
10000000
00000000
,
10000000
01000000
00100000
00010000
,
02000000
00000000
00000000
03000000
,
01000000
01000000
00001000
00000000
,
00010000
00010000
00001000
00000000
,
00010000
00000010
00010000
00001000
,
00022000
00000000
00000000
00033000
,
00001000
00010000
00001000
01000000
,
00010000
00100000
01000000
00000000
,
10000000
00100000
10000000
00000000
00010000
00000000
10000000
00000000
,
00200000
00000000
00000000
00300000
,
10000000
01000000
00010000
00000000
,
00010000
00001000
00000010
00000000
,
00000001
00000010
00000001
00000000
00001000
00000000
00000100
00000000
,
00000220
00000000
00000000
00000000
,
00000330
00000000
00000000
00000000
,
00000000
00000110
00000000
00000000
,
00002002
00000000
00000000
00003003
,
00000001
00000010
00000001
00000010
,
00001000
00010000
00001000
00000000
,
00010000
00001000
00010000
01000000
,
00100000
00010000
10010000
00000000
,
10000000
00100000
00010000
00000000
,
00001000
00000000
00010000
00000000
,
00022000
00000000
00000000
00000000
,
00033000
00000000
00000000
00000000
,
00001000
00000010
00001000
00000000
,
00010000
00000000
00011000
00000000
,
00010000
00100000
00010000
00000000
,
00001000
00000000
00010000
00000000
,
00011000
00000000
00000000
00000000
,
00000000
00000000
00000000
00000000
;
#NOTES:
     dance-double:
     :
     Medium:
     10:
     :
00000000
00000000
00000000
00000000
,
00000000
00000000
00000000
00000000
,
00000000
00000000
00000000
00000000
,
00000000
00000000
00000000
00000000
,
00000000
00000000
00000000
00000000
,
00001000
00000000
00010000
00000000
00001000
00100000
00001000
00000000
,
00100000
00000000
00010000
00000000
01000000
00100000
01000000
00000000
,
00020000
00130000
02000000
13000000
,
00010000
00000000
00100000
00001000
00010000
00000000
00011000
00000000
,
00001000
00010000
00001000
00000010
,
00000001
00000010
00000001
00000000
00002000
00000000
00003000
00000000
,
00000001
00000101
00000100
00000110
,
00000010
00001000
00000010
00000000
00010000
00001000
00010000
00000000
,
00001000
00100000
00001000
00100000
,
00010000
00000000
01000000
00000000
00010000
01000000
00010000
00000000
,
10000000
00100000
10000000
00100000
,
10000000
00000000
01000000
00000000
00100000
01000000
00100000
00000000
,
00010000
00100000
00001000
00100000
,
00001000
00000000
00010000
00000000
00000100
00010000
00000100
00000000
,
00001000
00000100
00000010
00000001
,
00000100
00000001
00000100
00000000
00000001
00000010
00000001
00000000
,
00001000
00000000
00000010
00000000
00001000
00000000
00000100
00010000
,
00000000
00010000
00001000
00010000
00000000
00000000
00001000
00000000
,
00100000
00000000
00010000
01000000
00000000
00010000
01000000
00000000
,
00100000
10000000
00000000
00000000
00000000
00010000
10000000
00000000
,
01000000
00000000
00010000
00000000
01000000
00100000
01000000
00000000
,
00001000
00000000
00010000
00000000
00001000
00010000
00001000
00000000
,
00010000
00000010
00001000
00000100
,
00000010
00000011
00000001
00001001
,
00001000
00000010
00000000
00000000
00000110
00000000
00000000
00000000
,
00000001
00000100
00000000
00000000
00000110
00000000
00000000
00000000
,
00000010
00001000
00000000
00000000
00001010
00000000
00000000
00000000
,
00000010
00010000
00000000
00000000
00001000
00000000
00011000
00000000
,
00010000
00001000
00000000
00000000
01001000
00000000
00000000
00000000
,
01000000
00010000
00000000
00000000
01000000
00000000
01100000
00000000
,
00100000
00000000
00000000
10000000
00000000
00000000
02000000
00000000
00000000
00000000
00000000
00000000
03000000
00000000
00000000
00000000
,
10000000
00010000
10000000
00020000
00000000
00000000
00030000
00000000
,
00000000
10000000
00000000
01100000
00000000
00000000
10010000
00000000
,
10000000
00000000
00100000
00000000
01000000
00010000
01000000
00000000
,
00100000
00010000
00001000
00000100
,
00000010
00001000
00000010
00000000
00001000
00000100
00001000
00000000
,
00000001
00000010
00000000
00000011
00000000
00000000
00000000
00000000
,
00000001
00000100
00000000
00000110
00000000
00000000
00000000
00000000
,
00000010
00000000
00001000
00000000
00000010
00000000
00010000
00001000
,
00000000
00001000
00010000
00000000
00000000
00000000
00000000
00000000
,
00001000
00010000
01000000
10000000
,
00010000
01000000
00100000
00000000
10000000
01000000
00100000
00000000
,
00002000
00010000
00023000
00030010
,
00001000
00000000
00000100
00000020
00000000
00000000
00000030
00000000
,
00000001
00000000
00000100
00000010
00000100
00000000
00000000
00000000
,
00001000
00010000
00011000
00000000
,
00001000
00000000
00000000
00000000
01000000
00000000
00000000
00000000
00010000
00000000
00000000
00100000
00000000
00000000
00010000
00000000
,
01000000
00100000
00010000
00011000
,
00010000
00001000
00000010
00000001
,
00001000
00000010
00000100
00000000
00000001
00000010
00000100
00000000
,
00020000
00001000
00032000
01003000
,
00010000
00000000
00100000
02000000
00000000
00000000
03000000
00000000
,
10000000
00000000
00100000
01000000
00100000
00000000
00000000
00000000
,
00010000
00001000
00011000
00000000
,
00010000
00000000
00000000
00000000
00000010
00000000
00000000
00000000
00001000
00000000
00000000
00000100
00000000
00000000
00001000
00000000
,
00000010
00000000
00000100
00000000
00001000
00010000
00001000
00000000
,
00010000
00000000
00100000
00000000
10000000
00100000
10000000
00000000
,
00010000
01000000
00010000
00000000
00100000
00000000
00001000
00000000
,
00020000
00032000
00003200
00000302
,
00000013
00000000
00000100
00002000
00000000
00000000
00003000
00000000
,
00001000
00000000
00000010
00000100
00000000
00000100
00000010
00000000
,
00010000
00000000
00001000
00020000
00000000
00000000
00030000
00000000
,
00001000
00010000
00001000
00000000
00100000
00010000
00100000
00000000
,
01000000
00100000
01000000
00100000
02000000
00000000
00000000
00000000
,
03000000
00000000
00000000
00000000
,
00000000
00000000
01100000
00000000
00000000
10000000
00000000
00010000
,
00000000
00100000
00000000
00001000
00000000
00010000
00001000
00000000
,
00020000
00000000
00001000
00000000
00030200
00000000
00001300
00000010
,
00000000
00000100
00000001
00000200
00000000
00000000
00000300
00000000
,
00000000
00000001
00000010
00000000
00000100
00000000
00010000
00001000
,
00000000
00010000
00000000
00011000
00000000
00000000
00000000
00001000
,
00010000
00000000
00000000
00000000
00001000
00000000
00000000
00000000
00100000
00000000
00000000
00010000
00000000
00000000
01000000
00000000
,
00010000
00100000
10000000
00100000
,
00020000
00000000
00000000
20000000
00000000
00000000
00000000
00000000
,
00000000
00000000
00000000
30030000
,
10000000
01000000
00100000
00100000
,
00001000
00000000
00010000
00001000
00000000
00000000
00010000
00000000
00000100
00001000
00000000
00000000
,
00000010
00000100
00000001
00000001
,
00000010
00000000
00000100
00001000
00000000
00000000
00000100
00000000
00010000
00001000
00000000
00000000
,
00011000
00000000
00000000
00000000
,
00000000
00000000
00000000
00000000
;
#NOTES:
     dance-double:
     :
     Hard:
     13:
     :
00000000
00000000
00000000
00000000
,
00000000
00000000
00000000
00000000
,
00000000
00000000
00000000
00000000
,
00000000
00000000
00000000
00000000
,
00000000
00000000
00000000
00000000
,
00001000
00010000
00001000
00010000
00001000
00100000
00010000
00000000
,
01000000
00100000
01000000
00100000
10000000
00010000
10000000
00000000
,
00010000
00100000
01000000
00100000
00001000
00010000
00000100
00001000
,
00000020
00000000
00000130
00000001
00000020
00000000
00000030
00000000
,
00000001
00000100
00001000
00000000
00000100
00001000
00010000
00000000
,
00001000
00010000
00100000
10000000
00020000
00000000
00030000
00000000
,
10000000
11000000
01100000
00110000
,
00100000
00001000
00100000
00001000
00010000
00001000
00100000
00001000
00100000
00010000
00000000
00000000
,
00100000
00001000
00100000
00000000
00001000
00010000
00001000
00000100
,
00000001
00000000
00000010
00000000
00000001
00001000
00000100
00000010
,
00000001
00000000
00000100
00000010
00000000
00000010
00001000
00000000
,
00000001
00000100
00001000
00000000
00010000
00100000
10000000
00000000
,
00010000
00100000
00010000
00100000
01000000
00010000
01000000
00000000
,
10000000
00010000
01000000
00000000
00100000
00010000
00001000
00000000
,
00000010
00000001
00000100
00000010
00001000
00000100
00000010
00000001
,
00000100
00000000
00001000
00000000
00010000
00000100
00001000
00000000
,
00000020
00000000
00002030
00000000
00013000
01000000
00100000
10000000
,
00020000
00000000
00230000
00000000
01300000
00010000
00001000
00000000
,
00000010
00000000
00000100
00001000
00000000
00001000
00000010
00000000
,
00000010
00000001
00000000
00000001
00001000
00000100
00000001
00000000
,
00000020
00000000
00002030
00000000
00013000
01000000
10000000
00000000
,
00200000
00000000
00320000
00000000
00031000
00000100
00000001
00000000
,
00000010
00000001
00000100
00000010
00001000
00000100
00010000
00001000
,
00100000
00000000
00100000
00010000
00000000
00010000
01000000
00000000
01000000
00100000
00000000
00000000
,
10000000
10000000
00000000
00000000
11000000
00000000
00000000
01000000
,
00100000
00010000
00000000
00000000
00110000
00000000
00101000
00000000
,
00001000
00010000
00000000
00000000
00011000
00000000
00000000
00010000
,
00000010
00001000
00000000
00000000
00001010
00000000
00001001
00000000
,
00000001
00000001
00000000
00000000
00000011
00000000
00000000
00000010
,
00000100
00001000
00000000
00000000
00001010
00000000
00010010
00000000
,
00010000
00010000
00000000
00000000
00011000
00000000
00000000
00001000
,
00010000
00100000
01000000
00200000
00000000
00000000
00300000
00000000
,
00000000
10000000
00100000
00010000
00000000
00100000
01100000
00000000
,
10000000
00100000
10000000
00100000
01000000
00010000
00100000
00010000
,
00100000
00001000
00010000
00001000
00010000
00000100
00001000
00000010
,
00001000
00000100
00000010
00000001
00000100
00000010
00001000
00000000
,
00000001
00000010
00001000
00010000
00000000
00011000
00000000
00000000
,
00001000
00010000
01000000
10000000
00000000
10000000
00010000
01000000
,
00000000
01000000
00100000
10000000
00010000
00100000
00001000
00010000
,
00000000
00010000
00011000
00000000
00000000
00000000
00000000
00000000
,
00001000
00010000
00000010
00001000
00000100
00000010
00001000
00010000
,
00000010
00001000
00000100
00001000
00000010
00000100
00001000
00000000
,
00010000
00001000
00000010
00000001
00001000
00000100
00000010
00001000
,
00010000
00001000
00000010
00000100
00000000
00010000
00010000
00000000
,
00000000
00001000
00010000
01000000
00010000
00000000
00001000
00100000
,
00000000
00000000
00100000
00000000
00001000
00000000
00020000
00000000
00000000
00000000
00000000
00000000
00030000
00000000
00001000
00010000
,
00001000
00000000
00000000
00000000
00010000
00000000
00000100
00000000
00001000
00000000
00000000
00000010
00000000
00000000
00001000
00000000
,
00000100
00010000
00001000
00010000
00001000
01000000
00001000
00000000
,
00010000
00001000
00100000
00010000
01000000
00100000
00010000
00001000
,
00100000
00010000
01000000
00010000
00100000
01000000
00010000
00000000
,
00001000
00010000
00100000
10000000
00010000
01000000
00100000
00010000
,
00001000
00010000
00100000
01000000
00000000
00001000
00001000
00000000
,
00000000
00010000
00001000
00000100
00001000
00000000
00010000
00000010
,
00000000
00000000
00000010
00000000
00010000
00000000
00002000
00000000
00000000
00000000
00000000
00000000
00003000
00000000
00010000
00001000
,
00010000
00000000
00000000
00000000
00001000
00000000
01000000
00000000
00010000
00000000
00000000
00100000
00000000
00000000
00010000
00000000
,
01000000
00001000
00010000
00001000
00010000
00000100
00010000
00000000
,
00002000
00000000
00013000
00000100
00001000
00000100
00000010
00000001
,
00000100
00001000
00000100
00001000
00010000
00000000
00011000
00000000
,
00001000
00010000
00001000
00010000
00100000
10000000
00100000
10000000
,
00010000
01000000
10000000
01000000
00000000
01000000
00010000
00000000
,
20000000
00000000
00100000
00000000
31000000
00100000
00010000
00000000
,
00200000
00000000
00010000
00000000
00301000
00010000
00000100
00000000
,
00001000
00000010
00001000
00000010
00000100
00000001
00000100
00000001
,
00000010
00000100
00000010
00000100
00010000
00001000
00010000
00001000
,
00010000
00000000
00000000
00000000
,
00000000
00000000
00011000
00000000
00000000
00001000
00010000
01000000
,
00000000
01100000
00000000
10000000
01000000
00100000
00010000
00000000
,
10000000
00100000
01000000
00000000
00100000
00010000
00001000
00010000
,
00000000
00010000
00001000
00000010
00000000
00000001
00001000
00000000
,
00000001
00000010
00000100
00001000
00000010
00000100
00001000
00010000
,
00000000
00010000
00001000
00010000
00000000
00001000
00010000
00100000
,
01000000
00000000
00000000
00000000
00010000
00000000
10000000
00000000
00010000
00000000
00000000
00100000
00000000
00000000
10000000
00000000
,
00100000
00000000
00000000
00001000
00000000
00000000
00010000
00000000
00000100
00000000
00000000
00000010
00000000
00000000
00000001
00000000
,
00002000
00000000
00000000
00000002
00000000
00000000
00000000
00000000
,
00000000
00000000
00000000
00003003
,
00000001
00000011
00000110
00001100
,
00000100
00010000
00001000
00100000
00000000
00000000
00010000
00100000
01000000
10000000
00000000
00000000
,
10000000
10100000
01100000
01010000
,
01000000
00001000
00010000
00000010
00000000
00000000
00001000
00000010
00000100
00000001
00000000
00000000
,
00001001
00000000
00000000
00000000
,
00000000
00000000
00000000
00000000
;
