
//----- song ID: aoba -----//
#TITLE:あおばの足音;
#ARTIST:駄菓子O型;
#TITLETRANSLIT:Aoba no ashioto;
#ARTISTTRANSLIT:OgataDagashi;
#BANNER:Aoba no ashioto.png;
#BACKGROUND:Aoba no ashioto-bg.png;
#CDTITLE:./CDTitles/jubeat beyond the Ave.png;
#MUSIC:Aoba no ashioto.ogg;
#SAMPLESTART:5.396;
#SAMPLELENGTH:15;
#BPMS:0=98;
#NOTES:
     dance-single:
     :
     Beginner:
     2:
     :
0000
0000
0000
0000
,
0000
0000
0000
0000
,
0000
0000
0000
0000
,
0001
0000
1000
1000
,
1000
0000
0001
0001
,
0001
0000
0100
0000
,
0010
0000
1000
0000
,
1000
0000
0001
0001
,
0001
0000
1000
1000
,
2000
0000
3000
0000
,
0010
0000
0100
0000
,
0001
0000
0001
0000
,
0010
0000
0100
0000
,
1000
0000
1000
0000
,
0010
0000
0100
0000
,
0001
0000
0001
0000
,
0010
0000
0100
0000
,
1000
0000
0000
0000
,
0002
0000
0003
0000
,
2000
0000
3000
0000
,
0200
0000
0300
0000
,
0020
0000
0030
0000
,
0001
0000
1000
0000
,
0010
0010
0010
0000
,
1000
0000
0001
0000
,
0100
0000
0010
0000
,
0020
0000
0030
0000
,
0010
0000
0100
0000
,
0001
0001
0000
0001
,
0000
1000
0000
1000
,
0000
0001
0000
0001
,
0000
0010
0000
0100
,
0000
1000
0000
1000
,
0000
0001
0000
0001
,
0000
1000
0000
1000
,
2000
0000
3000
0000
,
0010
0000
0100
0000
,
0010
0000
1000
0000
,
0001
0000
0010
0010
,
0010
0000
0001
0001
,
0001
0000
1000
1000
,
1000
0000
0010
0000
,
1000
0000
0010
0010
,
0010
0010
0000
1000
,
1000
0000
0001
0000
,
0010
0010
0010
0010
,
0000
0000
0000
0000
;
#NOTES:
     dance-single:
     :
     Easy:
     7:
     :
0000
0000
0000
0000
,
0000
0000
0000
0000
,
0000
0000
0000
0000
,
2000
0000
3001
0000
1000
0010
1000
0000
,
0200
0000
0310
0000
0001
0010
0001
0000
,
0100
0020
1000
0130
,
0001
1000
0100
0010
,
0002
0000
1003
0000
0001
0010
0001
0000
,
0200
0000
0310
0000
1000
0010
1000
0000
,
0100
0020
0001
0031
,
1000
0001
0010
0001
,
1000
0000
0010
0000
0100
0001
0100
0000
,
0001
1000
0100
1000
,
0001
0010
0010
0000
,
0001
1000
0010
1000
,
0001
0000
0010
0000
0100
1000
0100
0000
,
1000
0001
0100
0001
,
1000
0010
0010
0000
,
2000
0001
0100
3001
,
0002
1000
0100
1003
,
2000
0001
0010
3001
,
0002
1000
0013
0000
,
0020
0001
0100
0031
,
1000
0100
0100
0000
,
0200
1000
0010
1300
,
0002
0100
2003
0010
,
3002
0010
1000
0100
,
1003
0010
0100
0000
,
0110
0000
0010
0000
1000
0010
1000
0000
,
0001
0000
1001
0000
0001
0010
0001
0000
,
1000
0000
1001
0000
1000
0100
1000
0000
,
0001
0000
1001
0000
0001
0100
0001
0000
,
0101
0000
0100
0000
0001
1000
0010
0000
,
1000
0000
1010
0000
1000
0001
0010
0000
,
0001
0000
0011
0000
0001
1000
0100
0000
,
1000
0000
0010
1000
0001
1000
0001
0000
,
0010
0100
1000
0000
,
0001
1000
0100
0010
,
0002
0000
1003
0000
0001
1000
0001
1000
,
0002
0000
1003
0000
0001
0010
0001
0000
,
0100
0020
1030
2000
,
3010
1000
0100
0010
,
0002
0000
1003
0000
0001
0010
0001
0000
,
2000
0000
3010
0000
0000
1000
0001
0000
,
2000
0010
3002
0010
,
1003
0100
0010
0001
,
0000
0000
0000
0000
;
#NOTES:
     dance-single:
     :
     Medium:
     11:
     :
0000
0000
0000
0000
,
0000
0000
0000
0000
,
0000
0000
0000
0000
,
0002
0000
0000
0003
1000
0000
0200
0000
0000
0300
0000
0000
1000
0000
1000
0010
0000
0000
0001
0000
0001
0010
0000
0000
,
2000
0000
0000
3000
0001
0000
0020
0000
0000
0000
0000
0030
0000
0000
0001
1000
0000
0000
0100
0000
0100
1000
0000
0000
,
0001
0000
0000
0100
0000
0010
0000
0000
0000
0100
0000
0000
0001
0000
0001
0100
0000
0000
1000
0000
1000
0100
0000
0000
,
0001
0000
1000
0000
0000
0000
1000
0000
0100
0000
0010
0000
0001
0000
0000
0100
0000
0000
0010
0000
0000
1000
0000
0000
,
0002
0000
0000
0003
0000
0000
0200
0000
0000
0300
0000
0000
0001
0000
0001
0010
0000
0000
1000
0000
1000
0010
0000
0000
,
0002
0000
0000
1003
0000
0000
0020
0000
0000
0030
0000
0000
0000
0000
1000
0001
0000
0000
0100
0000
0100
0001
0000
0000
,
1001
0000
0000
1000
0000
0002
0000
0000
0000
0010
0000
0000
1000
0000
0000
0100
0000
0000
1003
0000
0010
0000
0100
0000
,
0001
0000
0000
1100
0000
0000
0200
0300
0010
0001
1000
0000
,
0010
0000
0100
0000
0000
0001
0000
0000
1000
0000
0000
0100
0000
0000
0000
0001
0000
0001
0100
0000
0000
1000
0000
1000
,
0100
0000
0000
0011
0000
0000
0010
0010
0100
1000
0001
0000
,
0100
0000
0010
0000
0000
1000
0000
0000
0001
0000
0000
0010
0000
0000
0000
0001
0000
0000
1000
0000
0010
0100
0000
0000
,
0001
0000
0000
0101
0000
0000
0200
0300
0010
1000
0001
0000
,
0010
0000
0100
0000
0000
1000
0000
0000
0001
0000
0000
0100
0000
0000
0000
1000
0000
1000
0100
0000
0000
0001
0000
0001
,
0100
0000
0000
1010
0000
0000
0010
0010
0100
0001
1000
0000
,
0100
0000
0010
0000
0000
0001
0000
0000
1000
0000
0000
0001
0000
0000
0000
0100
0000
0100
0000
0000
0001
1000
0000
0000
,
0020
0000
0000
0030
0000
0100
0000
0000
0000
0001
0000
0000
2000
0000
0000
3000
0000
0100
0000
0000
0000
0010
0000
0000
,
0002
0000
0000
0103
0000
0200
0000
0000
0000
0000
0000
0000
1300
0000
0000
0100
0000
0000
0001
0000
1000
0001
0000
0000
,
0200
0000
0000
0300
0000
0010
0000
0000
0000
1000
0000
0000
0002
0000
0000
0003
0000
0010
0000
0000
0000
0100
0000
0000
,
2000
0000
0000
3010
0000
0020
0000
0000
0000
0031
0000
0000
0010
0000
1000
0000
0000
0001
0000
0000
0100
0010
0000
0000
,
2000
0000
0000
3000
0000
0001
0000
0000
0000
0010
0000
0000
0200
0000
0000
0300
0000
1000
0000
0000
0000
0001
0000
0000
,
0100
0000
0010
0100
0000
1000
0000
0000
0100
0001
0000
1000
0000
0000
0000
0100
0000
0010
0000
0000
0000
0000
0000
0000
,
0001
0000
0100
0000
0000
0010
0000
0000
1000
0000
0000
0100
0000
0000
0010
0000
0000
0001
0000
0000
0000
0100
0000
0000
,
0020
0000
0000
1030
0000
2000
0000
0000
0000
3000
0000
0000
0200
0000
0000
0310
0000
0001
0000
0000
0001
1000
0000
1000
,
0002
0000
0010
0000
0100
0100
1000
1003
,
0010
0000
1000
0000
0000
0001
0000
0000
0010
0000
0000
0100
0000
0000
0000
0000
0000
0000
0000
0000
0000
0000
0000
0000
,
1000
0000
0000
0000
0000
0000
0010
0000
0100
0000
0001
0000
1000
0000
0000
0100
0000
0000
0010
0000
0000
0001
0000
0000
,
1000
0000
0000
0000
1000
0000
0010
0000
0000
0000
0000
0000
0100
0000
0000
0001
0000
0000
0010
0000
0000
0100
0000
0000
,
1000
0000
0000
0000
1000
0000
0010
0000
0000
0000
0000
0000
0100
0000
0000
0001
0000
0000
0010
0000
0000
0100
0000
0000
,
1000
1000
0010
0000
1000
0100
0010
0000
,
0001
0000
1000
0000
0001
0000
0010
0000
0001
0000
1000
0000
0001
0000
0000
0100
0000
0000
0010
0000
0000
1000
0000
0000
,
0001
0000
0000
0000
0001
0000
0010
0000
0000
0000
0000
0000
0100
0000
0000
1000
0000
0000
0010
0000
0000
0100
0000
0000
,
0001
0000
0000
0000
0001
0000
0010
0000
0000
0000
0000
0000
0100
0000
0000
1000
0000
0000
0010
0000
0000
0100
0000
0000
,
0001
0000
0000
0010
0000
0010
0100
0000
0000
1000
0000
1000
0010
0000
0000
0001
0000
0001
0010
0000
0000
1000
0000
0000
,
0010
0000
1000
0000
0000
0001
0000
0000
0010
0000
0000
0100
0000
0000
0000
1000
0000
0000
0001
0000
0001
0100
0000
0000
,
0001
0000
1000
0000
0000
0000
0001
0000
0100
0000
0010
0000
1000
0000
0000
0100
0000
0000
0010
0000
0000
0001
0000
0000
,
1002
0000
0000
0003
1000
0000
0200
0000
0000
0300
0000
0000
1000
0000
0100
0000
1000
0000
0001
0000
0010
0000
0001
0000
,
2000
0000
0000
3000
0001
0000
0020
0000
0000
0030
0000
0000
0000
0000
0001
1000
0000
0000
0100
0000
0100
1000
0000
0000
,
0001
0000
0000
0100
0000
0020
0000
0000
0000
1030
0000
0000
0001
0000
0100
0000
0010
0000
0100
0000
1000
0000
0100
0000
,
0001
0000
0000
0000
0000
0000
1000
0000
0100
0000
0010
0000
0001
0000
0000
0100
0000
0000
0010
0000
0000
1000
0000
0000
,
0002
0000
0000
0003
0000
0000
0200
0000
0000
0300
0000
0000
0001
0000
0001
0010
0000
0000
1000
0000
1000
0010
0000
0000
,
0001
0000
1000
0000
0000
0001
0010
0000
0000
0000
0000
0000
0000
0000
0100
1000
0000
0000
0001
0000
0001
0100
0000
0000
,
0020
0030
0100
0002
1000
0000
0010
0000
1000
0000
0100
0000
,
0013
0001
1000
0010
0100
0001
1000
0100
0010
0001
0100
0010
,
0000
0000
0000
0000
;
#NOTES:
     dance-single:
     :
     Hard:
     14:
     :
0000
0000
0000
0000
,
0000
0000
0000
0000
,
0000
0000
0000
0000
,
2010
0000
0000
3000
0001
0000
0202
0000
0000
0303
0000
0000
1001
0000
1000
0100
0000
0100
0001
0000
0001
0100
0000
0100
,
2000
0000
0000
3000
0001
0000
0202
0000
0000
0000
0000
0303
0000
0000
0001
0010
0000
0010
1000
0000
1000
0010
0000
0010
,
0002
0000
0003
1000
0000
1010
0000
0000
0010
0100
0000
0000
0101
0000
0001
1000
0000
0000
1100
0000
0100
0010
0000
0000
,
0011
0000
0001
0000
0000
0000
1100
0000
0100
0000
0010
0000
0001
0000
0000
0100
0000
0000
0010
0000
0000
1000
0000
0000
,
2002
0000
0000
3003
0000
0000
2200
0000
0000
3300
0000
0000
1001
0000
0001
0100
0000
0100
1000
0000
1000
0100
0000
0100
,
0002
0000
0000
1003
0000
0000
2200
0000
0000
3300
0000
0000
0000
0000
1000
0010
0000
0010
0001
0000
0001
0010
0000
0010
,
2000
0000
3000
0001
0000
0101
0000
0000
0100
0010
0000
0000
1010
0000
1000
0001
0000
0001
1000
0000
0100
0000
0010
0000
,
0011
0000
0000
0000
0000
0000
0110
0000
0000
0000
0000
0000
1100
0000
1000
0000
0001
0100
0001
0000
1001
0000
0000
0000
,
1100
0000
0100
0000
0000
0110
0000
0000
0010
0000
0000
0011
0000
0000
0000
0001
0000
0001
0100
0000
0100
1000
0000
1000
,
0100
0000
0000
0000
0000
0000
0101
0000
0000
0000
0000
0000
1010
0000
1000
0000
0001
0010
0001
0000
1001
0000
0000
0000
,
1010
0000
0010
0000
0000
0110
0000
0000
0100
0000
0000
0101
0000
0000
1000
0100
0000
0010
0001
0000
0100
0010
0000
0000
,
1010
0000
0000
0000
0000
0000
0110
0000
0000
0000
0000
0000
0101
0000
0001
0000
1000
0100
1000
0000
1001
0000
0000
0000
,
0101
0000
0100
0000
0000
0110
0000
0000
0010
0000
0000
1010
0000
0000
0000
1000
0000
1000
0100
0000
0100
0001
0000
0001
,
0100
0000
0000
0000
0000
0000
1100
0000
0000
0000
0000
0000
0011
0000
0001
0000
1000
0010
1000
0000
1001
0000
0000
0000
,
0001
0000
0100
0000
0000
0010
0000
0000
1000
0000
0000
0001
0000
0000
0100
0010
0000
1000
0000
0000
0001
1000
0000
0000
,
2100
0000
0000
3000
0000
0100
0010
0000
0000
0001
0000
0000
0102
0000
0000
0003
0000
0100
0010
0000
0000
1000
0000
0000
,
2001
0000
0000
3100
0000
0020
0100
0000
0000
1000
0000
0000
0100
0000
0000
0031
0000
0000
1000
0000
0010
0100
0000
0000
,
0201
0000
0000
0300
0000
0010
1000
0000
0000
0100
0000
0000
1200
0000
0000
0300
0000
0010
0001
0000
0000
1000
0000
0000
,
2001
0000
0000
3010
0000
0200
0010
0000
0000
1000
0000
0000
0310
0000
1000
0000
0000
0001
0000
0000
0100
0010
0000
0000
,
1020
0000
0000
0030
0000
0100
0001
0000
0000
0010
0000
0000
0021
0000
0000
0030
0000
0100
1000
0000
0000
0001
0000
0000
,
1001
0000
1000
0010
0000
0110
0000
0000
0100
0001
0000
1001
0000
0000
0000
1000
0000
1100
0000
0000
0000
0000
0000
0000
,
0110
0000
0010
0000
0000
0011
0000
0000
0001
0000
0000
1001
0000
0000
1000
0000
0000
1010
0000
0000
0000
0001
0000
0000
,
0012
0000
0000
1003
0000
0200
1000
0000
0000
0300
0000
0000
2001
0000
0000
3010
0000
1000
0010
0000
0010
0001
0000
0001
,
0020
0000
1000
1000
0100
0001
0100
1030
,
0110
0000
1000
0000
0000
1010
0000
0000
0110
0000
0000
0101
0000
0000
0000
0000
0000
0000
0000
0000
0000
0000
0000
0000
,
0002
0000
0000
0003
0000
0000
1100
0000
0100
0000
0010
0000
0002
0000
0000
0103
0000
0000
0110
0000
0000
0010
0000
0000
,
2000
0000
0000
3000
0001
0000
0022
0000
0000
0033
0000
0000
1000
0000
1000
0020
0000
0030
0110
0000
0100
0002
0000
0003
,
2000
0000
0000
3000
0010
0000
1010
0000
0000
0000
0000
0000
1000
0000
1000
0200
0000
0300
0110
0000
0010
0002
0000
0003
,
2000
0000
0000
3020
0000
0030
0110
0000
0000
0000
0000
0000
0002
0000
0000
2003
0000
3000
1100
0000
0000
0000
0000
0000
,
0001
0000
0010
0000
0100
0000
0110
0000
0010
0000
0100
0000
2000
0000
0000
3010
0000
0000
0110
0000
0000
0100
0000
0000
,
0002
0000
0000
0003
1000
0000
2200
0000
0000
3300
0000
0000
0001
0000
0001
0020
0000
0030
0110
0000
0100
2000
0000
3000
,
0002
0000
0000
0003
0100
0000
0110
0000
0000
0000
0000
0000
1000
0000
1000
0010
0000
0000
0101
0000
0001
1000
0000
2000
,
0020
0000
3030
1000
0000
0001
0010
0000
0000
0100
0000
1000
0001
0000
0000
0100
0000
0010
1000
0000
0000
1001
0000
0000
,
0011
0000
0010
0000
0000
0110
0000
0000
0100
0000
0000
1100
0000
0000
0000
0100
0000
0100
0001
0000
0001
0100
0000
0100
,
1000
0000
0001
0000
0000
0000
1000
0000
0100
0000
0010
0000
0001
0000
0000
0100
0000
0000
0010
0000
0000
1000
0000
0000
,
2010
0000
0000
3000
0001
0000
0202
0000
0000
0303
0000
0000
1000
0100
1000
0100
1000
0100
0010
0001
0010
0001
0010
0001
,
1000
0000
0000
0000
0010
0000
2020
0000
0000
3030
0000
0000
0001
0000
0001
0010
0000
0010
1000
0000
1000
0010
0000
0010
,
0001
0000
0000
1000
0000
0020
0100
0000
0000
0001
0000
0000
0130
0000
0001
0000
1000
0000
0010
0000
0100
0000
0001
0000
,
1001
0000
0000
0000
0000
0000
1100
0000
0100
0000
0010
0000
0011
0000
0000
1000
0000
0000
1010
0000
0000
0001
0000
0000
,
0101
0000
0000
0100
0000
0010
2000
0000
0000
3000
0000
0000
0011
0000
0001
0010
0000
0010
1000
0000
1000
0010
0000
0010
,
0001
0000
1000
0010
0000
0100
0001
0000
0000
0000
0000
0000
0000
0000
1000
0010
0000
0010
0001
0000
0001
0010
0000
0010
,
2000
3000
0101
0200
0010
0000
1000
0000
0010
0000
0001
0300
,
1010
1000
0001
0011
0010
0100
1100
0001
0100
0110
1000
0001
,
0000
0000
0000
0000
;
#NOTES:
     dance-double:
     :
     Easy:
     7:
     :
00000000
00000000
00000000
00000000
,
00000000
00000000
00000000
00000000
,
00000000
00000000
00000000
00000000
,
00011000
00000000
00001000
00000000
00010000
00000010
00010000
00000000
,
00000020
00000000
00001030
00000000
00000001
00000010
00000001
00000000
,
00001000
00000200
00020300
00031000
,
00010000
00100000
10000000
00010000
,
00200000
00000000
00301000
00000000
00010000
00000100
00010000
00000000
,
00000200
00000000
00001300
00000000
00000001
00000100
00000001
00000000
,
00001000
00000020
00010000
00001030
,
00000001
00000100
00001000
00010000
,
00001000
00000000
00100000
00000000
00010000
00100000
00010000
00000000
,
10000000
01000000
00010000
00001000
,
00010000
00000010
00001000
00000000
,
00000001
00000010
00001000
00010000
,
00001000
00000000
01000000
00000000
00010000
01000000
00010000
00000000
,
10000000
00100000
00010000
00001000
,
00010000
00000100
00001000
00000000
,
00000002
00001000
00000100
00001003
,
00002000
00000001
00003100
00010000
,
00002000
00010000
00100000
00013000
,
00020000
00000010
00031000
00100000
,
00020000
10000000
01000000
10030000
,
00010000
10000000
01000000
00000000
,
02000000
10000000
00100000
03010000
,
00020000
00001000
00030020
00001000
,
00000230
00000010
00000001
00000310
,
00000100
00001000
00010000
00000000
,
00011000
00001000
00010000
00100000
,
10000000
10010000
10000000
01000000
,
00010000
00011000
00001000
00000100
,
00000001
00001001
00000001
00000010
,
00011000
00001000
00010000
01000000
,
10000000
10010000
10000000
00100000
,
00010000
00011000
00001000
00000010
,
00000001
00000000
00001000
00000000
00000001
00001000
00000001
00000000
,
00000010
00001000
00010000
00000000
,
00001000
00010000
00100000
10000000
,
00020000
00000000
00130000
00000000
00001000
00010000
00001000
00010000
,
00002000
00000000
00003010
00000000
00000001
00000010
00000001
00000000
,
00001000
00000200
00010300
00020000
,
00031000
00010000
00100000
10000000
,
02000000
00000000
03010000
00000000
00001000
00010000
00001000
00000000
,
00200000
00000000
00301000
00000000
00000000
00010000
00001000
00000000
,
00020000
00000010
00032000
00100000
,
00013000
00001000
00000100
00000001
,
00000000
00000000
00000000
00000000
;
#NOTES:
     dance-double:
     :
     Medium:
     12:
     :
00000000
00000000
00000000
00000000
,
00000000
00000000
00000000
00000000
,
00000000
00000000
00000000
00000000
,
00012000
00000000
00000000
00003000
01000000
00000000
00002000
00000000
00000000
00003000
00000000
00000000
00010000
00000000
00010000
00100000
00000000
00000000
10000000
00000000
10000000
00010000
00000000
00000000
,
02000000
00000000
00000000
03000000
00001000
00000000
00020000
00000000
00000000
00000000
00000000
00030000
00000000
00000000
00001000
00100000
00000000
00000000
00001000
00000000
00001000
00010000
00000000
00000000
,
00000100
00000000
00000000
00001000
00000000
00000001
00000000
00000000
00000001
00000010
00000000
00000000
00001000
00000000
00001000
00010000
00000000
00000000
01000000
00000000
01000000
10000000
00000000
00000000
,
00010000
00000000
10000000
00000000
00000000
00000000
10000000
00000000
01000000
00000000
00100000
00000000
00010000
00000000
00000000
01000000
00000000
00000000
00100000
00000000
00000000
00010000
00000000
00000000
,
00002000
00000000
00000000
00003000
00000000
00000000
00020000
00000000
00000000
00030000
00000000
00000000
00001000
00000000
00001000
00000010
00000000
00000000
00000001
00000000
00000001
00001000
00000000
00000000
,
00000200
00000000
00000000
00000300
00010000
00000000
00002000
00000000
00000000
00000000
00000000
00003000
00000000
00000000
00100000
00010000
00000000
00000000
10000000
00000000
10000000
00010000
00000000
00000000
,
00110000
00000000
00000000
00100000
00000000
00002000
00000000
00000000
00000000
00010000
00000000
00000000
01000000
00000000
00000000
00013000
00000000
00000000
00001000
00000000
00000010
00000000
00000001
00000000
,
00001000
00000000
00000000
00010010
00000000
00000000
00020000
00030000
00001000
00100000
00010000
00000000
,
10000000
00000000
01000000
00000000
00000000
00010000
00000000
00000000
00001000
00000000
00000000
00000010
00000000
00000000
00000000
00000001
00000000
00000001
00000100
00000000
00000000
00001000
00000000
00001000
,
00010000
00000000
00000000
00101000
00000000
00000000
00001000
00001000
00010000
00000010
00001000
00000000
,
00000001
00000000
00000100
00000000
00000000
00001000
00000000
00000000
00010000
00000000
00000000
00100000
00000000
00000000
00000000
10000000
00000000
00000000
01000000
00000000
01000000
00100000
00000000
00000000
,
00010000
00000000
00000000
00101000
00000000
00000000
00002000
00003000
00010000
00000010
00001000
00000000
,
00000001
00000000
00000100
00000000
00000000
00001000
00000000
00000000
00010000
00000000
00000000
00100000
00000000
00000000
00000000
10000000
00000000
10000000
01000000
00000000
00000000
00010000
00000000
00010000
,
00001000
00000000
00000000
00010010
00000000
00000000
00010000
00010000
00001000
00100000
00010000
00000000
,
10000000
00000000
00100000
00000000
00000000
01000000
00000000
00000000
00010000
00000000
00000000
01000000
00000000
00000000
00000000
00001000
00000000
00010000
00000000
00000000
00010000
00000010
00000000
00000000
,
00002000
00000000
00000100
00000000
00000001
00000001
00000010
00000000
,
00023000
00000000
00000000
00000000
00000000
00000000
01000000
00000000
00000000
00000000
00000000
00000000
10030000
00000000
00000000
00010000
00000000
00000000
00100000
00000000
01000000
10000000
00000000
00000000
,
00020000
00000000
01000000
00000000
10000000
10000000
00100000
00000000
,
00032000
00000000
00000000
00000000
00000000
00000000
00000100
00000000
00000000
00000000
00000000
00000000
00003001
00000000
00001000
00000000
00000000
00000001
00000000
00000000
00000100
00000010
00000000
00000000
,
00002000
00000000
00000001
00000000
00000010
00000010
00023000
01030000
,
00010000
00000000
00010000
10000000
00000000
00100000
00000000
00000000
10000000
00010000
00000000
01000000
00000000
00000000
00000000
00010000
00000000
10000000
00000000
00000000
00000000
00000000
00000000
00000000
,
01000000
00000000
00100000
00000000
00000000
00010000
00000000
00000000
01000000
00000000
00000000
00100000
00000000
00000000
00010000
00000000
00000000
00001000
00000000
00000000
00000000
01000000
00000000
00000000
,
00002000
00000000
00000000
00013000
00000000
00000200
00000000
00000000
00000000
00000300
00000000
00000000
00000020
00000000
00000000
00000031
00000000
00000100
00000000
00000000
00000100
00001000
00000000
00001000
,
00020000
00000000
00100000
00000000
00001000
00001000
00000010
00030010
,
00010000
00000000
00001000
00000000
00000000
00100000
00000000
00000000
00010000
00000000
00000000
10000000
00000000
00000000
00000000
00000000
00000000
00000000
00000000
00000000
00000000
00000000
00000000
00000000
,
00010000
00000000
00000000
00000000
00000000
00000000
00100000
00000000
01000000
00000000
10000000
00000000
00010000
00000000
00000000
01000000
00000000
00000000
00100000
00000000
00000000
00010000
00000000
00000000
,
00001000
00000000
00000000
00000000
00010000
00000000
00000010
00000000
00000000
00000000
00000000
00000000
00001000
00000000
00000000
00000001
00000000
00000000
00000010
00000000
00000000
00001000
00000000
00000000
,
00010000
00000000
00000000
00000000
00001000
00000000
00100000
00000000
00000000
00000000
00000000
00000000
00010000
00000000
00000000
10000000
00000000
00000000
00100000
00000000
00000000
00010000
00000000
00000000
,
00001000
00010000
00000010
00000000
00001000
00000001
00000010
00000000
,
00001000
00000000
00010000
00000000
00001000
00000000
00100000
00000000
00010000
00000000
10000000
00000000
00010000
00000000
00000000
01000000
00000000
00000000
00100000
00000000
00000000
00010000
00000000
00000000
,
00001000
00000000
00000000
00000000
00010000
00000000
00000010
00000000
00000000
00000000
00000000
00000000
00000100
00000000
00000000
00000001
00000000
00000000
00000010
00000000
00000000
00001000
00000000
00000000
,
00010000
00000000
00000000
00000000
00001000
00000000
00100000
00000000
00000000
00000000
00000000
00000000
01000000
00000000
00000000
10000000
00000000
00000000
00100000
00000000
00000000
00010000
00000000
00000000
,
00001000
00000000
00000000
00010000
00000000
00010000
00000010
00000000
00000000
00001000
00000000
00001000
00000010
00000000
00000000
00000100
00000000
00000100
00000010
00000000
00000000
00001000
00000000
00000000
,
00000001
00000000
00000010
00000000
00000000
00001000
00000000
00000000
00010000
00000000
00000000
01000000
00000000
00000000
00000000
00100000
00000000
00000000
00010000
00000000
00010000
01000000
00000000
01000000
,
00010000
00000000
10000000
00000000
00000000
00000000
10000000
00000000
01000000
00000000
00100000
00000000
00010000
00000000
00000000
01000000
00000000
00000000
00100000
00000000
00000000
00010000
00000000
00000000
,
00002000
00000000
00000000
00003000
00010000
00000000
00000200
00000000
00000000
00000000
00000300
00000000
00001000
00000000
00000001
00000000
00001000
00000000
00000010
00000000
00010000
00000000
00000010
00000000
,
00020000
00000000
00000000
00030000
00001000
00000000
00200000
00000000
00000000
00300000
00000000
00000000
00000000
00000000
00100000
00010000
00000000
00000000
10000000
00000000
10000000
00010000
00000000
00000000
,
00110000
00000000
00000000
00100000
00000000
00002000
00000000
00000000
00000000
00010000
00000000
00000000
01003000
00000000
00001000
00000000
00010000
00000000
00000100
00000000
00001000
00000000
00000001
00000000
,
00000100
00000000
00000000
00000000
00000000
00000000
00000001
00000000
00000010
00000000
00000100
00000000
00001000
00000000
00000000
00000100
00000000
00000000
00010000
00000000
00000000
00001000
00000000
00000000
,
00200000
00000000
00000000
00300000
00000000
00000000
00002000
00000000
00000000
00003000
00000000
00000000
00010000
00000000
00010000
00100000
00000000
00000000
10000000
00000000
10000000
00010000
00000000
00000000
,
01000000
00000000
00001000
00000000
00000000
00010000
00001000
00000000
00000000
00000000
00000000
00000000
00000000
00000000
00001000
00000100
00000000
00000000
00000010
00000000
00000010
00000100
00000000
00000000
,
00000002
00000023
00002030
00023000
02030000
23000000
,
30010000
01000000
00100000
10000000
00010000
00100000
00001000
00010000
00000100
00001000
00000001
00000010
,
00000000
00000000
00000000
00000000
;
#NOTES:
     dance-double:
     :
     Hard:
     14:
     :
00000000
00000000
00000000
00000000
,
00000000
00000000
00000000
00000000
,
00000000
00000000
00000000
00000000
,
00020010
00000000
00000000
00030000
00001000
00000000
01001000
00000000
00000000
00000000
00000000
00000000
00011000
00000000
00010000
00001000
00000000
00001000
00000100
00000000
00000100
00000001
00000000
00000001
,
00000020
00000000
00000000
00000030
00001000
00000000
00020000
00000000
00000000
00000000
00000000
00030000
00000000
00000000
00001000
00010000
00000000
00010000
01000000
00000000
01000000
10000000
00000000
10000000
,
00200000
00000000
00300000
00010000
00000000
00011000
00000000
00000000
00010000
00000010
00000000
00000000
00001001
00000000
00000001
00000010
00000000
00000000
00001100
00000000
00000100
00010000
00000000
00000000
,
00011000
00000000
00001000
00000000
00000000
00000000
00010000
00000000
00100000
00000000
10000000
00000000
01000000
00000000
00000000
00010000
00000000
00000000
00001000
00000000
00000000
00000010
00000000
00000000
,
00000022
00000000
00000000
00000033
00000000
00000000
00002020
00000000
00000000
00003030
00000000
00000000
00011000
00000000
00001000
00010000
00000000
00010000
01000000
00000000
01000000
10000000
00000000
10000000
,
00200000
00000000
00000000
00310000
00000000
00000000
00002000
00000000
00000000
00003000
00000000
00000000
00000000
00000000
00010000
00001000
00000000
00001000
00000010
00000000
00000010
00000001
00000000
00000001
,
00002000
00000000
00003000
00000010
00000000
00010010
00000000
00000000
00010000
00001000
00000000
00000000
00101000
00000000
00100000
00001000
00000000
00001000
00010000
00000000
00100000
00000000
10000000
00000000
,
10100000
00000000
00000000
00000000
00000000
00000000
10010000
00000000
00000000
00000000
00000000
00000000
01010000
00000000
01000000
00000000
00001000
00010000
00001000
00000000
00010010
00000000
00000000
00000000
,
00011000
00000000
00001000
00000000
00000000
00001010
00000000
00000000
00000010
00000000
00000000
00000011
00000000
00000000
00000000
00000001
00000000
00000001
00000100
00000000
00000100
00001000
00000000
00001000
,
00010000
00000000
00000000
00000000
00000000
00000000
00010010
00000000
00000000
00000000
00000000
00000000
00011000
00000000
00001000
00000000
01000000
00010000
01000000
00000000
10010000
00000000
00000000
00000000
,
11000000
00000000
01000000
00000000
00000000
01010000
00000000
00000000
00010000
00000000
00000000
00011000
00000000
00000000
00001000
00010000
00000000
00001000
00000100
00000000
00000001
00001000
00000000
00000000
,
00000011
00000000
00000000
00000000
00000000
00000000
00001001
00000000
00000000
00000000
00000000
00000000
00001100
00000000
00000100
00000000
00010000
00001000
00010000
00000000
00101000
00000000
00000000
00000000
,
00011000
00000000
00010000
00000000
00000000
00110000
00000000
00000000
00100000
00000000
00000000
10100000
00000000
00000000
00000000
10000000
00000000
10000000
01000000
00000000
01000000
00010000
00000000
00010000
,
00001000
00000000
00000000
00000000
00000000
00000000
00101000
00000000
00000000
00000000
00000000
00000000
00011000
00000000
00010000
00000000
00000100
00001000
00000100
00000000
00001001
00000000
00000000
00000000
,
00000001
00000000
00000100
00000000
00000000
00001000
00000000
00000000
00010000
00000000
00000000
00001000
00000000
00000000
00100000
00010000
00000000
01000000
00000000
00000000
00010000
10000000
00000000
00000000
,
21000000
00000000
00000000
30000000
00000000
01000000
00010000
00000000
00000000
00001000
00000000
00000000
00020010
00000000
00000000
00030000
00000000
00001000
01000000
00000000
00000000
00010000
00000000
00000000
,
01020000
00000000
00000000
10000000
00000000
00000000
00100000
00000000
00000000
00000000
00000000
00000000
00032000
00000000
00000000
00000100
00000000
00000000
00003001
00000000
00001000
00000001
00000000
00000000
,
00000102
00000000
00000000
00000003
00000000
00000100
00001000
00000000
00000000
00010000
00000000
00000000
00102000
00000000
00000000
00003000
00000000
00010000
00000100
00000000
00000000
00001000
00000000
00000000
,
00002100
00000000
00000000
00000001
00000000
00000000
00000010
00000000
00000000
00023000
00000000
00000000
01030000
00000000
00010000
00000000
00000000
10000000
00000000
00000000
01000000
00100000
00000000
00000000
,
02100000
00000000
00000000
03000000
00000000
00010000
00001000
00000000
00000000
00000010
00000000
00000000
00000120
00000000
00000000
00000030
00000000
00000001
00000100
00000000
00000000
00001000
00000000
00000000
,
00011000
00000000
00010000
00001000
00000000
00101000
00000000
00000000
00100000
00010000
00000000
01010000
00000000
00000000
00000000
10000000
00000000
10010000
00000000
00000000
00000000
00000000
00000000
00000000
,
00110000
00000000
00100000
00000000
00000000
00101000
00000000
00000000
00001000
00000000
00000000
00011000
00000000
00000000
00010000
00000000
00000000
00010010
00000000
00000000
00000000
00000010
00000000
00000000
,
00002001
00000000
00000000
00003100
00000000
00020000
00001000
00000000
00000000
00030000
00000000
00000000
00102000
00000000
00000000
00013000
00000000
00010000
00100000
00000000
00100000
10000000
00000000
10000000
,
00020000
01000000
10000000
00100000
00032000
00000100
00000001
00000010
,
00023000
00000000
01030000
00000000
00000000
10010000
00000000
00000000
00110000
00000000
00000000
00101000
00000000
00000000
00000000
00000000
00000000
00000000
00000000
00000000
00000000
00000000
00000000
00000000
,
00200000
00000000
00000000
00300000
00000000
00000000
00011000
00000000
00001000
00000000
00000010
00000000
00000002
00000000
00000000
00001003
00000000
00000000
00001010
00000000
00000000
00000010
00000000
00000000
,
00020000
00000000
00000000
00030000
00001000
00000000
00202000
00000000
00000000
00303000
00000000
00000000
00100000
00000000
00100000
00020000
00000000
00030000
10010000
00000000
10000000
02000000
00000000
03000000
,
00020000
00000000
00000000
00030000
00001000
00000000
00011000
00000000
00000000
00000000
00000000
00000000
00010000
00000000
00010000
00000020
00000000
00000030
00010010
00000000
00010000
00002000
00000000
00003000
,
00200000
00000000
00000000
00302000
00000000
00003000
00011000
00000000
00000000
00000000
00000000
00000000
00002000
00000000
00000000
00003200
00000000
00000300
00000101
00000000
00000000
00000000
00000000
00000000
,
00000001
00000000
00000010
00000000
00001000
00000000
00011000
00000000
00010000
00000000
01000000
00000000
20000000
00000000
00000000
30010000
00000000
00000000
00110000
00000000
00000000
00100000
00000000
00000000
,
00002000
00000000
00000000
00003000
00010000
00000000
00020020
00000000
00000000
00030030
00000000
00000000
00000010
00000000
00000010
00002000
00000000
00003000
00001001
00000000
00000001
00000200
00000000
00000300
,
00002000
00000000
00000000
00003000
00010000
00000000
00011000
00000000
00000000
00000000
00000000
00000000
00010000
00000000
00010000
00200000
00000000
00300000
10100000
00000000
10000000
00010000
00000000
00020000
,
00200000
00000000
00330000
00100000
00000000
00001000
00010000
00000000
00000000
00000100
00000000
00001000
00000001
00000000
00000000
00000100
00000000
00001000
00010000
00000000
00000000
00001000
00000000
00000000
,
00101000
00000000
00100000
00000000
00000000
00110000
00000000
00000000
00010000
00000000
00000000
10010000
00000000
00000000
00000000
10000000
00000000
10000000
01000000
00000000
01000000
00010000
00000000
00010000
,
00001000
00000000
00010000
00000000
00000000
00000000
00001000
00000000
00000010
00000000
00000001
00000000
00000100
00000000
00000000
00001000
00000000
00000000
00010000
00000000
00000000
00100000
00000000
00000000
,
01200000
00000000
00000000
00300000
10000000
00000000
22000000
00000000
00000000
33000000
00000000
00000000
01000000
10000000
01000000
10000000
01000000
10000000
00010000
00100000
00010000
00100000
00010000
00100000
,
00001000
00000000
00000000
00000000
00010000
00000000
00002000
00000000
00000000
00003000
00000000
00000000
00011000
00000000
00010000
00001000
00000000
00001000
00000100
00000000
00000100
00000001
00000000
00000001
,
00000020
00000000
00000000
00001030
00000000
00002000
00010000
00000000
00000000
00100000
00000000
00000000
00013000
00000000
00001000
00000000
01000000
00000000
00010000
00000000
10000000
00000000
01000000
00000000
,
01100000
00000000
00000000
00000000
00000000
00000000
00011000
00000000
00001000
00000000
00000010
00000000
00000110
00000000
00000000
00000001
00000000
00000000
00001001
00000000
00000000
00001000
00000000
00000000
,
00001010
00000000
00000000
00000010
00000000
00010000
00002000
00000000
00000000
00003000
00000000
00000000
00011000
00000000
00001000
00010000
00000000
00010000
01000000
00000000
01000000
10000000
00000000
10000000
,
00010000
00000000
00100000
00001000
00000000
00010000
00001000
00000000
00000000
00000000
00000000
00000000
00000000
00000000
00010000
00001000
00000000
00001000
00000010
00000000
00000010
00000001
00000000
00000001
,
00000200
00000300
00000001
00002000
00000010
00000000
00023000
00000000
01000000
00000000
10000000
00030000
,
00110000
00100000
00001000
00011000
00010000
00000100
00001100
00001000
00000010
00000110
00001000
00000001
,
00000000
00000000
00000000
00000000
;
