
//----- song ID: anyp -----//
#TITLE:Any%;
#ARTIST:めめめ;
#ARTISTTRANSLIT:Mememe;
#BANNER:Any%.png;
#BACKGROUND:Any%-bg.png;
#CDTITLE:./CDTitles/DDR WORLD.png;
#MUSIC:Any%.ogg;
#SAMPLESTART:50.446;
#SAMPLELENGTH:15;
#BPMS:0=157,232=158.94,236=162.053,240=163.934,244=167.015,248=170.092,252=171.92,256=175.055,260=177;
#NOTES:
     dance-single:
     :
     Beginner:
     2:
     :
0000
0000
0000
0000
,
0000
0000
0000
0000
,
0000
0000
0000
0000
,
0000
0000
0000
0000
,
0000
0000
0000
0000
,
1000
0000
0000
0000
,
1000
0000
0000
0000
,
0001
0000
0000
0000
,
0001
0000
0000
0000
,
1000
0000
0000
0000
,
1000
0000
0000
0000
,
1000
0000
0000
0000
,
1000
0000
0000
0000
,
0001
0000
0000
0000
,
0001
0000
0000
0000
,
0001
0000
0000
0000
,
0001
0000
0000
0000
,
1000
0000
1000
0000
,
1000
0000
0000
0000
,
0001
0000
0001
0000
,
0001
0000
0000
0000
,
1000
0000
1000
0000
,
1000
0000
0000
0000
,
0001
0000
0000
0000
,
1000
0000
0000
0000
,
0010
0000
0000
0000
,
0010
0000
0000
0000
,
0100
0000
0000
0000
,
0100
0000
0000
0000
,
0001
0000
0001
0000
,
0001
0000
0000
0000
,
1000
0000
1000
0000
,
1000
0000
0000
0000
,
0001
0000
0000
0000
,
0001
0000
0000
0000
,
1000
0000
0000
0000
,
1000
0000
0000
0000
,
0001
0000
0000
0000
,
0001
0000
0000
0000
,
1000
0000
1000
0000
,
1000
0000
0000
0000
,
0010
0000
0000
0000
,
0010
0000
0000
0000
,
0010
0000
0000
0000
,
0010
0000
0000
0000
,
0100
0000
0000
0000
,
0100
0000
0000
0000
,
0100
0000
0000
0000
,
0100
0000
0000
0000
,
0002
0000
0000
0000
,
0003
0000
0000
0000
,
2000
0000
0000
0000
,
3000
0000
0000
0000
,
0002
0000
0000
0000
,
0003
0000
0000
0000
,
2000
0000
0000
0000
,
3000
0000
0000
0000
,
0001
0000
0000
0000
,
0001
0000
0000
0000
,
0001
0000
0000
0000
,
0001
0000
0000
0000
,
1000
0000
0000
0000
,
1000
0000
0000
0000
,
1000
0000
1000
0000
,
1000
0000
0000
0000
,
1001
0000
0000
0000
,
0001
0000
0000
0000
,
0001
0000
0000
0000
,
0001
0000
0000
0000
,
1001
0000
0000
0000
,
1000
0000
0000
0000
,
1000
0000
0000
0000
,
1000
0000
0000
0000
,
1001
0000
0000
0000
,
0000
0000
0000
0000
,
0001
0000
0000
0000
,
0001
0000
0000
0000
,
1001
0000
0000
0000
,
1000
0000
0000
0000
,
1000
0000
0000
0000
,
1000
0000
0000
0000
,
0001
0000
0000
0000
,
0000
0000
0000
0000
;
#NOTES:
     dance-single:
     :
     Easy:
     7:
     :
0000
0000
0000
0000
,
0000
0000
0000
0000
,
0000
0000
0000
0000
,
0000
0000
0000
0000
,
0000
0000
0000
0000
,
1000
1000
0001
0001
,
0010
0010
0100
0100
,
1000
0100
0010
0001
,
1000
0000
0000
0000
,
1001
0000
0001
0000
,
0010
0010
0100
0100
,
0110
0000
1000
0000
,
0001
0100
0010
1000
,
1001
0000
1000
0000
,
1001
0000
0001
0000
,
1000
0100
0010
0001
,
0010
0100
1000
0001
,
1000
0000
0010
0000
,
0010
0000
1000
0010
,
0100
0000
0100
0000
,
0100
0010
1000
0001
,
1000
0000
0100
0000
,
0100
0000
1000
0100
,
0010
0001
0100
0010
,
1000
0100
0010
0001
,
2000
3000
0001
0000
,
0002
0003
1000
0000
,
0020
0030
0100
0000
,
0200
0300
0010
0010
,
1000
0100
1000
1000
,
0001
0100
0001
0001
,
1000
0010
0100
0001
,
0010
0000
0100
0110
,
0001
0001
0010
0010
,
0100
0100
1000
1000
,
0010
0010
0100
0100
,
0001
0001
1000
1000
,
1001
0000
0001
0100
,
0101
0000
1000
0100
,
1000
0100
0010
0001
,
1000
0000
0000
0000
,
0001
0100
0010
0100
,
0001
1000
0100
1000
,
0010
1000
0001
1000
,
0100
0010
0001
0000
,
1000
0100
0010
0100
,
1000
0001
0100
0001
,
0010
0001
1000
0001
,
0100
0010
1000
0000
,
0002
0000
1000
0000
,
0100
0000
1003
0000
,
0001
0010
0100
1000
,
0010
0000
0100
0001
,
2000
0000
0001
0000
,
0100
0000
3001
1000
,
0002
0000
1003
0000
,
2000
0000
3001
0000
,
1001
0000
1000
0100
,
0010
0001
1000
0010
,
0100
0000
0001
1000
,
1001
0000
0000
0000
,
0001
0001
1000
1000
,
0010
0010
0100
0100
,
0001
1000
0010
0100
,
0010
0000
0000
0000
,
1001
0000
0000
0000
,
1000
0000
0001
0000
,
1000
0100
0010
0001
,
0100
0010
0100
0000
,
0110
0000
0000
0000
,
1000
0000
0001
0000
,
0001
0100
0010
1000
,
0100
0010
0100
0000
,
1001
0000
0000
0000
,
0001
0001
1000
1000
,
0001
0100
0010
1000
,
0100
0010
0100
0000
,
0110
0000
0000
0000
,
0010
0000
0100
0000
,
1000
0100
0001
0100
,
1000
0010
0100
0001
,
2000
3000
0000
0000
,
0000
0000
0000
0000
;
#NOTES:
     dance-single:
     :
     Medium:
     12:
     :
0000
0000
0000
0000
,
0000
0000
0000
0000
,
0000
0000
0000
0000
,
0000
0000
0000
0000
,
0000
0000
0000
0000
,
1000
1000
0001
0001
,
0100
0100
0010
0010
,
1000
0100
0010
0001
1000
0100
0010
0001
,
1000
0000
0001
1000
,
1001
0000
1000
0100
0010
0100
1000
0000
,
0001
1000
0010
0100
,
0110
0000
0001
0010
0100
0010
0001
0000
,
1000
0000
0000
0000
0010
0000
0000
0100
0000
0000
1000
0000
0000
0100
0000
0000
,
1001
0000
0001
0100
0010
0100
0001
0011
,
0000
0001
0000
1000
0010
1000
0100
0000
,
0010
0000
0000
0001
0000
0000
0011
0000
0000
0000
0000
1000
0000
0000
1100
0000
,
0000
1000
0100
0001
0100
0010
0100
1000
,
0100
0000
0000
1000
0002
0000
0003
0010
,
2000
0000
3000
0010
0001
0100
0001
0010
,
0001
0000
0000
0001
2000
0000
3000
0010
,
0002
0000
0000
0000
0013
0000
0000
1000
0000
0000
0100
0000
0000
0010
0000
0000
,
0001
0000
0000
1000
0002
0000
0003
0100
,
2000
0000
3000
0100
0001
0010
0100
1000
,
0000
0000
0000
0010
0000
0000
0110
0000
0000
0000
0000
0001
0000
0000
1001
0000
,
0000
0001
0010
0001
,
1000
0100
0001
0100
,
1000
0010
0001
0010
,
1000
0010
0100
0001
,
1000
0000
0000
0000
0100
0000
0000
0000
0010
0000
0001
0010
0000
0001
0000
0000
,
1000
0100
1000
0100
0010
0001
0010
0001
,
0100
0010
0100
0010
1000
0100
1000
0100
,
0010
0001
0100
1000
0100
0001
0010
0100
,
2000
0000
3001
1001
,
0001
0000
0001
0000
1000
0100
0001
0100
,
1000
0000
1000
0000
0001
0100
1000
0100
,
0001
0000
0010
0000
0100
0010
0001
0010
,
0100
0000
1000
0000
0010
0100
0110
0000
,
1001
0000
0001
0010
0100
1000
0100
1100
,
0000
0000
1000
0100
0010
0001
1000
0000
,
0001
0000
0000
0010
0000
0000
0100
0000
1000
0000
0001
0000
,
1000
0000
0001
1001
,
0001
0010
0100
1000
0000
0000
0010
0000
0000
0100
0000
0000
,
0001
0100
0010
1000
0000
0000
0100
0000
0000
0010
0000
0000
,
0001
1000
0010
0100
0000
0000
0001
0000
0000
1000
0000
0000
,
0010
0100
0001
0010
0000
0000
0001
0000
0000
1000
0000
0000
,
0100
0010
0100
1000
0000
0000
0010
0000
0000
1000
0000
0000
,
0001
0010
0001
0100
0000
0000
0010
0000
0000
1000
0000
0000
,
0100
0010
0001
0010
0000
0000
0001
0000
0100
0000
0010
0000
,
0110
0000
0000
0000
,
0002
0000
0000
0000
,
0000
0000
0000
0000
,
2003
0000
3100
0002
0000
0203
0000
0320
,
0000
0031
0100
0002
0000
1003
0100
0010
,
0200
0000
0000
0000
0000
1300
0001
0200
,
0000
0310
1000
0002
0000
2003
0000
3200
,
0000
0010
2300
0100
,
3020
1000
0230
0010
,
0301
0000
0001
0001
,
1000
0000
0000
0010
0000
0000
0100
0000
0001
0000
0000
0010
0000
0000
0100
0000
,
1000
0000
0000
0001
0000
0000
0100
0000
0010
0000
0000
1000
0000
0000
0001
0000
,
1000
0000
0000
1001
,
1000
0000
0000
0010
0000
0000
0100
0000
0001
0000
0000
0010
0000
0000
0100
0000
,
1000
0000
0000
0001
0000
0000
0100
0000
0010
0000
0000
1000
0000
0000
0001
0000
,
1000
0100
0010
0001
0100
1000
0100
0001
,
1000
0000
0000
0000
,
1001
0000
0000
0000
0000
0000
0001
0000
0000
0100
0000
0000
0010
0000
0000
1000
,
0000
0000
0100
0000
0000
0010
0000
0000
0001
0000
0000
0000
1000
0000
0000
0000
,
1001
0000
0001
0010
0000
0010
0100
0000
,
0000
0000
1000
0000
0000
0010
0000
0000
0001
0000
0000
0010
0000
0000
1000
0000
,
1001
0000
1000
0100
0000
0100
0010
0000
,
0000
0000
0001
0000
0000
0010
0000
0000
1000
0000
0000
0010
0000
0000
0001
0000
,
1001
0000
0001
0100
0000
0001
0010
0000
,
0000
0000
0001
0000
0000
0100
0000
0000
1000
0000
0000
0100
0000
0000
0010
0000
,
1001
0000
0000
2000
0000
0000
0000
0000
,
3010
0010
0110
1001
,
0001
0000
1000
0010
0000
1000
0100
0000
,
1000
0100
0001
0100
1000
0010
0001
0010
,
1000
0000
0010
0100
0000
0001
0010
0000
,
0001
0100
1000
0100
0001
0000
1000
0000
,
0001
0000
1000
0001
0000
0100
0100
0000
,
0000
0000
0001
0000
0000
0100
0000
0000
0010
0000
0000
0000
0100
0000
0000
0000
,
0020
0000
0000
0000
,
0030
0000
0000
0000
,
0000
0000
0000
0000
;
#NOTES:
     dance-single:
     :
     Hard:
     15:
     :
0000
0000
0000
0000
,
0000
0000
0000
0000
,
0000
0000
0000
0000
,
0000
0000
0000
0000
,
0000
0000
0000
0000
,
1000
0000
0100
1000
0000
0100
1000
0000
0001
0000
0010
0001
0000
0010
0001
0000
,
1000
0000
0010
1000
0000
0010
1000
0000
0001
0000
0100
0001
0000
0100
0001
0000
,
1000
0000
0100
0000
0010
0000
0001
0000
1000
0100
1000
0100
0010
0001
0010
0001
,
1000
0000
1000
0001
,
1001
0000
0000
0000
1000
0100
1000
0100
0000
0010
0001
0000
0100
0000
0001
0000
,
0011
0110
1100
0110
,
1001
0000
0000
0000
0001
0010
0001
0010
0000
0000
0001
0000
0100
0000
1000
0000
,
0100
0000
0000
0000
0001
0000
0000
0100
0000
0000
0010
0000
0000
1000
0000
0000
,
0101
0000
0000
0000
0001
0100
0001
0100
0000
0000
0010
0000
1000
0000
1100
0000
,
0000
0000
1000
0000
0010
0100
0010
0000
1000
0000
0100
0010
0100
0000
0000
0000
,
1100
0000
0000
0110
0000
0000
0011
0000
0000
0000
0000
1010
0000
0000
0101
0000
,
0001
0000
1000
0000
0001
0010
0001
0000
1000
0000
0010
0000
0100
0000
0001
0000
,
1000
0000
0010
1000
0200
0000
0310
0001
,
0200
0000
0000
0000
0310
0000
0100
0000
0001
0000
1000
0000
0001
0100
0001
0000
,
1000
0000
0100
0010
0002
0000
1003
0010
,
0001
0000
0000
0000
0010
0000
0000
1000
0000
0000
0100
0000
0000
0010
0000
0000
,
1001
0000
0001
0100
2000
0000
3001
0010
,
2000
0000
0000
0000
3010
0000
0001
0000
0010
0000
0100
0000
0010
0100
0010
0000
,
0000
0000
0000
0011
0000
0000
1100
0000
0000
0000
0000
0101
0000
0000
1010
0000
,
0000
0000
0010
0000
1000
0001
1000
0001
1000
0000
0010
0000
1001
0000
0000
0000
,
2000
0000
3200
0000
,
0320
0000
0032
0000
,
0023
0001
0230
0010
,
2300
0000
0000
0000
3100
0000
0000
0000
1000
0000
0010
0100
0000
0001
0000
0000
,
1000
0100
0010
0001
1000
0100
0010
0001
,
1000
1000
0001
0001
0100
0100
0010
0010
,
1000
0010
1000
0000
0001
0100
0001
0000
1000
0100
1000
0100
0010
0001
0010
0001
,
1000
0000
0010
0100
0010
0100
1001
0000
,
1000
0000
0100
0000
1000
0000
0100
0000
0010
0000
0001
0010
0001
0000
0010
0000
,
0001
0000
0010
0000
0100
0000
1000
0100
1000
0000
0100
0000
0010
0000
0001
0000
,
0100
0020
0030
0100
0200
0000
0010
0000
,
0301
0000
1000
0000
0001
0000
1000
0010
1000
0000
0100
0000
0100
0000
0100
0000
,
1001
0000
0000
0000
1000
0100
1000
0100
0000
0010
0001
0000
0010
0000
0011
0000
,
0000
0000
0001
0000
1000
0100
1000
0000
0001
0000
0100
0010
0100
0000
0000
0000
,
0001
0000
0000
1000
0000
0010
0100
0000
0001
0000
1000
0000
,
0001
0000
0000
1000
0000
0000
0001
0010
0001
1000
0100
1000
,
0001
0010
0100
1000
0000
0001
0010
0000
0001
0100
0000
0001
,
1000
0100
1000
0001
0000
1000
0010
0000
1000
0100
0000
0010
,
0001
0100
0010
1000
0000
1000
0010
0000
0010
0100
0000
0100
,
0001
0100
0001
0010
0000
0010
0001
0000
0001
1000
0000
1000
,
0001
0100
0010
0100
0000
0001
0010
1000
0010
0001
1000
0001
,
1000
0100
1000
0001
0000
1000
0010
0001
0010
1000
0010
0100
,
0001
0010
0001
0100
0000
0001
0100
0000
0010
0000
1000
0000
,
0110
0000
0000
0000
,
0002
0000
0000
0000
,
0000
0000
0000
0000
,
0023
0000
0031
2000
0000
3200
0000
0320
,
0000
0031
1000
0200
0000
1300
0001
0100
,
0010
0000
0010
0000
1000
0000
0001
0010
0001
0010
0001
0000
1000
0000
0100
0010
,
0100
0000
1000
0000
0001
0000
0100
0010
0100
0000
0001
0000
1000
0100
1000
0100
,
1000
0000
0001
0000
1000
0000
0010
0100
0010
0000
1000
0000
0001
0000
0010
0100
,
0010
0000
0001
0000
1000
0000
0010
0100
0010
0000
0001
0000
0010
0100
0010
0000
,
0110
1000
0011
1000
,
0001
0000
0100
0001
0000
0100
0001
0000
1000
0000
0100
1000
0000
0100
1000
0000
,
0001
0000
0100
0001
0000
0100
0001
0000
1000
0000
0100
1000
0000
0100
1000
0000
,
0002
0000
0100
0000
0000
1000
1003
0000
,
0001
0000
0100
0001
0000
0100
0001
0000
1000
0000
0100
1000
0000
0100
1000
0000
,
0001
0000
0100
0001
0000
0100
0001
0000
1000
0000
0100
1000
0000
0100
1000
0000
,
0001
0000
0010
0000
0100
0000
1000
0000
0001
0100
0001
0100
0010
1000
0010
1000
,
0010
0000
0000
0000
,
1100
0000
0000
0000
0000
0000
0001
0000
0000
0010
0000
0000
1000
0000
0000
0010
,
0000
0000
0001
0000
0000
0100
0000
0000
1000
0000
0000
0000
0100
0000
0000
0000
,
0101
0000
1000
0100
0000
1000
0001
0000
,
0000
0000
1000
0000
0000
0010
0000
0000
0100
0000
0000
0001
0000
0000
0010
0000
,
0011
0000
0001
0100
0000
0001
1000
0000
,
0000
0000
0001
0000
0000
0100
0000
0000
0010
0000
0000
1000
0000
0000
0010
0000
,
1010
0000
1000
0010
1000
0010
0100
0001
,
1000
0000
0010
0100
0010
0000
1000
0000
0100
0010
0100
0000
1000
0000
0001
0000
,
1000
0000
0001
2000
0000
0000
0000
0000
,
0001
0000
0000
0000
0001
0000
0000
0000
3001
0000
0010
0100
0010
0000
0000
0000
,
1001
0000
0001
0100
0000
0010
1000
0000
,
1000
0000
0001
0010
0001
0000
0010
0000
0100
0010
0100
0000
1000
0000
0100
1000
,
0100
0000
1000
0010
0100
0001
0010
0000
,
0001
0000
0100
0010
0100
0000
0001
0000
1000
0100
1000
0100
1000
0000
0000
0000
,
0001
1000
0001
1000
0000
0100
0100
0000
,
1000
0000
0001
0000
0000
1000
0000
0000
0001
0000
0000
1000
0000
0000
0010
0000
,
2002
0000
0000
0000
,
3003
0000
0000
0000
,
0000
0000
0000
0000
;
#NOTES:
     dance-double:
     :
     Easy:
     7:
     :
00000000
00000000
00000000
00000000
,
00000000
00000000
00000000
00000000
,
00000000
00000000
00000000
00000000
,
00000000
00000000
00000000
00000000
,
00000000
00000000
00000000
00000000
,
10000000
10000000
00010000
00010000
,
00100000
00100000
00001000
00001000
,
00010000
00000100
00001000
00000010
,
00001000
00000000
00000000
00000000
,
00001001
00000000
00001000
00000000
,
00000001
00000100
00001000
00010000
,
00011000
00000000
00001000
00000000
,
00100000
00010000
10000000
01000000
,
01100000
00000000
10000000
00000000
,
10010000
00000000
00010000
00000000
,
00100000
00001000
00010000
00000100
,
00001000
00000100
00000010
00000001
,
00001000
00000000
00000010
00000000
,
00000010
00000000
00001000
00000100
,
00010000
00000000
00001000
00000000
,
00001000
00100000
00010000
10000000
,
01000000
00000000
00100000
00000000
,
00100000
00000000
00010000
01000000
,
00001000
00010000
00000100
00000010
,
00000001
00001000
00000010
00000100
,
00000020
00000030
00001000
00000000
,
00002000
00003000
00000100
00000000
,
00000200
00000300
00010000
00000000
,
00020000
00030000
00001000
00001000
,
00100000
00010000
10000000
01000000
,
00100000
00001000
00010000
00000000
,
00000100
00001000
00000010
00000100
,
00000001
00000000
00001000
00001001
,
00000001
00000100
00001000
00010000
,
00001000
00100000
00010000
10000000
,
01000000
01000000
00100000
00100000
,
00001000
00001000
00010000
00010000
,
00011000
00000000
00010000
00000100
,
00001100
00000000
00001000
00000010
,
00000100
00001000
00010000
00100000
,
01000000
00000000
00000000
00000000
,
01000000
00010000
00100000
00010000
,
00100000
00001000
00010000
00001000
,
00010000
00000100
00001000
00000100
,
00001000
00000010
00000100
00000000
,
00000010
00001000
00000100
00001000
,
00000100
00010000
00001000
00010000
,
00001000
01000000
00010000
01000000
,
00010000
10000000
01000000
00000000
,
20000000
00000000
00010000
00000000
,
00100000
00000000
31000000
00000000
,
01000000
00100000
00010000
00001000
,
00000100
00000010
00000001
00001000
,
00000002
00000000
00000010
00000000
,
00000100
00000000
00001003
00000001
,
00002000
00000000
00003100
00000000
,
00000200
00000000
00010300
00000000
,
00011000
00000000
00001000
00100000
,
00010000
00000000
00100000
00010000
,
01000000
00000000
00100000
10000000
,
10010000
00000000
00000000
00000000
,
10000000
10000000
00100000
00100000
,
01000000
01000000
00010000
00010000
,
00100000
00001000
00010000
00000100
,
00000010
00000000
00000000
00000000
,
00001001
00000000
00000000
00000000
,
00000001
00000000
00001000
00000000
,
00000010
00001000
00000100
00010000
,
00001000
00100000
00010000
00000000
,
10010000
00000000
00000000
00000000
,
10000000
00000000
00010000
00000000
,
00100000
00010000
01000000
00001000
,
00010000
00000010
00001000
00000000
,
00001010
00000000
00000000
00000000
,
00000010
00000010
00000100
00000100
,
00000001
00000100
00000010
00001000
,
00000100
00010000
00001000
00100000
,
00110000
00000000
00000000
00000000
,
00100000
00000000
01000000
00000000
,
10000000
01000000
00100000
00010000
,
00001000
00000100
00000010
00000001
,
00002000
00003000
00000000
00000000
,
00000000
00000000
00000000
00000000
;
#NOTES:
     dance-double:
     :
     Medium:
     12:
     :
00000000
00000000
00000000
00000000
,
00000000
00000000
00000000
00000000
,
00000000
00000000
00000000
00000000
,
00000000
00000000
00000000
00000000
,
00000000
00000000
00000000
00000000
,
10000000
10000000
00010000
00010000
,
00100000
00100000
00001000
00001000
,
00010000
00001000
00000010
00000100
00001000
00000100
00000010
00000001
,
00001000
00000000
00000001
00001000
,
00001001
00000000
00000001
00000010
00000100
00000010
00000001
00000000
,
00000100
00001000
00010000
00100000
,
01100000
00000000
10000000
01000000
00100000
01000000
10000000
00000000
,
00010000
00000000
00000000
00000000
00100000
00000000
00000000
00001000
00000000
00000000
00010000
00000000
00000000
00000100
00000000
00000000
,
00010100
00000000
00010000
00001000
00000100
00000010
00000100
00000110
,
00000000
00000001
00000000
00000100
00000010
00001000
00000100
00000000
,
00010000
00000000
00000000
00001000
00000000
00000000
00100000
00000000
00000000
00000000
00000000
00001000
00000000
00000000
00010000
00000000
,
00000000
00001000
00100000
00010000
10000000
01000000
00010000
01000000
,
10000000
00000000
00000000
00010000
20000000
00000000
30000000
01000000
,
00200000
00000000
00300000
01000000
10000000
01000000
00100000
00010000
,
00100000
00000000
00000000
00001000
00020000
00000000
00030000
00000100
,
00002000
00000000
00000000
00000000
00003010
00000000
00000000
00000100
00000000
00000000
00001000
00000000
00000000
00010000
00000000
00000000
,
00001000
00000000
00000000
00010000
00000200
00000000
00000300
00001000
,
00000002
00000000
00000003
00001000
00000010
00000100
00001000
00010000
,
00000000
00000000
00000000
00001000
00000000
00000000
00101000
00000000
00000000
00000000
00000000
00100000
00000000
00000000
01100000
00000000
,
00000000
00100000
00010000
10000000
,
01000000
00010000
00001000
00010000
,
00000010
00000100
00000001
00000100
,
00001000
00010000
00100000
01000000
,
00010000
00000000
00000000
00000000
10000000
00000000
00000000
00000000
01000000
00000000
00100000
01000000
00000000
00100000
00000000
00000000
,
00010000
01000000
00010000
01000000
00001000
00010000
00001000
00010000
,
00000100
00001000
00000100
00001000
00000001
00000100
00000001
00000100
,
00000001
00000010
00001000
00000010
00000100
00001000
00000100
00010000
,
00002000
00000000
00013000
00011000
,
00001000
00000000
00001000
00000000
00100000
00010000
00100000
01000000
,
10000000
00000000
10000000
00000000
00100000
01000000
00100000
00010000
,
00001000
00000000
00001000
00000000
00010000
00001000
00000010
00000100
,
00001000
00000000
00001000
00000000
00000010
00000100
00000110
00000000
,
00001001
00000000
00000001
00000010
00000100
00000010
00000001
00000011
,
00000000
00000000
00000010
00000100
00001000
00000100
00001000
00000000
,
00000100
00000000
00000000
00010000
00000000
00000000
00001000
00000000
00100000
00000000
00010000
00000000
,
10000000
00000000
00010000
10010000
,
10000000
00100000
01000000
00010000
00000000
00000000
00100000
00000000
00000000
00001000
00000000
00000000
,
00010000
00000100
00001000
00000010
00000000
00000000
00001000
00000000
00000000
00000001
00000000
00000000
,
00000100
00000010
00000100
00000001
00000000
00000000
00001000
00000000
00000000
00000100
00000000
00000000
,
00010000
00001000
00100000
00010000
00000000
00000000
10000000
00000000
00000000
00010000
00000000
00000000
,
00100000
00010000
00100000
01000000
00000000
00000000
00100000
00000000
00000000
00010000
00000000
00000000
,
00100000
00001000
00010000
00001000
00000000
00000000
00010000
00000000
00000000
00000010
00000000
00000000
,
00001000
00000100
00000010
00000001
00000000
00000000
00001000
00000000
00000100
00000000
00010000
00000000
,
00011000
00000000
00000000
00000000
,
00020000
00000000
00000000
00000000
,
00000000
00000000
00000000
00000000
,
00032000
00000000
00103000
00020000
00000000
02030000
00000000
03200000
,
00000000
10300000
00010000
02000000
00000000
03010000
00100000
00001000
,
00020000
00000000
00000000
00000000
00000000
00031000
00010000
00000200
,
00000000
00001300
00000001
00000020
00000000
00000032
00000000
00002003
,
00000000
00000010
00003200
00001000
,
00020300
00001000
02030000
00100000
,
13000000
00000000
00010000
00010000
,
10000000
00000000
00000000
01000000
00000000
00000000
00100000
00000000
00001000
00000000
00000000
00010000
00000000
00000000
00000100
00000000
,
00001000
00000000
00000000
00000010
00000000
00000000
00000100
00000000
00000001
00000000
00000000
00001000
00000000
00000000
00000001
00000000
,
00000100
00000000
00000000
00001001
,
00000001
00000000
00000000
00000100
00000000
00000000
00000010
00000000
00010000
00000000
00000000
00001000
00000000
00000000
01000000
00000000
,
00010000
00000000
00000000
00100000
00000000
00000000
01000000
00000000
10000000
00000000
00000000
00010000
00000000
00000000
01000000
00000000
,
00010000
00100000
00001000
00010000
00001000
00100000
00010000
10000000
,
00010000
00000000
00000000
00000000
,
10010000
00000000
00000000
00000000
00000000
00000000
00010000
00000000
00000000
01000000
00000000
00000000
00001000
00000000
00000000
00010000
,
00000000
00000000
00000010
00000000
00000000
00001000
00000000
00000000
00000001
00000000
00000000
00000000
00001000
00000000
00000000
00000000
,
00001001
00000000
00000001
00000100
00000000
00000100
00001000
00000000
,
00000000
00000000
00001000
00000000
00000000
00010000
00000000
00000000
00001000
00000000
00000000
00100000
00000000
00000000
01000000
00000000
,
01100000
00000000
10000000
01000000
00000000
01000000
00010000
00000000
,
00000000
00000000
00010000
00000000
00000000
00001000
00000000
00000000
00000010
00000000
00000000
00000100
00000000
00000000
00000010
00000000
,
00000110
00000000
00000010
00000001
00000000
00000010
00000001
00000000
,
00000000
00000000
00001000
00000000
00000000
00000100
00000000
00000000
00010000
00000000
00000000
00001000
00000000
00000000
00100000
00000000
,
01000000
00000000
00000000
20000000
00000000
00000000
00000000
00000000
,
30100000
00100000
01100000
10010000
,
00010000
00000000
01000000
00100000
00000000
10000000
01000000
00000000
,
10000000
01000000
00100000
00010000
00100000
00001000
00010000
00001000
,
00000100
00000000
00000010
00000100
00000000
00000001
00000100
00000000
,
00000001
00000010
00000100
00001000
00000100
00000000
00010000
00000000
,
00001000
00000000
00100000
00010000
00000000
01000000
00010000
00000000
,
00000000
00000000
10000000
00000000
00000000
01000000
00000000
00000000
00010000
00000000
00000000
00000000
00001000
00000000
00000000
00000000
,
00020000
00000000
00000000
00000000
,
00030000
00000000
00000000
00000000
,
00000000
00000000
00000000
00000000
;
#NOTES:
     dance-double:
     :
     Hard:
     15:
     :
00000000
00000000
00000000
00000000
,
00000000
00000000
00000000
00000000
,
00000000
00000000
00000000
00000000
,
00000000
00000000
00000000
00000000
,
00000000
00000000
00000000
00000000
,
10000000
00000000
00010000
01000000
00000000
00010000
01000000
00000000
00001000
00000000
00100000
00001000
00000000
00100000
00001000
00000000
,
00010000
00000000
00000010
00001000
00000000
00000010
00001000
00000000
00000100
00000000
00000010
00000001
00000000
00000010
00000001
00000000
,
00001000
00000000
00000100
00000000
00010000
00000000
00001000
00000000
00100000
00010000
00100000
00010000
10000000
01000000
10000000
01000000
,
10000000
00000000
10000000
00010000
,
10010000
00000000
00000000
00000000
10000000
00100000
01000000
00010000
00000000
00100000
00001000
00000000
00100000
00000000
00001000
00000000
,
00011000
00010100
00101000
00110000
,
10010000
00000000
00000000
00000000
00010000
00100000
00010000
00100000
00000000
00000000
00010000
00000000
01000000
00000000
10000000
00000000
,
01000000
00000000
00000000
00000000
00010000
00000000
00000000
01000000
00000000
00000000
00001000
00000000
00000000
00010000
00000000
00000000
,
00010100
00000000
00000000
00000000
00010000
00001000
00010000
00001000
00000000
00000000
00010000
00000000
00000100
00000000
00001100
00000000
,
00000000
00000000
00001000
00000000
00000010
00000100
00000010
00000000
00001000
00000000
00000100
00000010
00000100
00000000
00000000
00000000
,
00000110
00000000
00000000
00001100
00000000
00000000
00010100
00000000
00000000
00000000
00000000
00011000
00000000
00000000
01001000
00000000
,
00001000
00000000
00100000
00000000
00010000
00100000
00010000
00000000
10000000
00000000
00100000
00000000
01000000
00000000
00010000
00000000
,
10000000
00000000
01000000
00010000
00002000
00000000
00013000
00001000
,
00000020
00000000
00000000
00000000
00001030
00000000
00010000
00000000
00001000
00000000
00100000
00000000
00010000
01000000
00010000
00000000
,
10000000
00000000
01000000
00010000
00002000
00000000
00013000
00000100
,
00000010
00000000
00000000
00000000
00000001
00000000
00000000
00000100
00000000
00000000
00001000
00000000
00000000
00000100
00000000
00000000
,
00000001
00000000
00000100
00001000
00020000
00000000
00031000
00100000
,
02000000
00000000
00000000
00000000
03100000
00000000
00010000
00000000
00100000
00000000
01000000
00000000
10000000
01000000
10000000
00000000
,
00000000
00000000
00000000
10010000
00000000
00000000
00110000
00000000
00000000
00000000
00000000
00101000
00000000
00000000
00011000
00000000
,
00000000
00000000
00010000
00000000
00000010
00010000
00000010
00001000
00000010
00000000
00001000
00000000
00001001
00000000
00000000
00000000
,
00000002
00000000
00000203
00000000
,
00000320
00000000
00020030
00000000
,
00032000
00010000
02003000
00010000
,
03200000
00000000
00000000
00000000
10300000
00000000
00000000
00000000
10000000
00000000
00100000
01000000
00000000
00010000
00000000
00000000
,
10000000
01000000
00100000
00010000
00001000
00000100
00000010
00000001
,
00001000
00001000
00000010
00000010
00010000
00010000
00000100
00000100
,
00010000
00000100
00010000
00000000
00001000
00010000
00001000
00000000
00010000
00001000
00010000
00001000
00100000
00001000
00100000
00001000
,
00100000
00000000
00100000
00010000
01000000
00100000
10010000
00000000
,
10000000
00000000
01000000
00000000
10000000
00000000
01000000
00000000
00100000
00000000
00010000
00100000
00010000
00000000
00100000
00000000
,
00001000
00000000
00010000
00000000
00001000
00000000
00010000
00001000
00010000
00000000
00000100
00000000
00001000
00000000
00000010
00000000
,
00000100
00000002
00000003
00000100
00000200
00000000
00000010
00000000
,
00001300
00000000
00010000
00000000
00001000
00000000
00100000
00001000
00100000
00000000
00010000
00000000
00010000
00000000
00010000
00000000
,
11000000
00000000
00000000
00000000
10000000
01000000
10000000
01000000
00000000
00100000
00010000
00000000
00100000
00000000
00101000
00000000
,
00000000
00000000
00100000
00000000
00001000
00010000
00001000
00000000
00010000
00000000
00001000
00010000
00001000
00000000
00000000
00000000
,
00010000
00000000
00000000
00001000
00000000
00010000
00000100
00000000
00001000
00000000
00000001
00000000
,
00000100
00000000
00000000
00000001
00000000
00000000
00001000
00000010
00001000
00000001
00000100
00000001
,
00001000
00000010
00000100
00000001
00000000
00001000
00000010
00000000
00010000
00000100
00000000
00010000
,
00001000
00100000
00010000
01000000
00000000
00010000
00100000
00000000
00001000
00010000
00000000
00000100
,
00010000
00001000
00000100
00000010
00000000
00000010
00000100
00000000
00000100
00001000
00000000
00001000
,
00010000
00100000
01000000
00100000
00000000
00100000
00010000
00000000
00010000
00001000
00000000
00001000
,
00010000
00000100
00001000
00000100
00000000
00001000
00000100
00010000
00001000
00100000
00010000
01000000
,
00100000
10000000
01000000
10000000
00000000
00010000
00100000
00001000
00010000
00000100
00001000
00000010
,
00000100
00000001
00000010
00000001
00000000
00001000
00000100
00000000
00000010
00000000
00000001
00000000
,
00000110
00000000
00000000
00000000
,
00000002
00000000
00000000
00000000
,
00000000
00000000
00000000
00000000
,
00000023
00000000
00000130
00002000
00000000
00023000
00000000
00230000
,
00000000
01300000
10000000
02000000
00000000
13000000
00010000
01000000
,
00100000
00000000
00100000
00000000
10000000
00000000
00010000
00100000
00010000
00100000
00010000
00000000
00100000
00000000
00001000
00100000
,
00001000
00000000
00010000
00000000
00001000
00000000
00010000
00000100
00010000
00000000
00000010
00000000
00010000
00001000
00010000
00001000
,
00010000
00000000
00000100
00000000
00010000
00000000
00001000
00100000
00001000
00000000
00010000
00000000
00001000
00000000
01000000
00001000
,
01000000
00000000
00001000
00000000
00010000
00000000
00001000
00100000
00001000
00000000
00010000
00000000
00001000
00010000
00001000
00000000
,
00101000
00100000
00110000
10000000
,
10000000
00000000
00010000
01000000
00000000
00010000
01000000
00000000
00001000
00000000
00100000
00001000
00000000
00100000
00001000
00000000
,
00010000
00000000
00000010
00001000
00000000
00000010
00001000
00000000
00000100
00000000
00000010
00000001
00000000
00000010
00000001
00000000
,
00002000
00000000
00000100
00000000
00000000
00000001
00003001
00000000
,
00000001
00000000
00001000
00000100
00000000
00001000
00000100
00000000
00010000
00000000
00000010
00010000
00000000
00000010
00010000
00000000
,
00001000
00000000
00100000
00010000
00000000
00100000
00010000
00000000
01000000
00000000
00100000
10000000
00000000
00100000
10000000
00000000
,
00010000
00000000
01000000
00000000
00001000
00000000
00010000
00000000
00000010
00001000
00000010
00001000
00000001
00000100
00000001
00000100
,
00000001
00000000
00000000
00000000
,
00000011
00000000
00000000
00000000
00000000
00000000
00000010
00000000
00000000
00000100
00000000
00000000
00001000
00000000
00000000
00010000
,
00000000
00000000
00100000
00000000
00000000
01000000
00000000
00000000
10000000
00000000
00000000
00000000
00010000
00000000
00000000
00000000
,
00110000
00000000
10000000
01000000
00000000
10000000
00010000
00000000
,
00000000
00000000
10000000
00000000
00000000
01000000
00000000
00000000
00010000
00000000
00000000
00001000
00000000
00000000
00000010
00000000
,
00000011
00000000
00000001
00000100
00000000
00000001
00001000
00000000
,
00000000
00000000
00000001
00000000
00000000
00000100
00000000
00000000
00001000
00000000
00000000
00010000
00000000
00000000
00100000
00000000
,
10100000
00000000
10000000
00100000
01000000
00010000
00100000
00001000
,
00010000
00000000
00001000
00010000
00001000
00000000
00100000
00000000
00001000
00010000
00001000
00000000
00010000
00000000
00000100
00000000
,
00001000
00000000
00000100
00020000
00000000
00000000
00000000
00000000
,
00001000
00000000
00000000
00000000
00001000
00000000
00000000
00000000
00031000
00000000
00010000
00001000
00010000
00000000
00000000
00000000
,
00011000
00000000
00001000
01000000
00000000
00010000
01000000
00000000
,
00001000
00000000
00100000
00001000
00100000
00000000
00001000
00000000
00010000
00001000
00010000
00000000
00001000
00000000
00100000
00001000
,
00100000
00000000
00001000
00010000
00000100
00001000
00000010
00000000
,
00010000
00000000
00001000
00010000
00001000
00000000
00010000
00000000
00000100
00010000
00000100
00010000
00000100
00000000
00000000
00000000
,
00010000
00001000
00100000
00010000
00000000
01000000
01000000
00000000
,
00010000
00000000
00100000
00000000
00000000
00010000
00000000
00000000
00001000
00000000
00000000
00000100
00000000
00000000
00000010
00000000
,
00002002
00000000
00000000
00000000
,
00003003
00000000
00000000
00000000
,
00000000
00000000
00000000
00000000
;
