
//----- song ID: ambo -----//
#TITLE:Amazing Bomberman;
#ARTIST:TESSEI TOJO;
#BANNER:Amazing Bomberman.png;
#BACKGROUND:Amazing Bomberman-bg.png;
#CDTITLE:./CDTitles/DDR WORLD.png;
#MUSIC:Amazing Bomberman.ogg;
#SAMPLESTART:76.765;
#SAMPLELENGTH:15;
#BPMS:0=175;
#BGSTAGE:2;
#NOTES:
     dance-single:
     :
     Beginner:
     2:
     :
0000
0000
0000
0000
,
0000
0000
0000
0000
,
0000
0000
0000
0000
,
0000
0000
0000
0000
,
0000
0000
0000
0000
,
1000
0000
0000
0000
,
0000
0000
0000
0000
,
1000
0000
0000
0000
,
0000
0000
0000
0000
,
0001
0000
0000
0000
,
0001
0000
0000
0000
,
1000
0000
0000
0000
,
1000
0000
0000
0000
,
0001
0000
0000
0000
,
0001
0000
0000
0000
,
0010
0000
0000
0000
,
0010
0000
0000
0000
,
1001
0000
0000
0000
,
0000
0000
0000
0000
,
1001
0000
0000
0000
,
0000
0000
0000
0000
,
1001
0000
0000
0000
,
0000
0000
0000
0000
,
0001
0000
0000
0000
,
1000
0000
0000
0000
,
0002
0000
0000
0000
,
0000
0000
0000
0000
,
0003
0000
0000
0000
,
0000
0000
0000
0000
,
0010
0000
0000
0000
,
0000
0000
0000
0000
,
0100
0000
0000
0000
,
0000
0000
0000
0000
,
1000
0000
0000
0000
,
0001
0000
0000
0000
,
1000
0000
0000
0000
,
0001
0000
0000
0000
,
1000
0000
0000
0000
,
1000
0000
0000
0000
,
0001
0000
0000
0000
,
0001
0000
0000
0000
,
2000
0000
0000
0000
,
0000
0000
0000
0000
,
3000
0000
0000
0000
,
0000
0000
0000
0000
,
0002
0000
0000
0000
,
0000
0000
0000
0000
,
0003
0000
0000
0000
,
0000
0000
0000
0000
,
1000
0000
0000
0000
,
0000
0000
0000
0000
,
1000
0000
0000
0000
,
0000
0000
0000
0000
,
0001
0000
0000
0000
,
0001
0000
0000
0000
,
0001
0000
0000
0000
,
1001
0000
0000
0000
,
1000
0000
0000
0000
,
1000
0000
0000
0000
,
1000
0000
0000
0000
,
0000
0000
0000
0000
,
0001
0000
0000
0000
,
0001
0000
0000
0000
,
0001
0000
0000
0000
,
0000
0000
0000
0000
,
0100
0000
0000
0000
,
0100
0000
0000
0000
,
0100
0000
0000
0000
,
0000
0000
0000
0000
,
0010
0000
0000
0000
,
0010
0000
0000
0000
,
0010
0000
0000
0000
,
0000
0000
0000
0000
,
1000
0000
0000
0000
,
1000
0000
0000
0000
,
0001
0000
0000
0000
,
0001
0000
0000
0000
,
1000
0000
0000
0000
,
0001
0000
0000
0000
,
1000
0000
0000
0000
,
0001
0000
0000
0000
,
2000
0000
0000
0000
,
0000
0000
0000
0000
0000
0000
0000
0000
0000
0000
0000
0000
0000
0000
0000
0000
0000
0000
0000
0000
0000
0000
0000
0000
0000
0000
0000
0000
0000
0000
0000
0000
0000
0000
0000
0000
0000
0000
0000
0000
0000
0000
0000
0000
0000
0000
0000
0000
0000
0000
0000
0000
0000
0000
0000
0000
0000
0000
0000
0000
0000
0000
0000
0000
0000
0000
0000
0000
0000
0000
0000
0000
0000
0000
0000
0000
0000
0000
0000
0000
0000
0000
0000
0000
0000
0000
0000
0000
0000
0000
0000
0000
0000
0000
0000
0000
0000
0000
0000
0000
0000
0000
0000
0000
0000
0000
0000
0000
0000
0000
0000
0000
0000
0000
0000
0000
0000
0000
0000
0000
0000
0000
0000
0000
0000
0000
0000
0000
0000
0000
0000
0000
0000
0000
0000
0000
0000
0000
0000
0000
0000
0000
0000
0000
0000
0000
0000
0000
0000
0000
0000
0000
0000
0000
0000
0000
0000
0000
0000
0000
0000
0000
0000
0000
0000
0000
0000
0000
0000
0000
0000
0000
0000
0000
0000
0000
0000
0000
0000
0000
0000
0000
0000
0000
0000
0000
0000
0000
0000
0000
0000
3000
,
0000
0000
0000
0000
;
#NOTES:
     dance-single:
     :
     Easy:
     5:
     :
0000
0000
0000
0000
,
0000
0000
0000
0000
,
0000
0000
0000
0000
,
0000
0000
0000
0000
,
0000
0000
0000
0000
,
1000
0000
0000
0000
,
1000
0000
0000
0000
,
0001
0000
0000
0000
,
0001
0000
0000
0000
,
0001
0000
0100
0000
,
0001
0000
0000
0000
,
1000
0000
0100
0000
,
1000
0000
0000
0000
,
1000
1000
0000
0000
,
0001
0001
0000
0000
,
0010
0000
0000
0000
,
0010
0000
0010
0000
,
1001
0000
0000
0000
,
0001
0000
1000
0000
,
1001
0000
0000
0000
,
1000
0000
0001
0000
,
1001
0000
0000
0000
,
0001
0000
1000
0000
,
0001
0001
0001
0000
,
1000
1000
1000
0000
,
2002
0000
0000
0000
,
0000
0000
0000
0000
,
0000
0000
3003
0000
,
0000
0000
0000
0000
,
0001
0000
1000
0000
,
1001
0000
0000
0000
,
0010
0000
0100
0000
,
0110
0000
0000
0000
,
0001
0000
1001
0000
,
1000
0000
1001
0000
,
0010
0000
0110
0000
,
0100
0000
0110
0000
,
1000
0010
1000
0010
,
0100
0001
0100
0000
,
0010
0100
0010
0100
,
0020
0000
0030
1000
,
2002
0000
0000
0000
,
0000
0000
0000
0000
,
0000
0000
3003
0000
,
0000
0000
0000
0000
,
1000
0000
0001
0000
,
0100
0000
0010
0000
,
1000
0000
0001
0000
,
0010
0000
0100
0000
,
1000
0000
1000
0000
,
0010
0000
0010
0000
,
0100
0000
0100
0000
,
0001
0000
0001
0000
,
0001
0001
0001
0000
,
1000
1000
1000
0000
,
0001
1000
0001
1000
,
1001
0000
0000
0000
,
0010
0000
0110
0000
,
1000
0001
1001
0000
,
0010
0000
0110
0000
,
0001
1000
1001
0000
,
1000
0000
1000
0000
,
0001
0000
0001
0000
,
0010
0100
0010
0100
,
0010
0000
1001
0000
,
1000
0100
1000
0000
,
0001
0100
0001
0000
,
0100
0100
0100
0100
,
0010
0010
0010
0010
,
2000
0001
3001
0000
,
0002
1000
1003
0000
,
0001
0000
0100
0000
,
0001
1000
0001
1000
,
0020
0000
0230
0000
,
0302
0000
1003
0000
,
0010
0000
0110
0000
,
0100
0000
0110
0000
,
1000
0010
1000
0010
,
0100
0001
0100
0000
,
0001
1000
0001
1000
,
0100
0010
0100
0010
,
0200
0000
0000
0000
,
0000
0000
0000
0000
,
0300
0000
0000
0000
,
0000
0000
0000
0000
;
#NOTES:
     dance-single:
     :
     Medium:
     10:
     :
0000
0000
0000
0000
,
0000
0000
0000
0000
,
0000
0000
0000
0000
,
0000
0000
0000
0000
,
0000
0000
0000
0000
,
0002
0000
0013
0000
,
0000
0001
1000
0000
0010
0000
0000
0000
,
2000
0000
3010
0000
,
1001
0000
0001
1000
0001
1000
0001
0000
,
1000
1000
1000
0000
0010
0010
0000
0100
,
0000
0001
0001
0000
1000
0000
1000
0000
,
0001
0001
0001
0000
0100
0100
0000
0010
,
0000
1000
1000
0000
0001
0000
0001
0000
,
2000
0100
0100
0100
,
3002
0100
0100
0100
,
1003
0010
1000
0000
0001
0100
0001
0000
,
2000
0000
0000
3000
,
1100
0011
1100
0011
,
0101
1010
0101
1010
,
1100
0101
0011
1100
,
1001
0110
2002
3003
,
1000
0100
0001
0100
,
1000
0100
0010
0001
,
1000
0010
1000
0000
0001
0010
0001
0000
,
1000
0000
0100
0000
1000
0100
0010
0001
,
2000
0000
0000
0000
,
0000
0000
0000
3000
,
0020
0000
0000
0000
,
0000
0000
0000
0030
,
2000
0100
0000
0100
,
0000
0100
0000
3100
,
0200
1000
0001
1000
,
2000
0000
0000
3300
,
1000
0000
0000
0010
0000
0000
0100
0000
0001
0000
0010
0000
0100
0000
0000
0000
,
1000
0000
0000
0010
0000
0000
0100
0000
0001
0000
0010
0000
0100
0000
0000
0000
,
1000
0000
0000
0100
0000
0000
0010
0000
0001
0000
0100
0000
0010
0000
0000
0000
,
1000
0000
0000
0100
0000
0000
0010
0000
0001
0000
0100
0000
0010
0000
0000
0000
,
1000
0001
1000
0000
0001
1000
0001
0000
,
0100
0010
0100
0000
0010
0100
0010
0000
,
1000
0100
1000
0100
0010
0001
0010
0001
,
0020
0000
0000
0130
,
2002
0000
0000
3003
,
1001
0000
0100
0000
,
0010
0000
0000
0000
,
0000
0000
0100
0000
,
0110
0000
0000
0000
,
0001
1000
0000
0000
0000
0000
0000
0000
,
1001
0000
0000
1000
0000
0000
0000
0000
,
0010
0100
0000
0000
0000
0000
0000
0000
,
0001
0000
0000
0010
0000
0000
0001
1000
,
0001
0000
0000
0100
0000
0000
0001
0100
,
0001
0000
0000
0010
0000
0000
0001
1000
,
0001
0000
0000
0100
0000
0000
0001
0100
,
0001
0000
0000
0100
0000
0000
1000
0100
,
1000
0000
0000
0100
0000
0000
0010
0100
,
0010
0100
0010
0000
1000
0100
1000
0000
,
2002
3003
0220
0330
2002
0000
3003
0000
,
0002
0203
0320
1030
,
0100
0000
0010
0000
0001
0100
0010
0000
,
2000
3020
0230
0301
,
0010
0000
0100
0000
0001
0100
1000
0000
,
0002
2003
3020
0130
,
0001
0000
1000
0000
0001
0010
0001
0000
,
2000
3002
0023
0130
,
0001
0000
0100
0000
0001
0100
1000
0000
,
0001
0000
0001
0000
0001
0010
0001
0000
,
1000
0000
1000
0000
1000
0010
1000
0000
,
0001
0010
0100
1000
,
2000
3200
0320
0031
,
1000
0010
0100
0000
0001
0010
0100
0000
,
1000
0001
1000
0001
1000
0000
1001
0000
,
0001
0010
0100
0000
1000
0010
0100
0000
,
0001
1000
0001
1000
0001
0000
1001
0000
,
1000
0000
0000
0010
0000
0000
0100
0000
0001
0000
0010
0000
0100
0000
0000
0000
,
1000
0000
0000
0010
0000
0000
0100
0000
0001
0000
0010
0000
0100
0000
0000
0000
,
1000
0000
0000
0100
0000
0000
0010
0000
0001
0000
0100
0000
0010
0000
0000
0000
,
1000
0000
0000
0100
0000
0000
0010
0000
0001
0000
0100
0000
0010
0000
0000
0000
,
1000
0001
1000
0000
0001
1000
0001
0000
,
0100
0010
0100
0000
0010
0100
0010
0000
,
1000
0100
1000
0100
0010
0001
0010
0001
,
0020
0000
0000
0031
,
2002
0000
0000
0000
,
0000
0000
0000
0000
,
3003
0000
0000
0000
,
0000
0000
0000
0000
;
#NOTES:
     dance-single:
     :
     Hard:
     14:
     :
0000
0000
0000
0000
,
0000
0000
0000
0000
,
0000
0000
0000
0000
,
0000
0000
0000
0000
,
0000
0000
0000
0000
,
0002
0000
0013
0000
,
0000
0001
1000
0000
0010
0000
0000
0000
,
2000
0000
3010
0000
,
1001
0000
0000
0001
0010
0100
1000
0100
0010
0001
0010
0100
,
1000
0001
1000
0000
0001
0011
0000
1100
,
0000
0001
0100
0000
0001
0010
0001
0010
,
0001
0001
0001
0000
1000
1010
0000
0101
,
0000
0001
1000
0001
0010
0100
0010
0100
,
1000
0100
0001
0100
1000
0010
0001
0010
,
1000
0100
0001
0100
1000
0010
0001
0010
,
1000
0010
1000
0010
0100
0001
0100
0001
,
2002
0000
0000
3003
,
1000
0000
0010
0100
0000
0001
1000
0000
,
0001
0000
0000
1000
0001
0000
1000
0100
1000
0000
0000
0000
0001
0000
0000
0000
,
1000
0000
0000
0001
1000
0000
0001
0100
0000
0000
0001
0000
1000
0000
0000
0000
,
0001
0000
0000
0000
0010
0000
0001
0100
0001
0000
0000
0000
1001
0000
0000
0000
,
1000
0000
0000
0000
0001
0000
0010
0100
0010
0000
0000
0000
0001
0000
0000
0000
,
1000
0000
0000
0000
0001
0000
1000
0100
1000
0000
0001
0100
0001
0000
0000
0000
,
1000
0010
1000
0001
0010
0001
1000
0001
,
1000
0010
1000
0000
0001
0010
0001
0000
1000
0001
1000
0001
1000
0001
1000
0000
,
0002
0000
0000
0000
,
0000
0000
0000
0003
,
0020
0001
0100
1000
,
0100
0000
0031
0000
1000
0100
1000
0000
,
1000
1000
0001
0001
0010
0010
0100
0100
,
1000
0010
0001
0010
1000
0100
0010
0000
,
0001
0100
0001
0100
0001
0100
0001
0000
1000
0100
1000
0100
1000
0100
1000
0000
,
2002
0000
0000
0000
0000
0000
0000
3003
0000
0000
0000
0000
0000
0000
0000
0000
,
2000
3000
0000
0020
0030
0000
0200
0300
0001
0010
0001
0000
0100
0000
1000
0000
,
0002
0003
0000
0020
0030
0000
0200
0300
1000
0100
1000
0000
0100
0000
0001
0000
,
2000
3000
0000
0200
0300
0000
0020
0030
0001
0010
0001
0000
0010
0000
1000
0000
,
0002
0003
0000
0200
0300
0000
0020
0030
1000
0010
1000
0000
0010
0000
0000
0000
,
0001
1000
0001
1000
0100
0010
0100
0010
,
0001
0100
0010
1000
0010
0100
0001
0000
,
1000
0010
1000
0000
0001
0100
0001
0000
1000
0100
1000
0000
0001
1000
0001
1000
,
0020
0000
0000
1030
,
0001
0000
0000
1000
0000
0000
0001
0010
,
1000
0010
0001
0100
0000
0000
1000
0000
,
0100
0000
0000
0001
0000
0000
1000
0010
,
0001
0010
1000
0100
0000
0000
0001
0000
,
0100
0000
0000
0001
0000
0000
1000
0010
,
0001
0010
1000
0001
0000
0000
1000
0000
,
0010
0000
0000
0001
0000
0000
1000
0010
,
1000
0100
1000
0001
0000
0000
1000
0000
,
1001
0000
0000
0010
0000
0000
0100
0010
,
0110
0000
0000
1000
0000
0000
0001
1000
,
1001
0000
0000
0001
0000
0000
1000
0001
,
0101
0000
0000
1000
0000
0000
0001
1000
,
0010
0100
0001
0000
0010
0001
0010
0000
,
0001
1000
0001
0000
1000
0100
0010
0000
,
0001
1000
0001
0000
1000
0001
1000
0000
0001
0100
0010
0000
1000
0100
0010
0000
,
2002
3003
0220
0330
2002
0000
3003
0000
,
0002
0203
0320
1030
,
0100
0000
0010
0001
0100
0001
0010
0000
,
0002
0023
0230
1300
,
0010
0000
1000
0010
1000
0010
0001
0000
,
0002
0023
2030
3100
,
0001
0000
0100
1000
0010
0001
0010
0000
,
1000
0100
1000
0100
0010
0001
0010
0001
,
1000
0100
1000
0000
0001
0100
0001
0000
1000
0001
1000
0001
1000
0001
1000
0000
,
0000
0000
0001
0000
1000
0000
0001
0000
1000
0010
1000
0000
0100
0000
0001
0000
,
0000
0000
0100
0000
1000
0000
0001
0000
1000
0100
1000
0000
0010
0000
0001
0000
,
0000
0000
0010
0000
1000
0000
0001
0000
1000
0010
1000
0000
0001
0000
1000
0000
,
0000
0000
1000
0000
0001
0000
1000
0000
0001
1000
0001
0000
1000
0000
0000
0000
,
0001
0100
0001
0100
0001
0000
0000
0000
1000
0100
1000
0100
1000
0000
0000
0000
,
0001
0100
1000
0100
0001
0010
0100
0000
,
1000
0010
1000
0010
1000
0000
0000
0000
0001
0010
0001
0010
0001
0000
0000
0000
,
1000
0100
0001
0100
1000
0001
1001
0000
,
2000
3000
0000
0020
0030
0000
0200
0300
0001
0010
0001
0000
0100
0000
1000
0000
,
0002
0003
0000
0020
0030
0000
0200
0300
1000
0100
1000
0000
0100
0000
0001
0000
,
2000
3000
0000
0200
0300
0000
0020
0030
0001
0010
0001
0000
0010
0000
1000
0000
,
0002
0003
0000
0200
0300
0000
0020
0030
1000
0010
1000
0000
0010
0000
0000
0000
,
0001
0010
0001
0010
0100
1000
0100
1000
,
0010
0100
0010
0100
0001
1000
0001
1000
,
0001
0010
0001
0000
1000
0100
1000
0000
0001
1000
0001
1000
0001
1000
0001
1000
,
0002
0000
0000
1003
,
0220
0000
0000
0000
,
0000
0000
0000
0000
,
0330
0000
0000
0000
,
0000
0000
0000
0000
;
#NOTES:
     dance-double:
     :
     Easy:
     4:
     :
00000000
00000000
00000000
00000000
,
00000000
00000000
00000000
00000000
,
00000000
00000000
00000000
00000000
,
00000000
00000000
00000000
00000000
,
00000000
00000000
00000000
00000000
,
10000000
00000000
00000000
00000000
,
10000000
00000000
00000000
00000000
,
00010000
00000000
00000000
00000000
,
00010000
00000000
00000000
00000000
,
00100000
00000000
00001000
00000000
,
00011000
00000000
00000000
00000000
,
00001000
00000000
00010000
00000000
,
00011000
00000000
00000000
00000000
,
00010000
00000000
00001000
00000000
,
00000100
00000000
00000010
00000000
,
00000010
00000000
00000000
00000000
,
00000100
00000000
00000100
00000000
,
00001001
00000000
00000000
00000000
,
00001000
00000000
00000100
00000000
,
00010000
00000000
00000000
00000000
,
00001000
00000000
01000000
00000000
,
00010000
00000000
00000000
00000000
,
10000000
00000000
00010000
00000000
,
00010000
00010000
00010000
00000000
,
10000000
10000000
10000000
00000000
,
20020000
00000000
00000000
00000000
,
00000000
00000000
00000000
00000000
,
00000000
00000000
30030000
00000000
,
00000000
00000000
00000000
00000000
,
10000000
00000000
00010000
00000000
,
00100000
00001000
00010000
00000000
,
00000010
00000000
00000100
00000000
,
00000220
00000000
00000330
00000000
,
00000010
00000000
00001010
00000000
,
00010000
00000000
00011000
00000000
,
00100000
00000000
00110000
00000000
,
10000000
00000000
10100000
00000000
,
00100000
01000000
00100000
00000000
,
01000000
00010000
01000000
00000000
,
00001000
00010000
00001000
00000000
,
00010000
00000000
00000010
00000000
,
00002002
00000000
00000000
00000000
,
00000000
00000000
00000000
00000000
,
00000000
00000000
00003003
00000000
,
00000000
00000000
00000000
00000000
,
00000002
00000000
00000003
00000000
,
00000020
00000000
00000030
00000000
,
00002000
00000000
00003000
00000000
,
00020000
00000000
00030000
00000000
,
00200000
00000000
10300000
00000000
,
20000000
00000000
31000000
00000000
,
02000000
00000000
03100000
00000000
,
00200000
00000000
00301000
00000000
,
00010000
00000010
00010000
00000000
,
00001000
00100000
00001000
00000000
,
00100000
00010000
10000000
00010000
,
20020000
30030000
00000000
00000000
,
10000000
00000000
00100000
00000000
,
01000000
00001000
00011000
00000000
,
00010000
00000000
00000010
00000000
,
00001000
00000001
00001001
00000000
,
00000001
00000000
00000010
00000000
,
00001000
00000000
00010000
00000000
,
00100000
01000000
00100000
01000000
,
00100000
00000000
10010000
00000000
,
10000000
01000000
10000000
00000000
,
00010000
00100000
00010000
00000000
,
00100000
00100000
00100000
00100000
,
00001000
00001000
00001000
00001000
,
00020000
00000000
00031000
00000000
,
00002000
00000000
00013000
00000000
,
00010000
00000000
00000010
00000000
,
00001000
00000001
00001000
00000001
,
00000200
00000000
00000310
00000000
,
00000020
00000000
00010030
00000000
,
00020000
00000000
00031000
00000000
,
00002000
00000000
01003000
00000000
,
00010000
01000000
00010000
01000000
,
00001000
00010000
00001000
00010000
,
00001000
00000000
00000000
00000000
,
00010000
00000000
00000000
00000000
,
00002000
00000000
00000000
00000000
,
00000000
00000000
00000000
00000000
,
00003000
00000000
00000000
00000000
,
00000000
00000000
00000000
00000000
;
#NOTES:
     dance-double:
     :
     Medium:
     9:
     :
00000000
00000000
00000000
00000000
,
00000000
00000000
00000000
00000000
,
00000000
00000000
00000000
00000000
,
00000000
00000000
00000000
00000000
,
00000000
00000000
00000000
00000000
,
20000000
00000000
30100000
00000000
,
00000000
10000000
00010000
00000000
00100000
00000000
00000000
00000000
,
00020000
00000000
10030000
00000000
,
10000000
00000000
00010000
00100000
00010000
00100000
00010000
00000000
,
00100000
00001000
00010000
00000000
00000100
00000100
00000000
00001000
,
00000000
00000000
00000100
00000100
,
00010000
00001000
00100000
00000000
01000000
01000000
00000000
10000000
,
00000000
00000000
01000000
01000000
,
20000000
01000000
01000000
01000000
,
30020000
00100000
00100000
00100000
,
01030000
00010000
01000000
00000000
00001000
01000000
00001000
00000000
,
00020000
00000000
00000000
00030000
,
00001100
00001010
00010100
00011000
,
01010000
00110000
01010000
00011000
,
01010000
00011000
00110000
01010000
,
10010000
01100000
20020000
30030000
,
00010000
01000000
00001000
00100000
,
00000100
00010000
00000010
00000000
,
00001000
00000010
00001000
00000000
00000001
00000010
00000001
00000000
,
00001000
00000000
00000100
00000000
00010000
00001000
00010000
00001000
,
00020000
00000000
00000000
00000000
,
00030000
00000000
00000000
00000000
,
00000000
00000000
00000000
00000000
,
00000000
00000000
00000000
00000000
,
00002000
01000000
00000000
01000000
,
00000000
01000000
00000000
01003000
,
02000000
00010000
10000000
00010000
,
00020000
00000000
00000000
03030000
,
10000000
00000000
00000000
00100000
00000000
00000000
01000000
00000000
00010000
00000000
00100000
00000000
01000000
00000000
00000000
00000000
,
00100000
00000000
00000000
00010000
00000000
00000000
01000000
00000000
00001000
00000000
00010000
00000000
00000100
00000000
00000000
00000000
,
00001000
00000000
00000000
00000100
00000000
00000000
00000010
00000000
00000001
00000000
00000100
00000000
00000010
00000000
00000000
00000000
,
00000100
00000000
00000000
00000010
00000000
00000000
00001000
00000000
00000100
00000000
00010000
00000000
00001000
00000000
00000000
00000000
,
00010000
00010000
00001000
00001000
,
00100000
00100000
00010000
00010000
,
01000000
00010000
01000000
00010000
00100000
00001000
00100000
00001000
,
00200000
00000000
00000000
00301000
,
00022000
00000000
00000000
00033000
,
00001000
00000000
00000100
00000000
,
00001000
00000000
00000000
00000000
,
00000000
00000000
00010000
00000000
,
00100000
00000000
00000000
00000000
,
01000000
00001000
00000000
00000000
00000000
00000000
00000000
00000000
,
00010000
00000000
00000000
00001000
00000000
00000000
00000000
00000000
,
00000100
00000010
00000000
00000000
00000000
00000000
00000000
00000000
,
00001000
00000000
00000000
00000010
00000000
00000000
00010000
00000100
,
00010000
00000000
00000000
00001000
00000000
00000000
00100000
00001000
,
00100000
00000000
00000000
00010000
00000000
00000000
10000000
01000000
,
10000000
00000000
00000000
00010000
00000000
00000000
00100000
00010000
,
00100000
00000000
00000000
00001000
00000000
00000000
00010000
00001000
,
00010000
00000000
00000000
00000100
00000000
00000000
00001000
00000100
,
00001000
00000100
00001000
00000000
00000001
00000010
00000001
00000000
,
00000220
00000330
00002002
00003003
00002200
00000000
00003300
00000000
,
00000200
00020300
00032000
00203000
,
00310000
00000000
01000000
00000000
00010000
00100000
00001000
00000000
,
00200000
00302000
00023000
00030020
,
00001030
00000000
00000100
00000000
00010000
00001000
00010000
00000000
,
00000200
00020300
00032000
00203000
,
00310000
00000000
01000000
00000000
00010000
00100000
00001000
00000000
,
00200000
00302000
00023000
00030200
,
00001300
00000000
00000100
00000000
00010000
00001000
00010000
00000000
,
00001000
00100000
00010000
10000000
,
01000000
00100000
00001000
00010000
,
00000100
00000010
00000001
00001000
,
00002000
00003020
00000230
00000302
,
00001003
00000010
00001000
00000000
00000100
00001000
00000100
00000000
,
00010000
00001000
01000000
00010000
,
00100000
00010000
00100000
00000000
00010000
01000000
00010000
00000000
,
10000000
10000000
00010000
00010000
,
10000000
00000000
00000000
00100000
00000000
00000000
01000000
00000000
00010000
00000000
00100000
00000000
01000000
00000000
00000000
00000000
,
00100000
00000000
00000000
00010000
00000000
00000000
01000000
00000000
00001000
00000000
00010000
00000000
00000100
00000000
00000000
00000000
,
00001000
00000000
00000000
00000100
00000000
00000000
00000010
00000000
00000001
00000000
00000100
00000000
00000010
00000000
00000000
00000000
,
00000100
00000000
00000000
00000010
00000000
00000000
00001000
00000000
00000100
00000000
00010000
00000000
00001000
00000000
00000000
00000000
,
00010000
00010000
00001000
00001000
,
00100000
00100000
00010000
00010000
,
01000000
00010000
01000000
00010000
00100000
00001000
00100000
00001000
,
00200000
00000000
00000000
00301000
,
00022000
00000000
00000000
00000000
,
00000000
00000000
00000000
00000000
,
00033000
00000000
00000000
00000000
,
00000000
00000000
00000000
00000000
;
#NOTES:
     dance-double:
     :
     Hard:
     14:
     :
00000000
00000000
00000000
00000000
,
00000000
00000000
00000000
00000000
,
00000000
00000000
00000000
00000000
,
00000000
00000000
00000000
00000000
,
00000000
00000000
00000000
00000000
,
20000000
00000000
30010000
00000000
,
00000000
01000000
00001000
00000000
00010000
00000000
00000000
00000000
,
00000020
00000000
00001030
00000000
,
00001001
00000000
00000000
00000001
00000010
00000100
00001000
00000100
00001000
00000100
00010000
00001000
,
00010000
00001000
01000000
00000000
00010000
00110000
00000000
10010000
,
00000000
00010000
10000000
00000000
10000000
01000000
10000000
01000000
,
00100000
00010000
00100000
00000000
00001000
00001000
00000000
00010000
,
00000000
00000100
00001000
00000100
00001000
00000001
00001000
00000001
,
00001000
00000100
00010000
00001000
00100000
00010000
01000000
00100000
,
10000000
01000000
00010000
00001000
00000100
00000001
00000010
00000001
,
00001000
00000100
00010000
00001000
00100000
00010000
10000000
01000000
,
20000000
00000000
00000000
30000000
00010000
00100000
01000000
00000000
,
10000000
00000000
00100000
01000000
00000000
00001000
00010000
00000000
,
00000010
00000000
00000000
00001000
00000001
00000000
00001000
00000100
00001000
00000000
00000000
00000000
00000001
00000000
00000000
00000000
,
00000100
00000000
00000000
00000010
00010000
00000000
00000010
00010000
00000000
00000000
00001000
00000000
00010000
00000000
00000000
00000000
,
00100000
00000000
00000000
00000000
01000000
00000000
00100000
01000000
00100000
00000000
00000000
00000000
01100000
00000000
00000000
00000000
,
10010000
00000000
00000000
00000000
00010000
00000000
10000000
01000000
00100000
00000000
00000000
00000000
00010000
00000000
00000000
00000000
,
00001000
00000000
00000000
00000000
00000100
00000000
00000010
00000100
00000010
00000000
00000001
00000100
00000001
00000000
00000000
00000000
,
00001000
00000100
00010000
00001000
00100000
00010000
10000000
01000000
,
00010000
00001000
00000100
00000001
00000100
00001000
00010000
00100000
,
20000000
30000000
02000000
03000000
,
00200000
00300000
00002000
00003000
,
00020000
00001000
01000000
00001000
,
00000100
00000000
00031000
00000000
00010000
00001000
00010000
00000000
,
00000100
00000100
00010000
00010000
00001000
00001000
01000000
01000000
,
00100000
10000000
00100000
10000000
00100000
00010000
00001000
00000000
,
00010000
00000010
00010000
00000000
00001000
00100000
00001000
00000000
00010000
00000100
00010000
00000000
00000100
00001000
00000100
00000000
,
00000020
00000000
00000000
00000030
00000001
00001000
00000001
00000000
,
00000002
00000003
00000000
00000020
00000030
00000000
00000200
00000300
00001000
00000010
00001000
00000000
00000100
00000000
00001000
00000000
,
00000200
00000300
00000000
00002000
00003000
00000000
00020000
00030000
00100000
00010000
00100000
00000000
00010000
00000000
00100000
00000000
,
20000000
30000000
00000000
00200000
00300000
00000000
00020000
00030000
00100000
00010000
00100000
00000000
00001000
00000000
00000010
00000000
,
00000002
00000003
00000000
00000020
00000030
00000000
00002000
00003000
00010000
00001000
00010000
00000000
00001000
00000000
00000000
00000000
,
00100000
00001000
00100000
00010000
10000000
01000000
00010000
00001000
,
00000010
00000001
00000010
00001000
00010000
01000000
10000000
00000000
,
01000000
10000000
00010000
00000000
00100000
00001000
00010000
00000000
00001000
00010000
00000100
00000000
00001000
00000100
00001000
00000100
,
00002000
00000000
00000000
00003001
,
00001001
00000000
00000000
00000001
00000000
00000000
00000100
00001000
,
00010000
00100000
01000000
20000000
00000000
30000000
00010000
00000000
,
00100000
00000000
00000000
10000000
00000000
00000000
01000000
00010000
,
00001000
00000010
00000100
00000002
00000000
00000003
00001000
00000000
,
00000010
00000000
00000000
00000001
00000000
00000000
00000100
00001000
,
00010000
00100000
01000000
20000000
00000000
30000000
00010000
00000000
,
00100000
00000000
00000000
10000000
00000000
00000000
01000000
00010000
,
00001000
00000010
00000100
00000002
00000000
00000003
00001000
00000000
,
00000010
00000000
00000000
00000100
00000000
00000000
00010000
00001000
,
00011000
00000000
00000000
00010000
00000000
00000000
00001000
01000000
,
01001000
00000000
00000000
00001000
00000000
00000000
00010000
00000100
,
00010100
00000000
00000000
00010000
00000000
00000000
00001000
01000000
,
00100000
10000000
00010000
01000000
10000000
01000000
00010000
00100000
,
00001000
00010000
00000100
00001000
00000001
00000100
00001000
00010000
,
00100000
10000000
01000000
00010000
00001000
00000010
00000001
00000100
,
00000202
00000303
00002200
00003300
00000220
00000000
00000330
00000000
,
00000002
00002003
00003020
00010030
,
00001000
00000000
00010000
01000000
00010000
00001000
00000100
00000000
,
00002000
00023000
00230000
10300000
,
00100000
00000000
10000000
00100000
10000000
00100000
00010000
00000000
,
00020000
00230000
20300000
31000000
,
00010000
00000000
00001000
00000010
00001000
00010000
00100000
00000000
,
10000000
01000000
10000000
01000000
00100000
00010000
00100000
00010000
,
10000000
01000000
00100000
00000000
00001000
00100000
00001000
00000000
00010000
00000100
00010000
00000000
00000100
00001000
00000001
00000000
,
00000000
00000000
00001000
00000000
00000010
00000000
00001000
00000000
00000001
00000100
00000001
00000000
00000100
00000000
00001000
00000000
,
00000000
00000000
00010000
00000000
00001000
00000000
00010000
00000000
00001000
00010000
00001000
00000000
01000000
00000000
00010000
00000000
,
00000000
00000000
10000000
00000000
01000000
00000000
00010000
00000000
01000000
10000000
01000000
00000000
00010000
00000000
00001000
00000000
,
00000000
00000000
00010000
00000000
00001000
00000000
00010000
00000000
00000100
00001000
00000100
00000000
00001000
00000000
00000000
00000000
,
00000100
00001000
00000100
00001000
00000100
00000000
00000000
00000000
00010000
00001000
00010000
00001000
00010000
00000000
00000000
00000000
,
00001000
00010000
00100000
10000000
00100000
00010000
00001000
00000000
,
00010000
00001000
00010000
00001000
00010000
00000000
00000000
00000000
00001000
00100000
00001000
00100000
00001000
00000000
00000000
00000000
,
00100000
00001000
00010000
00000100
00001000
00000001
00001001
00000000
,
00000002
00000003
00000000
00000020
00000030
00000000
00000200
00000300
00001000
00000010
00001000
00000000
00000100
00000000
00001000
00000000
,
00000200
00000300
00000000
00002000
00003000
00000000
00020000
00030000
00100000
00010000
00100000
00000000
00010000
00000000
00100000
00000000
,
20000000
30000000
00000000
00200000
00300000
00000000
00020000
00030000
00100000
00010000
00100000
00000000
00001000
00000000
00000010
00000000
,
00000002
00000003
00000000
00000020
00000030
00000000
00002000
00003000
00010000
00001000
00010000
00000000
00001000
00000000
00000000
00000000
,
00100000
00001000
00100000
00010000
10000000
01000000
00010000
00001000
,
00000010
00000001
00000010
00001000
00010000
01000000
10000000
00000000
,
01000000
10000000
00010000
00000000
00100000
00001000
00010000
00000000
00001000
00010000
00000100
00000000
00001000
00000100
00001000
00000100
,
00002000
00000000
00000000
00003000
,
00022000
00000000
00000000
00000000
,
00000000
00000000
00000000
00000000
,
00033000
00000000
00000000
00000000
,
00000000
00000000
00000000
00000000
;
