
//----- song ID: amab -----//
#TITLE:Amabie;
#ARTIST:BEMANI Sound Team "Coyaan";
#BANNER:Amabie.png;
#BACKGROUND:Amabie-bg.png;
#CDTITLE:./CDTitles/pnm Kaimei Riddles.png;
#MUSIC:Amabie.ogg;
#SAMPLESTART:69.643;
#SAMPLELENGTH:15;
#BPMS:0=168;
#NOTES:
     dance-single:
     :
     Beginner:
     2:
     :
0000
0000
0000
0000
,
0000
0000
0000
0000
,
0000
0000
0000
0000
,
0000
0000
0000
0000
,
0000
0000
0000
0000
,
1000
0000
0000
0000
,
0000
0000
0000
0000
,
0001
0000
0000
0000
,
0000
0000
0000
0000
,
1000
0000
0000
0000
,
1000
0000
0000
0000
,
1000
0000
0000
0000
,
0000
0000
0000
0000
,
0001
0000
0000
0000
,
0001
0000
0000
0000
,
0001
0000
0000
0000
,
0000
0000
0000
0000
,
0010
0000
0000
0000
,
0010
0000
0000
0000
,
0010
0000
0000
0000
,
0000
0000
0000
0000
,
0100
0000
0000
0000
,
0100
0000
0000
0000
,
0100
0000
0000
0000
,
0000
0000
0000
0000
,
1001
0000
0000
0000
,
0000
0000
0000
0000
,
1001
0000
0000
0000
,
0000
0000
0000
0000
,
1001
0000
0000
0000
,
0000
0000
0000
0000
,
1001
0000
0000
0000
,
0000
0000
0000
0000
,
1000
0000
0000
0000
,
1000
0000
0000
0000
,
1000
0000
0000
0000
,
0000
0000
0000
0000
,
0001
0000
0000
0000
,
0001
0000
0000
0000
,
0001
0000
0000
0000
,
0000
0000
0000
0000
,
0010
0000
0000
0000
,
0000
0000
0000
0000
,
0100
0000
0000
0000
,
0000
0000
0000
0000
,
1000
0000
0000
0000
,
1000
0000
0000
0000
,
0001
0000
0000
0000
,
0001
0000
0000
0000
,
1000
0000
0000
0000
,
1000
0000
0000
0000
,
1000
0000
0000
0000
,
1000
0000
0000
0000
,
0001
0000
0000
0000
,
0001
0000
0000
0000
,
0001
0000
0000
0000
,
0001
0000
0000
0000
,
1000
0000
0000
0000
,
1000
0000
0000
0000
,
1000
0000
0000
0000
0000
0000
0000
1000
,
0000
0000
0000
0000
,
0001
0000
0000
0000
,
0001
0000
0000
0000
,
0001
0000
0000
0000
,
0001
0000
0000
0000
,
1000
0000
0000
0000
,
1000
0000
0000
0000
,
1000
0000
0000
0000
,
0000
0000
0000
0000
,
0001
0000
0000
0000
,
0001
0000
0000
0000
,
0001
0000
0000
0000
,
0000
0000
0000
0000
,
0020
0000
0030
0000
,
0000
0000
0000
0000
,
0020
0000
0030
0000
,
0000
0000
0000
0000
,
0200
0000
0300
0000
,
0000
0000
0000
0000
,
0200
0000
0300
0000
,
0000
0000
0000
0100
,
0000
0000
0000
0000
;
#NOTES:
     dance-single:
     :
     Easy:
     6:
     :
0000
0000
0000
0000
,
0000
0000
0000
0000
,
0000
0000
0000
0000
,
0000
0000
0000
0000
,
0000
0000
0000
0000
,
1000
0000
1000
0100
,
0010
0000
0010
0001
,
2000
0000
3000
0000
,
0002
0000
0003
0000
,
1001
0000
1000
0100
,
0010
0001
0010
0100
,
1000
0000
0001
0100
,
0001
1000
0001
0000
,
1001
0000
0001
0010
,
0100
1000
0100
0010
,
0001
0000
1000
0010
,
1000
0000
0001
1000
,
1001
0000
1000
0001
,
0100
0010
1000
0100
,
1000
0000
0010
0100
,
0010
1000
0100
0000
,
1001
0000
0001
1000
,
0100
0010
0001
0100
,
0001
0000
0010
0100
,
0010
0000
0100
0000
,
0110
0000
1000
0001
,
0100
0000
0010
0000
,
0110
0000
0001
1000
,
0100
0000
0010
0000
,
0011
0000
0001
0100
,
0010
0000
1000
0000
,
1010
0000
1000
0100
,
0010
0001
1000
0000
,
1100
0000
0100
1000
,
0001
0000
1000
0000
,
0101
0000
0100
0001
,
1000
0000
0001
0001
,
2002
0000
3003
0000
,
0001
1000
0010
0100
,
0010
1000
0100
0010
,
0001
0000
0110
0000
,
1002
0000
0003
0000
,
2000
0000
3000
0000
,
0020
0000
0030
0000
,
0200
0000
0300
0000
,
0001
0001
0010
0100
,
1000
1000
0010
0100
,
0001
1000
0100
0010
,
0001
0000
0000
0000
,
1001
0000
0001
0100
,
0001
0100
0010
1000
,
0100
0000
0100
1000
,
0001
0010
0100
0000
,
1000
1000
0100
0100
,
0010
0010
0001
0001
,
0200
0000
0000
0300
,
0020
0030
1000
0001
,
1001
0000
1000
0100
,
1000
0100
0010
0001
,
0100
0000
0100
0001
,
1000
0010
0100
0000
,
0001
0001
0100
0100
,
0010
0010
1000
1000
,
0200
0000
0000
0300
,
0010
0000
0110
0000
,
1001
0000
1000
0100
,
1000
0000
0001
0100
,
0001
0000
1000
0001
,
0010
0000
0001
1000
,
0010
0000
1000
1000
,
0100
0000
0010
0010
,
0001
0000
1000
0010
,
0200
0000
0000
0300
,
0002
0003
1000
0001
,
0020
0030
0100
1000
,
0200
0300
0010
0100
,
2000
3000
0001
0000
,
0002
0003
1000
0001
,
0200
0300
0010
1000
,
0020
0000
0000
0000
,
0030
0000
0000
1001
,
0000
0000
0000
0000
;
#NOTES:
     dance-single:
     :
     Medium:
     12:
     :
0000
0000
0000
0000
,
0000
0000
0000
0000
,
0000
0000
0000
0000
,
0000
0000
0000
0000
,
0000
0000
0000
0000
,
2000
0000
3001
0100
,
0020
0000
0000
0000
0000
0000
0000
0000
0000
0000
0130
0000
0000
0001
0000
0000
,
2000
0000
0000
0000
,
0002
0000
3003
1001
,
0110
0000
0000
0001
0010
0001
0010
0200
,
0000
0310
0001
1000
0200
0000
0310
0000
,
0110
0000
0000
1000
0010
1000
0010
0100
,
0000
0001
1000
0000
0010
0000
0100
0000
,
0110
0000
0000
0001
0100
0001
0100
0020
,
0000
1030
0001
0010
0200
0000
0320
0000
,
0032
0000
0000
0000
0000
1003
0010
1000
,
0000
0000
0010
0000
0010
0000
0000
0000
1000
0000
0000
0001
0000
0000
0010
0000
,
0100
0000
0000
0100
0010
0001
0010
0200
,
0000
1300
0100
0001
0200
0000
0310
0000
,
0110
0000
0000
0010
0001
0010
0100
1000
,
0000
0001
0001
0000
0100
0010
0010
0000
,
0110
0000
0000
0010
0100
1000
0100
0020
,
0000
0031
0010
1000
0020
0000
0230
0000
,
0302
0000
0000
0000
0100
0000
0000
0000
1000
0000
0000
1000
0000
0000
1003
0000
,
0000
0000
0001
0000
0000
0010
0000
0000
0100
0000
0000
1000
0000
0000
0001
0000
,
1000
0000
0010
0100
0001
0100
0000
0100
,
0000
0001
0100
0010
0100
1000
0100
0000
,
0001
0000
0010
0100
1000
0100
0000
0100
,
0000
0000
1000
0000
0100
0000
0010
0000
0100
0000
0000
0001
0000
0000
0100
0000
,
1000
0000
0001
0010
0100
1000
0000
1000
,
0000
0010
0100
1000
0100
0010
0100
0000
,
0001
0000
0100
0000
0010
0000
1000
0000
0001
0000
0000
1000
0000
0000
0100
0000
,
0000
0000
1000
0000
0001
0000
0000
0000
0010
0000
0000
0100
0000
0000
1000
0000
,
0001
0000
1000
0010
0100
0001
0000
0001
,
0000
0010
0100
0001
0100
0010
0100
0000
,
1000
0000
0001
0100
1000
0100
0000
0010
,
0000
0000
1000
0000
0100
0000
1000
0000
0001
0000
0000
0010
0000
0000
0100
0000
,
2000
0000
0000
0000
3000
0001
0000
1001
,
0000
0001
0100
0001
0010
1000
0010
0000
,
0001
0000
0100
0000
0010
0000
1000
0000
0010
0000
0000
0100
0000
0000
0001
0000
,
0000
0000
1000
0000
0000
0100
0000
0000
0010
0000
0000
0001
0000
0000
0010
0000
,
0200
0000
1000
0000
,
0010
0000
0000
0000
0000
0000
0000
0000
1000
0000
0000
1000
0000
0000
1000
0000
,
2300
0000
0100
0000
,
0010
0000
0000
0000
0000
0000
0000
0000
0001
0000
0000
0001
0000
0000
0001
0000
,
3002
0000
0100
0000
,
0023
0000
0000
0000
0000
0000
0000
0000
0100
0000
0000
0100
0000
0000
0100
0000
,
0230
0000
0000
0000
0000
0000
0000
0000
1000
0000
0000
0010
0000
0000
1300
0000
,
0000
0000
0000
0000
0000
0010
1001
0000
,
0110
0000
0000
0001
0010
0001
0010
0200
,
0000
0301
0100
1000
0200
0000
0300
0000
,
0110
0000
0000
1000
0010
1000
0010
0100
,
0000
0001
0010
0001
0020
0000
0030
0000
,
0001
0010
0001
0100
0010
0100
0010
2000
,
0000
3010
0001
0010
0100
1000
0100
0000
,
0020
0000
0000
0000
0000
1030
0001
0100
,
0000
0000
0010
0000
0010
0000
0000
0000
1000
0000
0000
0010
0000
0000
0100
0000
,
0101
0000
0000
1000
0010
1000
0010
0002
,
0000
0013
0100
0010
0200
0000
0300
0000
,
0110
0000
0000
0000
0000
0000
0001
0000
0100
0000
0000
0001
0000
0000
1000
0000
,
0000
0100
0010
0001
0020
0000
0030
0000
,
0001
0100
0001
0010
0100
0010
0100
2000
,
0000
0000
3100
0000
0001
0000
0000
0000
0100
0000
0000
0010
0000
0000
0001
0000
,
0200
0000
0000
0000
0001
0000
0000
0000
0010
0000
0000
0010
0000
0000
0310
0000
,
0000
0000
1000
0000
0000
0010
0000
0000
0100
0000
0000
0001
0000
0000
1000
0000
,
0010
0000
0000
0000
0010
0000
0000
0000
1000
0000
0000
0010
0000
0000
0001
0000
,
0000
0000
0010
0000
0010
0000
0000
0000
1000
0000
0000
0001
0000
0000
0010
0000
,
0100
0000
0000
0000
0100
0000
0000
0000
1000
0000
0000
0100
0000
0000
0001
0000
,
0000
0100
0100
1000
0001
0010
0010
0000
,
0001
0000
0000
0000
0001
0000
0000
0000
0100
0000
0000
1000
0000
0000
0100
0000
,
0000
0000
0001
0000
0001
0000
0000
0000
0010
0000
0000
0100
0000
0000
1000
0000
,
0001
0000
0000
0000
0001
0000
0000
0000
0010
0000
0000
1000
0000
0000
0010
0000
,
0000
0000
0001
0000
0000
0010
0000
0000
0100
0000
0000
0010
0000
0000
0100
0000
,
2000
0000
3001
0100
,
0020
0000
0030
0100
,
0002
0000
0000
0000
0000
0000
0000
0000
0003
0000
1000
0000
0000
0010
0000
0000
,
0200
0000
0300
0000
,
0002
0000
1003
0100
,
0020
0000
0000
0000
0000
0000
0000
0000
0000
0000
0130
0000
0000
1000
0000
0000
,
0002
0000
0000
0000
,
2000
0000
3003
1001
,
0000
0000
0000
0000
;
#NOTES:
     dance-single:
     :
     Hard:
     15:
     :
0000
0000
0000
0000
,
0000
0000
0000
0000
,
0000
0000
0000
0000
,
0000
0000
0000
0000
,
0000
0000
0000
0000
,
2000
0000
3002
0023
,
2030
0000
0000
0000
0000
0000
0000
0000
0000
0000
3002
0000
0000
0203
0000
0000
,
2300
0010
0000
3010
,
1000
0000
0001
0010
0100
0000
0010
0100
1000
0000
0001
0000
1001
0000
0000
0000
,
0110
0000
0000
0000
0001
0000
1000
0100
0010
0000
0001
0010
0100
0000
1000
0000
,
0000
0000
0001
0000
0100
0000
0010
0000
1000
0000
0001
0000
0000
0100
0000
0000
,
0010
0000
0000
0000
1000
0000
0001
0100
0001
0000
1000
0000
0100
0000
0010
0000
,
0000
0000
0100
0010
0100
0000
0001
0000
0100
0000
1000
0000
0000
0010
0000
0000
,
1000
0000
0000
0000
0001
0000
1000
0100
1000
0000
0100
0000
0010
0000
0001
0000
,
0000
0000
0100
0010
0100
0000
1000
0000
0100
0000
0001
0000
0000
0010
0000
0000
,
0001
0000
0000
0000
0010
0000
0100
0010
0100
0000
1000
0000
0001
0000
0010
0000
,
0000
0000
0001
0000
1000
0000
0000
0000
0010
0000
0000
0010
0000
0000
0010
0000
,
1001
0000
0000
0000
1000
0000
0001
0010
0001
0000
0000
0010
0000
0000
0100
0000
,
0000
0000
1000
0010
1000
0000
0000
0000
1000
0000
0000
0100
0000
0000
0010
0000
,
0001
0000
0000
0000
1000
0000
0001
0010
0001
0000
0000
0010
0000
0000
0100
0000
,
0000
0000
1000
0100
1000
0000
0001
0000
0100
0000
0010
0000
0010
0000
0000
0000
,
1100
0000
0000
0000
0001
0000
1000
0010
1000
0000
0000
0010
0000
0000
0100
0000
,
0000
0000
0001
0100
0001
0000
0000
0000
0001
0000
0000
0010
0000
0000
0100
0000
,
1000
0000
0000
0000
0001
0000
1000
0010
1000
0000
0000
0010
0000
0000
0100
0000
,
0000
0000
0001
0000
0000
0100
0000
0000
1000
0000
0000
0100
0000
0000
0001
0000
,
1001
0000
0000
0000
0001
1000
0100
0010
0001
0000
1000
0000
0000
0000
0011
0000
,
0000
0000
0010
0001
0100
0000
0010
1000
0100
0000
0010
0001
0100
0000
0000
0000
,
0110
0000
0000
0000
0010
1000
0100
0010
0001
0000
0010
0000
0000
0000
1100
0000
,
0000
0000
1000
0001
0010
0000
0001
1000
0010
0000
0000
0100
0000
0000
0001
0000
,
0011
0000
0000
0000
1000
0010
0100
0001
0010
0000
0001
0000
0000
0000
1100
0000
,
0000
0000
1000
0100
1000
0000
0001
0010
0001
0000
1000
0100
1000
0000
0000
0000
,
0001
0000
0100
0000
0001
0000
1000
0100
0010
0000
0100
0010
0000
0000
0001
0000
,
0000
0000
1000
0100
1000
0000
0000
0000
0001
0000
0000
0010
0000
0000
0100
0000
,
1001
0000
0000
0000
1000
0001
0100
0010
1000
0000
0001
0000
0000
0000
1010
0000
,
0000
0000
0010
1000
0100
0000
0010
0001
0100
0000
0010
1000
0100
0000
0000
0000
,
0110
0000
0000
0000
0010
0001
0100
0010
1000
0000
0010
0000
0000
0000
0101
0000
,
0000
0000
0001
1000
0001
0000
1000
0001
1000
0000
0000
1000
0000
0000
1000
0000
,
0001
0010
0001
0010
0001
0010
0001
0010
0001
0000
0010
0000
0000
0000
0101
0000
,
0000
0000
0001
0100
0001
0000
1000
0010
1000
0000
0001
0100
0001
0000
0000
0000
,
1000
0000
0100
0000
1000
0000
0001
0100
0010
0000
0100
0010
0000
0000
1000
0000
,
0000
0000
0010
0000
0000
0001
0000
0000
0010
0000
0000
1000
0000
0000
0001
0000
,
0012
0000
0000
0000
,
0023
0000
0000
0000
0000
0000
0000
0000
0100
0000
0000
0100
0000
0000
0100
0000
,
0230
0000
1000
0000
,
0010
0000
0000
0000
0000
0000
0000
0000
1000
0000
0000
1000
0000
0000
1000
0000
,
1300
0000
0100
0000
1000
0000
0001
0010
0001
0000
0010
0000
0001
0000
0100
0000
,
0001
0000
1000
0000
0010
0000
1000
0100
1000
0000
0000
0100
0000
0000
0100
0000
,
1000
0000
0010
0000
1000
0000
0010
0000
1000
0000
0000
1000
0000
0000
1001
0000
,
0000
0000
0001
0010
0100
0000
0010
0100
1000
0000
0001
0000
1001
0000
0000
0000
,
1100
0000
0000
0000
1000
0100
0010
0001
0010
0000
0001
0010
0001
0000
0011
0000
,
0000
0000
0010
0001
0100
0000
0010
0000
0100
0000
0010
0000
0000
0010
0000
0000
,
0110
0000
0000
0000
0010
1000
0100
0010
0001
0000
0010
0100
1000
0000
1100
0000
,
0000
0000
1000
0100
1000
0000
0001
0000
0100
0000
0000
0010
0000
0000
1000
0000
,
0001
0000
0010
0100
0010
0000
0001
0000
0100
0010
0100
0000
0001
0000
1000
0000
,
0000
0000
0001
0000
0010
0000
1000
0000
0010
0000
0001
0000
0000
0100
0000
0000
,
1000
0000
0100
0100
0001
0010
0100
1000
,
0000
0000
0001
0010
0001
0000
1000
0100
1000
0000
0000
0010
0000
0000
0100
0000
,
1001
0000
0000
0000
1000
0000
0001
0010
1000
0000
0000
0010
0000
0000
0001
0000
,
0000
0000
1000
0100
1000
0000
0001
0000
2000
0000
0000
0000
3010
0000
0000
0000
,
1001
0000
0000
0000
0001
0000
1000
0010
0001
0000
0000
0010
0000
0000
1000
0000
,
0000
0000
0001
0100
0001
0000
1000
0000
0002
0000
0010
0000
0013
0000
0000
0000
,
0001
0000
0100
0010
0100
0000
0001
0000
0010
0100
0010
0000
0100
0000
2000
0000
,
0000
0000
3001
0100
0001
0000
0010
0000
0001
0000
0000
0100
0000
0000
0001
0000
,
1000
0000
0000
0000
0001
0000
0100
0010
0100
0000
0010
0100
0000
0000
0001
0000
,
0000
0000
1000
0000
0000
0100
0000
0000
0010
0000
0000
0001
0000
0000
0010
0000
,
1100
0000
0000
0000
1000
0000
0001
0010
1000
0000
0001
0100
1000
0000
0001
0000
,
0000
0000
1000
0010
1000
0000
0010
0000
0100
0000
0000
0000
0010
0000
0000
0000
,
0101
0000
0000
0000
0001
0000
1000
0010
0001
0000
1000
0100
0001
0000
1000
0000
,
0000
0000
0001
0010
0001
0000
1000
0000
0001
0000
0010
0000
0010
0000
0000
0000
,
0001
0000
0100
0000
0000
0000
0001
0000
0100
0000
0010
1000
0010
0000
0100
0000
,
0010
0100
0001
0100
0000
0010
0010
0000
,
1000
0000
0000
0000
0001
0000
1000
0100
1000
0000
0001
0010
0001
0000
1000
0000
,
0000
0000
0001
0000
0000
0100
0000
0000
1000
0000
0000
0001
0000
0000
0010
0000
,
2001
0000
0100
0010
,
3002
0010
0000
0010
,
0203
0000
0000
0000
0010
0000
0000
0000
0000
0000
1000
0000
0000
0010
0000
0000
,
0001
0310
0110
0000
,
1002
0000
0100
0010
,
0023
0000
0000
0000
0100
0000
0000
0000
0000
0000
0001
0000
0000
0100
0000
0000
,
1030
0000
0000
0000
0010
0000
0100
0001
0100
0000
1000
0001
0000
0000
2000
0000
,
0000
0000
0000
0000
0000
3001
0110
0000
,
0000
0000
0000
0000
;
#NOTES:
     dance-double:
     :
     Easy:
     7:
     :
00000000
00000000
00000000
00000000
,
00000000
00000000
00000000
00000000
,
00000000
00000000
00000000
00000000
,
00000000
00000000
00000000
00000000
,
00000000
00000000
00000000
00000000
,
10000000
00000000
00100000
01000000
,
00010000
00000000
00100000
00001000
,
00020000
00000000
00030000
00000000
,
00002000
00000000
00003000
00000000
,
00011000
00000000
00010000
00000100
,
00001000
00000001
00001000
00000100
,
00010000
00000000
00001000
01000000
,
00010000
10000000
00010000
00000000
,
10010000
00000000
10000000
01000000
,
00100000
00010000
00100000
00001000
,
00010000
00000000
00000100
00001000
,
00000010
00000000
00001000
00000001
,
00001001
00000000
00000001
00000100
,
00001000
00010000
00001000
00100000
,
00010000
00000000
10000000
01000000
,
00100000
00000000
00010000
00000000
,
10010000
00000000
10000000
01000000
,
00010000
00001000
00010000
00000010
,
00001000
00000000
00000001
00000100
,
00000010
00000000
00001000
00000000
,
00001010
00000000
00001000
00000100
,
00010000
00000000
00001000
00000000
,
00011000
00000000
00010000
00001000
,
00100000
00000000
00010000
00000000
,
00110000
00000000
00100000
00010000
,
10000000
00000000
01000000
00000000
,
01100000
00000000
00100000
00001000
,
00010000
00000100
00001000
00000000
,
00001100
00000000
00001000
00000010
,
00010000
00000000
00001000
00000000
,
00011000
00000000
00010000
00001000
,
01000000
00000000
00010000
00010000
,
20020000
00000000
30030000
00000000
,
00010000
00000000
01000000
00010000
,
00100000
00001000
00010000
00000100
,
00000010
00000000
00000110
00000000
,
00001002
00000000
00000003
00000000
,
00002000
00000000
00003000
00000000
,
00000200
00000000
00000300
00000000
,
00020000
00000000
00030000
00000000
,
00001000
00001000
00100000
00010000
,
01000000
01000000
00100000
10000000
,
01000000
00100000
00001000
00010000
,
00000100
00000000
00000000
00000000
,
00001001
00000000
00000001
00000100
,
00000010
00001000
00000100
00000000
,
00010000
00000000
00001000
00100000
,
00010000
10000000
01000000
00000000
,
10000000
01000000
00010000
00001000
,
00010000
00000100
00000010
00000001
,
00000200
00000000
00000000
00000300
,
00000020
00000030
00001000
00000001
,
00001001
00000000
00000001
00000010
,
00000100
00001000
00000010
00000000
,
00010000
00000000
00001000
01000000
,
00010000
10000000
00100000
00000000
,
10000000
00100000
00010000
00001000
,
00010000
00000100
00001000
00000001
,
00000020
00000000
00000000
00000030
,
00000100
00000000
00001000
00000000
,
00001001
00000000
00000001
00000100
,
00000010
00000000
00000010
00001000
,
00000100
00000000
00000100
00010000
,
00001000
00000000
00001000
00100000
,
00010000
00000000
10000000
01000000
,
00100000
00000000
00100000
00001000
,
00010000
00000000
00010000
00000100
,
00002000
00000000
00000000
00003000
,
00000001
00000000
00001000
00000010
,
00000100
00000000
00000010
00001000
,
00000100
00000000
00010000
00001000
,
02000000
03000000
00010000
00000000
,
20000000
30000000
00100000
01000000
,
00020000
00030000
00100000
00001000
,
00020000
00000000
00000000
00000000
,
00030000
00000000
00000000
00011000
,
00000000
00000000
00000000
00000000
;
#NOTES:
     dance-double:
     :
     Medium:
     12:
     :
00000000
00000000
00000000
00000000
,
00000000
00000000
00000000
00000000
,
00000000
00000000
00000000
00000000
,
00000000
00000000
00000000
00000000
,
00000000
00000000
00000000
00000000
,
20000000
00000000
30100000
01000000
,
00002000
00000000
00000000
00000000
00000000
00000000
00000000
00000000
00000000
00000000
00013000
00000000
00000000
00000010
00000000
00000000
,
00000200
00000000
00000000
00000000
,
00000020
00000000
00000330
00000110
,
00001001
00000000
00000000
00000001
00000100
00000001
00000100
00000020
,
00000000
00001030
00000100
00010000
00002000
00000000
00003000
00000000
,
00011000
00000000
00000000
00001000
01000000
00001000
01000000
00010000
,
00000000
00100000
00010000
00000000
10000000
00000000
00100000
00000000
,
01100000
00000000
00000000
10000000
01000000
10000000
01000000
00200000
,
00000000
00310000
01000000
00001000
00020000
00000000
00030200
00000000
,
00000320
00000000
00000000
00000000
00000000
00000031
00000100
00000001
,
00000000
00000000
00001000
00000000
00001000
00000000
00000000
00000000
00000010
00000000
00000000
00001000
00000000
00000000
00000100
00000000
,
00010000
00000000
00000000
00001000
00010000
00100000
00010000
00002000
,
00000000
00103000
00010000
10000000
02000000
00000000
03100000
00000000
,
01100000
00000000
00000000
10000000
01000000
10000000
01000000
00100000
,
00000000
00010000
00010000
00000000
00100000
00001000
00001000
00000000
,
00011000
00000000
00000000
00010000
00001000
00000100
00001000
00020000
,
00000000
00030010
00001000
00000001
00000020
00000000
00000230
00000000
,
00002300
00000000
00000000
00000000
00000100
00000000
00000000
00000000
00000001
00000000
00000000
00000001
00000000
00000000
00003001
00000000
,
00000000
00000000
00000001
00000000
00000000
00000100
00000000
00000000
00001000
00000000
00000000
00010000
00000000
00000000
00100000
00000000
,
10000000
00000000
00100000
01000000
00010000
00100000
00000000
00100000
,
00000000
00001000
00010000
00001000
00000100
00000010
00000100
00000000
,
00000001
00000000
00000010
00000100
00001000
00000010
00000000
00000010
,
00000000
00000000
00010000
00000000
00001000
00000000
00010000
00000000
01000000
00000000
00000000
00100000
00000000
00000000
01000000
00000000
,
10000000
00000000
01000000
00010000
00001000
00000010
00000000
00000010
,
00000000
00000001
00000010
00000100
00000010
00000001
00001000
00000000
,
00000010
00000000
00001000
00000000
00010000
00000000
01000000
00000000
00100000
00000000
00000000
10000000
00000000
00000000
01000000
00000000
,
00000000
00000000
00100000
00000000
01000000
00000000
00000000
00000000
00100000
00000000
00000000
00001000
00000000
00000000
00010000
00000000
,
00001000
00000000
00010000
00100000
01000000
00100000
00000000
00100000
,
00000000
10000000
01000000
00100000
00010000
00100000
00001000
00000000
,
00010000
00000000
00001000
00000100
00000010
00000100
00000000
00000100
,
00000000
00000000
00000001
00000000
00000010
00000000
00000100
00000000
00001000
00000000
00000000
00000100
00000000
00000000
00010000
00000000
,
00002000
00000000
00000000
00000000
00003000
00100000
00000000
00110000
,
00000000
00010000
00100000
01000000
10000000
01000000
10000000
00000000
,
00010000
00000000
00100000
00000000
00001000
00000000
00010000
00000000
00000100
00000000
00000000
00001000
00000000
00000000
00000001
00000000
,
00000000
00000000
00000001
00000000
00000000
00000100
00000000
00000000
00001000
00000000
00000000
00010000
00000000
00000000
00100000
00000000
,
20000000
00000000
00100000
00000000
,
01000000
00000000
00000000
00000000
00000000
00000000
00000000
00000000
00010000
00000000
00000000
00010000
00000000
00000000
00010000
00000000
,
30020000
00000000
10000000
00000000
,
01000000
00000000
00000000
00000000
00000000
00000000
00000000
00000000
00100000
00000000
00000000
00100000
00000000
00000000
00100000
00000000
,
00230000
00000000
00010000
00000000
,
00302000
00000000
00000000
00000000
00000000
00000000
00000000
00000000
00010000
00000000
00000000
00010000
00000000
00000000
00010000
00000000
,
00023000
00000000
00000000
00000000
00000000
00000000
00000000
00000000
00030100
00000000
00000000
00000010
00000000
00000000
00000001
00000000
,
00000000
00000000
00000000
00000000
00000000
00000010
00001001
00000000
,
00000101
00000000
00000000
00000001
00000100
00000001
00000100
00002000
,
00000000
00013000
00100000
01000000
00200000
00000000
00300000
00000000
,
01100000
00000000
00000000
10000000
01000000
10000000
01000000
00010000
,
00000000
00001000
00000010
00000100
00000020
00000000
00000030
00000000
,
00000001
00000010
00000100
00000010
00000100
00001000
00000100
00020000
,
00000000
00031000
00010000
00100000
00010000
00100000
01000000
00000000
,
00200000
00000000
00000000
00000000
00000000
01300000
00010000
00100000
,
00000000
00000000
00001000
00000000
00001000
00000000
00000000
00000000
00010000
00000000
00000000
00100000
00000000
00000000
01000000
00000000
,
01010000
00000000
00000000
10000000
01000000
10000000
01000000
00020000
,
00000000
00031000
00000010
00000100
00000020
00000000
00000030
00000000
,
00000110
00000000
00000000
00000000
00000000
00000000
00000010
00000000
00000100
00000000
00000000
00010000
00000000
00000000
00001000
00000000
,
00000000
00100000
00010000
00100000
02000000
00000000
03000000
00000000
,
10000000
01000000
00100000
01000000
00100000
00010000
00100000
00002000
,
00000000
00000000
00013000
00000000
00001000
00000000
00000000
00000000
00010000
00000000
00000000
00000010
00000000
00000000
00000100
00000000
,
00000002
00000000
00000000
00000000
00000100
00000000
00000000
00000000
00001000
00000000
00000000
00001000
00000000
00000000
00001003
00000000
,
00000000
00000000
00000001
00000000
00000000
00000100
00000000
00000000
00001000
00000000
00000000
00010000
00000000
00000000
00100000
00000000
,
10000000
00000000
00000000
00000000
00010000
00000000
00000000
00000000
10000000
00000000
00000000
00100000
00000000
00000000
01000000
00000000
,
00000000
00000000
00001000
00000000
00001000
00000000
00000000
00000000
00010000
00000000
00000000
00000100
00000000
00000000
00001000
00000000
,
00000001
00000000
00000000
00000000
00000100
00000000
00000000
00000000
00000001
00000000
00000000
00001000
00000000
00000000
00000010
00000000
,
00000000
00010000
00010000
00001000
00100000
00010000
00010000
00000000
,
10000000
00000000
00000000
00000000
01000000
00000000
00000000
00000000
00010000
00000000
00000000
01000000
00000000
00000000
00100000
00000000
,
00000000
00000000
00001000
00000000
00001000
00000000
00000000
00000000
00010000
00000000
00000000
00000010
00000000
00000000
00000100
00000000
,
00000001
00000000
00000000
00000000
00000100
00000000
00000000
00000000
00001000
00000000
00000000
00000100
00000000
00000000
00000001
00000000
,
00000000
00000000
00000001
00000000
00000000
00000010
00000000
00000000
00001000
00000000
00000000
00010000
00000000
00000000
01000000
00000000
,
20000000
00000000
30010000
01000000
,
00200000
00000000
00300000
01000000
,
00002000
00000000
00000000
00000000
00000000
00000000
00000000
00000000
00003000
00000000
00010000
00000000
00000000
00000100
00000000
00000000
,
00000020
00000000
00000030
00000000
,
00000002
00000000
00001003
00000100
,
00020000
00000000
00000000
00000000
00000000
00000000
00000000
00000000
00000000
00000000
00031000
00000000
00000000
00100000
00000000
00000000
,
02000000
00000000
00000000
00000000
,
20000000
00000000
33000000
11000000
,
00000000
00000000
00000000
00000000
;
#NOTES:
     dance-double:
     :
     Hard:
     15:
     :
00000000
00000000
00000000
00000000
,
00000000
00000000
00000000
00000000
,
00000000
00000000
00000000
00000000
,
00000000
00000000
00000000
00000000
,
00000000
00000000
00000000
00000000
,
20000000
00000000
30020000
00230000
,
00302000
00000000
00000000
00000000
00000000
00000000
00000000
00000000
00000000
00000000
00023000
00000000
00000000
00030200
00000000
00000000
,
00002300
00000010
00000000
00003010
,
00001000
00000000
00000010
00001000
00000100
00000000
00001000
00000100
00010000
00000000
00001000
00000000
00101000
00000000
00000000
00000000
,
00011000
00000000
00000000
00000000
00010000
00000000
00001000
00100000
00010000
00000000
00100000
00001000
00010000
00000000
00000100
00000000
,
00000000
00000000
00000010
00000000
00000100
00000000
00010000
00000000
00000010
00000000
00001000
00000000
00000000
00010000
00000000
00000000
,
01000000
00000000
00000000
00000000
00010000
00000000
10000000
01000000
10000000
00000000
00100000
00000000
00010000
00000000
00001000
00000000
,
00000000
00000000
00000100
00000010
00000100
00000000
00000001
00000000
00000010
00000000
00001000
00000000
00000000
00010000
00000000
00000000
,
01000000
00000000
00000000
00000000
10000000
00000000
00100000
01000000
00100000
00000000
00010000
00000000
00001000
00000000
00000100
00000000
,
00000000
00000000
00000001
00000010
00000001
00000000
00001000
00000000
00000001
00000000
00000100
00000000
00000000
00001000
00000000
00000000
,
00010000
00000000
00000000
00000000
00100000
00000000
01000000
00100000
01000000
00000000
00010000
00000000
10000000
00000000
01000000
00000000
,
00000000
00000000
10000000
00000000
00010000
00000000
00000000
00000000
00100000
00000000
00000000
00001000
00000000
00000000
00010000
00000000
,
00010100
00000000
00000000
00000000
00000100
00000000
00001000
00000100
00010000
00000000
00000000
00001000
00000000
00000000
00100000
00000000
,
00000000
00000000
00010000
01000000
00100000
00000000
00000000
00000000
10000000
00000000
00000000
01000000
00000000
00000000
00100000
00000000
,
00001000
00000000
00000000
00000000
00010000
00000000
00001000
00010000
00000100
00000000
00000000
00000010
00000000
00000000
00000001
00000000
,
00000000
00000000
00000100
00000010
00001000
00000000
00000100
00000000
00010000
00000000
00001000
00000000
00001000
00000000
00000000
00000000
,
00011000
00000000
00000000
00000000
00010000
00000000
00001000
01000000
00001000
00000000
00000000
00010000
00000000
00000000
00100000
00000000
,
00000000
00000000
10000000
01000000
10000000
00000000
00000000
00000000
00100000
00000000
00000000
00010000
00000000
00000000
00001000
00000000
,
00000100
00000000
00000000
00000000
00000001
00000000
00000010
00000100
00000010
00000000
00000000
00000100
00000000
00000000
00001000
00000000
,
00000000
00000000
00010000
00000000
00000000
00100000
00000000
00000000
10000000
00000000
00000000
00100000
00000000
00000000
00010000
00000000
,
10010000
00000000
00000000
00000000
00010000
10000000
01000000
00100000
00010000
00000000
10000000
00000000
00000000
00000000
00110000
00000000
,
00000000
00000000
00100000
00010000
00001000
00000000
00010000
00001000
00000100
00000000
00001000
00000100
00000010
00000000
00000000
00000000
,
00001001
00000000
00000000
00000000
00001000
00000001
00000010
00000100
00001000
00000000
00000001
00000000
00000000
00000000
00001100
00000000
,
00000000
00000000
00000100
00001000
00010000
00000000
00001000
00010000
00100000
00000000
00000000
00010000
00000000
00000000
10000000
00000000
,
10100000
00000000
00000000
00000000
10000000
00100000
01000000
00010000
00100000
00000000
00001000
00000000
00000000
00000000
00011000
00000000
,
00000000
00000000
00001000
00010000
00001000
00000000
00100000
00010000
00100000
00000000
00001000
00010000
00001000
00000000
00000000
00000000
,
00010000
01000000
10000000
01000000
00010000
00001000
00000010
00000001
,
00000010
00000000
00001000
00000000
00010000
00000000
00000000
00000000
00001000
00000000
00000000
00100000
00000000
00000000
00001000
00000000
,
00011000
00000000
00000000
00000000
00001000
00010000
00100000
01000000
10000000
00000000
01000000
00000000
00000000
00000000
01010000
00000000
,
00000000
00000000
01000000
00010000
01000000
00000000
00001000
00100000
00001000
00000000
00010000
00000100
00010000
00000000
00000000
00000000
,
00011000
00000000
00000000
00000000
00010000
00001000
00000100
00000010
00000001
00000000
00000010
00000000
00000000
00000000
00001010
00000000
,
00000000
00000000
00001000
00000010
00001000
00000000
00000100
00010000
00000100
00000000
00000000
00010000
00000000
00000000
00001000
00000000
,
00010000
00001000
00010000
00001000
00010000
00001000
00010000
00001000
00010000
00000000
00000100
00000000
00000000
00000000
00001100
00000000
,
00000000
00000000
00000100
00010000
00000100
00000000
00001000
00000010
00001000
00000000
00000001
00000100
00000001
00000000
00000000
00000000
,
00000010
00001000
00010000
01000000
10000000
01000000
00010000
00001000
,
00000000
00000000
00000100
00000000
00000000
00000001
00000000
00000000
00000010
00000000
00000000
00001000
00000000
00000000
00010000
00000000
,
00002000
00000000
00000000
00000000
,
00003020
00000000
00000000
00000000
00000000
00000000
00000000
00000000
00000001
00000000
00000000
00001000
00000000
00000000
00000100
00000000
,
00000032
00000000
00001000
00000000
,
00000023
00000000
00000000
00000000
00000000
00000000
00000000
00000000
00000001
00000000
00000000
00001000
00000000
00000000
00000100
00000000
,
00000031
00000000
00000010
00000000
00001000
00000000
00010000
00001000
00010000
00000000
00100000
00000000
10000000
00000000
01000000
00000000
,
00010000
00000000
00001000
00000000
00000010
00000000
00000001
00000010
00000001
00000000
00000000
00000100
00000000
00000000
00001000
00000000
,
00010000
00000000
00100000
00000000
10000000
00000000
00100000
00000000
00010000
00000000
00000000
00001000
00000000
00000000
00011000
00000000
,
00000000
00000000
00001000
00100000
00010000
00000000
00100000
00001000
00010000
00000000
00001000
00000000
00011000
00000000
00000000
00000000
,
00101000
00000000
00000000
00000000
00001000
00100000
00010000
01000000
00100000
00000000
10000000
01000000
10000000
00000000
11000000
00000000
,
00000000
00000000
10000000
00010000
01000000
00000000
00010000
00000000
00100000
00000000
00001000
00000000
00000000
00010000
00000000
00000000
,
00010100
00000000
00000000
00000000
00010000
00000100
00001000
00000010
00000100
00000000
00000001
00000010
00000001
00000000
00000011
00000000
,
00000000
00000000
00000001
00001000
00000100
00000000
00010000
00000000
00001000
00000000
00000000
00100000
00000000
00000000
00010000
00000000
,
01000000
00000000
00100000
00010000
00001000
00000000
00100000
00000000
00010000
00001000
00000100
00000000
00010000
00000000
00000100
00000000
,
00000000
00000000
00001000
00000000
00000001
00000000
00000010
00000000
00001000
00000000
00010000
00000000
00000000
01000000
00000000
00000000
,
10000000
00000000
00100000
01000000
00010000
00100000
00001000
00010000
,
00000000
00000000
00000100
00010000
00001000
00000000
00010000
00000100
00001000
00000000
00000000
00000100
00000000
00000000
00010000
00000000
,
00011000
00000000
00000000
00000000
00010000
00000000
00001000
00000010
00000001
00000000
00000000
00000010
00000000
00000000
00001000
00000000
,
00000000
00000000
00010000
00001000
00010000
00000000
00001000
00000000
00020000
00000000
00000000
00000000
00031000
00000000
00000000
00000000
,
00011000
00000000
00000000
00000000
00001000
00000000
00010000
00100000
10000000
00000000
00000000
00100000
00000000
00000000
00010000
00000000
,
00000000
00000000
00001000
00010000
00001000
00000000
00010000
00000000
00002000
00000000
00010000
00000000
00013000
00000000
00000000
00000000
,
00010000
00000000
00001000
00010000
00000100
00000000
00001000
00000000
00000001
00000100
00000010
00000000
00001000
00000000
00000020
00000000
,
00000000
00000000
00001030
00000100
00010000
00000000
00001000
00000000
00010000
00000000
00000000
01000000
00000000
00000000
10000000
00000000
,
00010000
00000000
00000000
00000000
01000000
00000000
00010000
00100000
00010000
00000000
00100000
00001000
00000000
00000000
00010000
00000000
,
00000000
00000000
00001000
00000000
00000000
00000100
00000000
00000000
00000001
00000000
00000000
00000100
00000000
00000000
00001000
00000000
,
00011000
00000000
00000000
00000000
00010000
00000000
00001000
00000100
00000001
00000000
00001000
00000010
00000001
00000000
00000010
00000000
,
00000000
00000000
00000100
00001000
00010000
00000000
00001000
00000000
00010000
00000000
00000000
00000000
00001000
00000000
00000000
00000000
,
00011000
00000000
00000000
00000000
00001000
00000000
00010000
00100000
10000000
00000000
00010000
01000000
10000000
00000000
01000000
00000000
,
00000000
00000000
00100000
00010000
00001000
00000000
00010000
00000000
00001000
00000000
00100000
00000000
00100000
00000000
00000000
00000000
,
00001000
00000000
00010000
00000000
00000000
00000000
00001000
00000000
00010000
00000000
00000010
00001000
00000100
00000000
00001000
00000000
,
00000010
00010000
00000100
00001000
00000000
00000010
00000010
00000000
,
00001000
00000000
00000000
00000000
00000100
00000000
00010000
00001000
00100000
00000000
00010000
01000000
00100000
00000000
10000000
00000000
,
00000000
00000000
00100000
00000000
00000000
00010000
00000000
00000000
00001000
00000000
00000000
00000100
00000000
00000000
00000010
00000000
,
00001002
00000000
00000100
00000010
,
00002003
00000100
00000000
00010000
,
00023000
00000000
00000000
00000000
00100000
00000000
00000000
00000000
00000000
00000000
00001000
00000000
00000000
00100000
00000000
00000000
,
10000000
00130000
00110000
00000000
,
10020000
00000000
01000000
00100000
,
00230000
00000000
00000000
00000000
10000000
00000000
00000000
00000000
00000000
00000000
01000000
00000000
00000000
00010000
00000000
00000000
,
00301000
00000000
00000000
00000000
00100000
00000000
00001000
00010000
00000100
00000000
00001000
00000100
00000000
00000000
00020000
00000000
,
00000000
00000000
00000000
00000000
00000000
00031000
00011000
00000000
,
00000000
00000000
00000000
00000000
;
