
//----- song ID: akat -----//
#TITLE:Akatsuki;
#ARTIST:PRIDASK;
#BANNER:Akatsuki.png;
#BACKGROUND:Akatsuki-bg.png;
#CDTITLE:./CDTitles/bm IIDX 31 EPOLIS.png;
#MUSIC:Akatsuki.ogg;
#SAMPLESTART:40;
#SAMPLELENGTH:15;
#BPMS:0=90;
#NOTES:
     dance-single:
     :
     Beginner:
     2:
     :
0000
0000
0000
0000
,
0000
0000
0000
0000
,
0000
0000
0000
0000
,
0001
0000
0000
0000
,
1000
0000
0000
0000
,
0010
0000
0000
0000
,
0010
0000
0000
0000
,
1000
0000
1000
0000
,
1000
0000
0000
0000
,
0001
0000
0001
0000
,
0001
0000
0000
0000
,
2000
0000
0000
0000
,
3000
0000
0000
0000
,
0001
0000
0000
0000
,
0010
0000
0010
0000
,
0020
0000
0030
0000
,
0020
0000
0030
0000
,
0002
0000
0003
0000
,
1000
0000
1000
0000
,
2000
0000
3000
0000
,
0020
0000
0030
0000
,
2000
0000
3000
0000
,
0001
0000
0001
0000
,
0000
0000
1000
1000
,
0000
0000
0001
0001
,
0000
0000
1000
1000
,
0000
0000
0010
0000
,
0020
0000
0000
0000
,
0030
0000
0000
0000
,
1000
0000
0000
0000
,
0010
0000
0010
0000
,
2000
0000
3000
0000
,
0200
0000
0300
0000
,
2000
0000
3000
0000
,
0001
0000
0001
0000
,
0002
0000
0003
0000
,
0020
0000
0030
0000
,
0002
0000
0003
0000
,
1000
0000
1000
0000
,
0000
0000
0001
0001
,
0000
0000
1000
1000
,
0000
0000
0001
0001
,
0000
0000
0010
0000
,
0020
0000
0000
0000
,
0000
0000
0000
0030
,
0000
0000
0000
0000
;
#NOTES:
     dance-single:
     :
     Easy:
     2:
     :
0000
0000
0000
0000
,
0000
0000
0000
0000
,
0000
0000
0000
0000
,
0001
0000
0001
0000
,
1000
0000
1000
0000
,
0010
0000
0010
0000
,
0010
0000
0000
0000
,
1000
1000
1000
1000
,
1000
0000
0000
0000
,
0001
0001
0001
0000
,
0010
0010
0010
0000
,
0002
0000
0003
0000
,
2000
0000
3000
0000
,
0002
0000
0003
0000
,
0010
0010
0010
0000
,
0001
0000
0010
0000
,
0100
0000
1000
1000
,
0000
0000
1000
0000
,
0100
0000
0100
0000
,
1000
0000
0100
0000
,
0010
0000
0001
0001
,
0000
0000
0001
0000
,
0100
0000
0100
0000
,
0001
0000
2000
0000
,
3000
0000
0002
0000
,
0003
0000
0020
0000
,
0030
0000
0100
0000
,
2000
0000
0000
0000
,
0000
0000
0000
3000
,
0000
0000
0000
0000
,
0010
0010
0010
0000
,
1000
0000
0010
0000
,
0100
0000
0001
0001
,
0000
0000
0001
0000
,
0100
0000
0100
0000
,
0001
0000
0100
0000
,
0010
0000
1000
1000
,
0000
0000
1000
0000
,
0100
0000
0100
0000
,
1000
0000
0002
0000
,
0003
0000
2000
0000
,
3000
0000
0020
0000
,
0030
0000
0100
0000
,
0020
0000
0000
0000
,
0000
0000
0000
0030
,
0000
0000
0000
0000
;
#NOTES:
     dance-single:
     :
     Medium:
     7:
     :
0000
0000
0000
0000
,
0000
0000
0000
0000
,
0000
0000
0000
0000
,
0001
1000
0001
0000
0200
0300
0020
0030
,
1000
0001
1000
0000
0200
0300
0020
0030
,
0001
0100
0001
0000
2000
3000
0200
0300
,
1000
0010
1000
0000
0002
0003
0200
0300
,
0020
0030
0020
0030
0020
0030
0020
0030
,
0020
0030
1000
0001
1000
0010
0010
0000
,
0200
0300
0001
0000
0100
0100
0100
0000
,
0010
0010
1000
0000
0001
0001
0001
0000
,
0010
0000
0010
0010
0100
0000
0100
0100
,
1000
0000
0001
0000
0100
0000
0100
0100
,
0001
0000
0010
0001
1000
0000
0010
1000
,
0001
0010
0001
0010
0100
1000
0200
0000
,
0320
0000
0031
1000
0200
0000
1300
0001
,
0200
0000
0301
1000
0100
0000
0010
0020
,
0000
0030
0001
0100
0002
0000
1003
0000
,
0001
0010
0100
0000
1000
0010
0100
0000
,
0020
0000
1030
0001
0020
0000
0031
1000
,
0020
0000
1030
0001
0200
0300
0200
0000
,
0301
0000
1000
0100
2000
0000
3001
0000
,
1000
0010
0100
0000
0001
0010
0100
0000
,
2000
0000
0100
0000
0001
0001
0010
0000
,
3002
0000
0100
0000
1000
1000
0010
0000
,
2003
0000
0100
0000
0001
0001
0010
0000
,
3002
0010
2003
3010
,
2020
0000
0000
3030
,
2002
0000
0000
3003
,
0202
0000
0000
0303
,
1000
0010
1000
0010
0100
0001
0200
0000
,
0320
1000
1030
0001
0200
0001
0301
1000
,
0200
1000
1300
0001
0100
0100
0010
0020
,
1000
0030
1000
0100
2000
0001
3001
0000
,
1000
0010
0100
0000
0001
0010
0100
0000
,
0020
0001
0031
1000
0020
1000
1030
0001
,
0020
0001
0031
1000
0200
1300
0200
1000
,
1300
0000
0001
0100
0002
0000
1003
0000
,
0001
0010
0100
0000
1000
0010
0100
0000
,
0002
0000
0100
0100
1000
1000
0010
0000
,
2003
0000
0100
0100
0001
0001
0010
0000
,
3002
0000
0100
0100
1000
1000
0010
0000
,
2003
0010
3002
0013
,
2002
0000
0000
0000
,
0003
0000
0000
3000
,
0000
0000
0000
0000
;
#NOTES:
     dance-single:
     :
     Hard:
     11:
     :
0000
0000
0000
0000
,
0000
0000
0000
0000
,
0000
0000
0000
0000
,
0002
0000
2003
0000
3001
0100
0001
0000
1000
0100
1000
0000
0020
0000
1030
0010
,
2000
0000
3002
0000
1003
0010
1000
0000
0001
0010
0001
0000
0200
0000
0310
0000
,
1000
0001
1000
0001
0100
0000
0002
0000
1003
0100
2000
0000
3200
0000
0310
0000
,
0001
1000
0001
1000
0100
0000
2000
0000
3001
0100
0001
0100
0002
0000
0003
1000
,
0020
0000
1030
0001
0020
0000
0031
1000
0020
0000
1030
0001
0020
0000
0031
1000
,
0020
0000
1030
0001
0010
0000
0010
0000
0100
0000
0100
0000
1000
0001
0000
0001
,
1000
0000
0200
0000
0310
0001
0010
0000
0001
0000
0001
0000
0200
0000
0310
0000
,
0100
0000
0001
1000
0000
1000
0001
0000
0100
0000
0010
0000
0200
0000
0300
0000
,
0002
0003
0001
0001
2000
3000
1000
1000
,
0020
0030
0010
0010
0200
0300
0100
0100
,
0001
1000
0001
0000
0010
0000
0010
0001
1000
0001
1000
0000
0010
0000
0010
1000
,
0001
0100
0001
0100
0001
0100
0001
0100
0010
1000
0010
1000
0020
0000
0030
0000
,
0200
0000
0300
0000
0001
0010
0001
0010
0200
0000
0300
0000
1000
0010
1000
0010
,
0200
0000
0300
0000
0001
0000
1000
0100
1000
0000
0001
0100
0001
0000
2000
0000
,
0001
0000
3000
0001
2000
0000
3010
1000
0020
0000
0030
1000
0000
0001
1000
0001
,
0100
0000
0010
0100
0002
0000
0003
1000
0100
0000
0010
0100
2000
0000
3000
0000
,
0020
0000
0030
0000
1000
0100
1000
0100
0020
0000
0030
0000
0001
0100
0001
0100
,
0020
0000
0030
0000
1000
0010
1000
0010
2000
0000
0000
0000
3002
0000
0000
0000
,
1003
0000
0000
1000
0002
0000
0023
0000
0230
0000
0300
1000
0001
0000
0001
1000
,
0010
0000
0100
0010
2000
0000
3000
0001
0010
0000
0100
0010
0002
0000
0003
0000
,
2000
0000
0010
0000
0100
0100
0100
3002
,
1000
0000
0010
0000
0100
0100
0100
2003
,
0001
0000
0010
0000
0100
0100
0100
3002
,
1000
0000
0010
0000
2003
0000
3010
0020
,
1000
2000
0000
0000
0000
0000
3030
0000
,
0220
0000
0000
0330
,
0202
0000
0000
0000
0000
0000
0000
0000
0000
0000
0000
0000
0303
0000
0000
0001
,
1000
0100
1000
0100
1000
0100
1000
0100
0010
0001
0010
0001
0020
0000
0030
0000
,
0200
0000
1300
0000
1000
0010
1000
0010
0200
0000
0301
0000
0001
0010
0001
0010
,
0200
0000
1300
0000
1000
0000
0001
0100
0001
0000
1000
0100
1000
0000
0002
0000
,
1003
0000
1000
0001
2000
0000
3010
1000
0020
0000
1030
0001
0000
1000
0001
1000
,
0100
0000
0010
0100
2000
3001
1000
0001
0100
0000
0010
0100
0002
1003
0001
0000
,
0020
0000
0031
0000
0001
0100
0001
0100
0020
0000
1030
0000
1000
0100
1000
0100
,
0020
0000
0031
0000
0001
0010
0001
0010
0002
0000
1000
0000
2003
0000
0001
0000
,
3001
0000
0000
0001
2000
0000
3020
0000
0230
0000
0300
0001
1000
0000
1000
0001
,
0010
0000
0100
0010
0002
0003
0001
1000
0010
0000
0100
0010
2000
3001
1000
0000
,
0002
0010
1000
1000
0100
0100
0100
2003
,
0001
0010
0001
0001
0100
0100
0100
3002
,
1000
0010
1000
1000
0100
0100
0100
2003
,
0001
0001
0010
0000
3002
0000
0023
0000
,
0100
0200
0000
0000
0000
0000
0000
0000
,
0030
0000
0000
0300
,
0000
0000
0000
0000
;
#NOTES:
     dance-single:
     :
     Challenge:
     13:
     :
0000
0000
0000
0000
,
0000
0000
0000
0000
,
0000
0000
0000
0000
,
0102
0000
2003
0000
3100
0010
0001
1000
0010
0100
1000
0100
0002
0000
0013
0100
,
2000
0000
3002
0000
0103
0010
1000
0001
0100
0001
0020
0000
0230
0000
2300
3000
,
1001
0000
0001
0000
1000
0000
0001
0000
0100
0000
0001
0000
0020
0000
0000
0000
0130
0000
1000
0000
0020
0000
0000
0000
0230
0000
0300
0000
0010
1000
0000
0010
,
1000
0001
0010
0100
0001
0100
0020
0000
0031
0100
0010
1000
0200
0000
0300
1000
,
1020
0000
0130
0001
0020
0000
0130
1000
0020
0000
0130
0001
0020
0000
0130
1000
,
0020
0000
0130
0001
1000
0100
0010
0100
1000
0001
0100
0001
0010
0100
0000
1000
,
1001
0000
0201
0000
0310
0100
0001
1000
0100
0010
1000
0010
0200
0000
1300
0001
,
0010
0100
1000
0020
0000
0031
0010
0100
0001
1000
0100
0010
0002
0000
0003
0000
,
0101
0001
1000
0100
2000
3000
2000
3000
0100
1000
0001
0100
0002
0003
0002
0003
,
0010
0001
1000
0010
0200
0000
0310
0100
0010
1000
0001
0010
0200
0300
0200
0300
,
1000
0010
0200
0000
0310
0000
0010
1000
0001
0010
0100
1000
0010
0000
0010
0100
,
0001
1000
0100
0010
0001
1000
0010
0100
1000
0100
0010
0200
0002
0000
0303
0000
,
2020
0000
3030
0000
0001
0100
0010
1000
2200
0000
3300
0000
1000
0100
0010
0001
,
0202
0000
0303
0000
1010
0000
0001
0100
0120
0000
1030
0001
0020
0000
0230
0000
,
2000
0000
3300
1000
0002
0000
0103
0010
2020
0000
3030
0002
0000
0013
0100
0001
,
0100
0000
1000
0010
0200
0000
0300
1000
0100
0000
0001
0010
0200
0000
0300
0000
,
0022
0000
0033
0000
1000
0100
0010
0001
0202
0000
0303
0000
0100
0001
1000
0100
,
0220
0000
0330
0000
0001
1000
0010
0100
0202
0000
0303
0000
2002
0000
3003
0000
,
2200
0000
3300
0001
1000
0001
0200
0300
0220
0000
0330
0100
0001
0010
0100
0001
,
0100
0000
1000
0010
0200
0000
0300
1000
0100
0000
0001
0010
0200
0000
0300
0000
,
1001
2000
3020
0032
2003
3200
0302
2003
,
0100
3002
0023
2030
3002
0203
2300
3002
,
0100
2003
3020
0032
2003
3200
0302
2003
,
3001
0100
0001
0000
0020
0001
0001
0000
0230
0000
0000
0000
2300
0000
3002
0000
,
0203
0020
0000
0000
0000
0000
0300
0000
,
2000
0000
0000
3030
,
2200
0000
0000
0000
0000
0000
0000
0000
0000
0000
0000
0000
3300
0000
0000
0100
,
1000
0001
0100
0010
1000
0001
0010
0100
0001
0100
0010
0200
2000
0000
3300
0000
,
0022
0003
0130
0000
1000
0100
0010
0001
0202
0003
0310
0000
0010
0100
0010
1000
,
2200
3000
0310
0000
0011
0000
1000
0100
0120
0000
0031
1000
0020
0000
0230
0000
,
0020
0030
0301
1000
0002
0000
0013
0100
0220
0030
1300
2000
0000
3010
0100
1000
,
0100
0000
0001
0010
0200
0310
0100
0001
0100
0000
1000
0010
0200
0310
0100
0000
,
2020
3000
0130
0000
0001
0100
0010
1000
2200
3000
0310
0000
0100
1000
0001
0100
,
0220
0300
1030
0000
1000
0001
0010
0100
2200
0300
3001
0000
0022
0030
1003
0000
,
0202
0000
0303
1000
0001
1000
0200
0300
0220
0000
0330
0001
1000
0010
0100
1000
,
0100
0000
0001
0010
0200
0300
0100
0001
0100
0000
1000
0010
0200
0310
0100
0000
,
1001
0000
0002
0000
0023
1000
2030
0000
3002
0100
0203
0000
2300
0001
3002
0000
,
0100
0000
2003
0000
3020
0001
0032
0000
2003
0100
3200
0000
0302
1000
2003
0000
,
0100
0000
3002
0000
0023
1000
2030
0000
3002
0100
0203
0000
2300
0001
3002
0000
,
1003
0000
0001
0000
0020
0001
0001
0000
0200
0000
0330
0000
2002
0000
3000
0000
,
0203
0020
0000
0000
0000
0000
0300
0000
,
0100
0100
2030
0000
0100
0100
3001
0000
,
0000
0000
0000
0000
;
#NOTES:
     dance-double:
     :
     Easy:
     2:
     :
00000000
00000000
00000000
00000000
,
00000000
00000000
00000000
00000000
,
00000000
00000000
00000000
00000000
,
00001000
00000000
00001000
00000000
,
00010000
00000000
00010000
00000000
,
00000010
00000000
00000010
00000000
,
00000010
00000000
00000000
00000000
,
00001000
00001000
00001000
00001000
,
00001000
00000000
00000000
00000000
,
00000001
00000001
00000001
00000000
,
00000100
00000100
00000100
00000000
,
00002000
00000000
00003000
00000000
,
00020000
00000000
00030000
00000000
,
00200000
00000000
00300000
00000000
,
10000000
10000000
10000000
00000000
,
00010000
00000000
00100000
00000000
,
00010000
00000000
01000000
01000000
,
00000000
00000000
00001000
00000000
,
00010000
00000000
00000010
00000000
,
00001000
00000000
00000001
00000000
,
00001000
00000000
00000100
00000100
,
00000000
00000000
00010000
00000000
,
00001000
00000000
00100000
00000000
,
00010000
00000000
20000000
00000000
,
30000000
00000000
02000000
00000000
,
03000000
00000000
00020000
00000000
,
00030000
00000000
00001000
00000000
,
00000020
00000000
00000000
00000000
,
00000000
00000000
00000000
00000030
,
00000000
00000000
00000000
00000000
,
00000001
00000001
00000001
00000000
,
00001000
00000000
00000010
00000000
,
00001000
00000000
00000100
00000100
,
00000000
00000000
00010000
00000000
,
00001000
00000000
00100000
00000000
,
00010000
00000000
10000000
00000000
,
00010000
00000000
01000000
01000000
,
00000000
00000000
00001000
00000000
,
00010000
00000000
00000010
00000000
,
00001000
00000000
00000002
00000000
,
00000003
00000000
00000200
00000000
,
00000300
00000000
00002000
00000000
,
00003000
00000000
00010000
00000000
,
00002000
00000000
00000000
00000000
,
00000000
00000000
00000000
00003000
,
00000000
00000000
00000000
00000000
;
#NOTES:
     dance-double:
     :
     Medium:
     7:
     :
00000000
00000000
00000000
00000000
,
00000000
00000000
00000000
00000000
,
00000000
00000000
00000000
00000000
,
00001000
00010000
00001000
00000000
00200000
00300000
00020000
00030000
,
10000000
00010000
10000000
00000000
02000000
03000000
00020000
00030000
,
00001000
00010000
00001000
00000000
00020000
00030000
00000020
00000030
,
00001000
00000001
00001000
00000000
00000002
00000003
00000200
00000300
,
00002000
00003000
00020000
00030000
00002000
00003000
00020000
00030000
,
00002000
00003000
00100000
00010000
10000000
00100000
00100000
00000000
,
02000000
03000000
00010000
00000000
01000000
01000000
01000000
00000000
,
00001000
00001000
00010000
00000000
00001000
00001000
00001000
00000000
,
00000010
00000000
00000001
00000001
00000001
00000000
00000100
00000100
,
00000100
00000000
00001000
00000000
00010000
00000000
00100000
00100000
,
00100000
00000000
10000000
00010000
10000000
00000000
00010000
10000000
,
01000000
00100000
00010000
00100000
00001000
00010000
00000020
00000000
,
00002030
00000000
00003001
00001000
00000200
00000000
00010300
00001000
,
02000000
00000000
03001000
00010000
00000100
00000000
00010000
00020000
,
00000000
00030000
00001000
00010000
00000200
00000000
00001300
00000000
,
00000001
00000100
00001000
00000000
00010000
00100000
10000000
00000000
,
00020000
00000000
10030000
00010000
00200000
00000000
00301000
00010000
,
00000020
00000000
00010030
00001000
00200000
00300000
00200000
00000000
,
00301000
00000000
00010000
00001000
02000000
00000000
03010000
00000000
,
10000000
01000000
00010000
00000000
00001000
00000010
00000001
00000000
,
00002000
00000100
00000001
00000010
,
00023000
01000000
10000000
00100000
,
00032000
00000100
00000001
00000010
,
00023000
01000000
20030000
30010000
,
00220000
00000000
00000000
00330000
,
20020000
00000000
00000000
30030000
,
22000000
00000000
00000000
33000000
,
01000000
00100000
00010000
00100000
00001000
00010000
00000020
00000000
,
00002030
00000001
00003001
00001000
00000200
00010000
00010300
00001000
,
02000000
00001000
03001000
00010000
00000100
00000100
00010000
00020000
,
00001000
00030000
00001000
00010000
00000200
00001000
00001300
00000000
,
00000001
00000100
00001000
00000000
00010000
00100000
10000000
00000000
,
00020000
10000000
10030000
00010000
00200000
00001000
00301000
00010000
,
00000020
00010000
00010030
00001000
00200000
00310000
00200000
00001000
,
00301000
00000000
00010000
00001000
02000000
00000000
03010000
00000000
,
10000000
01000000
00010000
00000000
00001000
00000010
00000001
00000000
,
00002000
00000000
00000100
00000000
00000001
00000001
00000010
00000000
,
00023000
00000000
01000000
00000000
10000000
10000000
00100000
00000000
,
00032000
00000000
00000100
00000000
00000001
00000001
00000010
00000000
,
00023000
01000000
00230000
00301000
,
00022000
00000000
00000000
00000000
,
00003000
00000000
00000000
00030000
,
00000000
00000000
00000000
00000000
;
#NOTES:
     dance-double:
     :
     Hard:
     11:
     :
00000000
00000000
00000000
00000000
,
00000000
00000000
00000000
00000000
,
00000000
00000000
00000000
00000000
,
00002000
00000000
00023000
00000000
00031000
00010000
00001000
00000000
01000000
00010000
01000000
00000000
00200000
00000000
10300000
00100000
,
20000000
00000000
30020000
00000000
00130000
00010000
00100000
00000000
00001000
00010000
00001000
00000000
00020000
00000000
00030010
00000000
,
00001000
00000001
00001000
00000001
00000100
00000000
00000020
00000000
00010030
00001000
00020000
00000000
00032000
00000000
00103000
00000000
,
00010000
10000000
00010000
10000000
01000000
00000000
00020000
00000000
00031000
00010000
00001000
00010000
00002000
00000000
00003000
00100000
,
00002000
00000000
00013000
00000010
00020000
00000000
00031000
00100000
00002000
00000000
00013000
00000010
00020000
00000000
00031000
00100000
,
00002000
00000000
00013000
00000010
00010000
00000000
00001000
00000000
00000010
00000000
00000001
00000000
00001000
00000001
00000000
00000001
,
00001000
00000000
00000200
00000000
00010300
00001000
00010000
00000000
00100000
00000000
01000000
00000000
02000000
00000000
03100000
00000000
,
10000000
00000000
00010000
10000000
00000000
10000000
00010000
00000000
01000000
00000000
00001000
00000000
00020000
00000000
00030000
00000000
,
00002000
00003000
00001000
00001000
00000020
00000030
00000010
00000010
,
00000002
00000003
00000001
00000001
00000200
00000300
00000100
00000100
,
00001000
00010000
00001000
00000000
00100000
00000000
00100000
00010000
10000000
00010000
10000000
00000000
00100000
00000000
00100000
10000000
,
00010000
01000000
00010000
01000000
00010000
01000000
00010000
01000000
00001000
00010000
00001000
00010000
00002000
00000000
00003000
00000000
,
00200000
00000000
00300000
00000000
00001000
00010000
00001000
00010000
00000200
00000000
00000300
00000000
00010000
00001000
00010000
00001000
,
02000000
00000000
03000000
00000000
00001000
00000000
00010000
00000100
00010000
00000000
00000100
00001000
00000100
00000000
00002000
00000000
,
00000001
00000000
00003000
00000001
00000200
00000000
00001300
00000100
00002000
00000000
00003000
00010000
00000000
00001000
00010000
00001000
,
01000000
00000000
00010000
00100000
00002000
00000000
00003000
00010000
00000100
00000000
00001000
00000010
00020000
00000000
00030000
00000000
,
00000200
00000000
00000300
00000000
00010000
00001000
00010000
00001000
00200000
00000000
00300000
00000000
00001000
00010000
00001000
00010000
,
00000020
00000000
00000030
00000000
00010000
00001000
00010000
00001000
00200000
00000000
00000000
00000000
00320000
00000000
00000000
00000000
,
10030000
00000000
00000000
10000000
02000000
00000000
03020000
00000000
00032000
00000000
00003000
00010000
00001000
00000000
00010000
00001000
,
01000000
00000000
00010000
00100000
00002000
00000000
00003000
00010000
00000100
00000000
00001000
00000010
00020000
00000000
00030010
00000000
,
00002000
00000000
00000100
00000000
00000001
00000001
00000010
00000000
,
00023000
00000000
01000000
00000000
10000000
10000000
00100000
00000000
,
00032000
00000000
00000100
00000000
00000001
00000001
00000010
00000000
,
00023000
00000000
02030000
00000000
03002000
00000000
00013000
00020000
,
00001000
00002000
00000000
00000000
00000000
00000000
00033000
00000000
,
02020000
00000000
00000000
03030000
,
22000000
00000000
00000000
00000000
00000000
00000000
00000000
00000000
00000000
00000000
00000000
00000000
33000000
00000000
00000000
10000000
,
00010000
01000000
00010000
01000000
00010000
01000000
00010000
01000000
00001000
00010000
00001000
00010000
00002000
00000000
00003000
00000000
,
00200000
00000000
00301000
00000000
00001000
00010000
00001000
00010000
00000200
00000000
00010300
00000000
00010000
00001000
00010000
00001000
,
02000000
00000000
03001000
00000000
00001000
00000000
00010000
00000100
00010000
00000000
00000100
00001000
00000100
00000000
00002000
00000000
,
00003001
00000000
00000001
00001000
00000200
00000000
00001300
00000100
00002000
00000000
00003100
00010000
00000000
00001000
00010000
00001000
,
01000000
00000000
00010000
00100000
00002000
00013000
00001000
00010000
00000100
00000000
00001000
00000010
00020000
00031000
00010000
00000000
,
00000200
00000000
00010300
00000000
00010000
00001000
00010000
00001000
00200000
00000000
00301000
00000000
00001000
00010000
00001000
00010000
,
00000020
00000000
00010030
00000000
00010000
00001000
00010000
00001000
00200000
00000000
00010000
00000000
00320000
00000000
10000000
00000000
,
10030000
00000000
00000000
10000000
02000000
00000000
03020000
00000000
00032000
00000000
00003000
00010000
00001000
00000000
00010000
00001000
,
01000000
00000000
00010000
00100000
00002000
00003000
00001000
00010000
00000100
00000000
00001000
00000010
00020000
00031000
00010000
00000100
,
00002000
00000100
00000100
00000001
00000001
00000010
00000010
00010000
,
00023000
01000000
01000000
10000000
10000000
00100000
00100000
00001000
,
00032000
00000100
00000100
00000001
00000001
00000010
00000010
00010000
,
00023000
01000000
02030000
00000000
03002000
00000000
00023000
00000000
,
00000010
00000020
00000000
00000000
00000000
00000000
00030000
00000000
,
00000000
00000000
00000000
00000030
,
00000000
00000000
00000000
00000000
;
#NOTES:
     dance-double:
     :
     Challenge:
     14:
     :
00000000
00000000
00000000
00000000
,
00000000
00000000
00000000
00000000
,
00000000
00000000
00000000
00000000
,
00021000
00000000
00030020
00000000
00001030
00000010
00000100
00000001
00001000
00000100
00001000
00000100
00020000
00000000
00031000
00010000
,
00002000
00000000
00203000
00000000
00310000
00100000
01000000
10000000
00100000
01000000
00020000
00000000
02030000
00000000
03002000
00003000
,
00010000
00000000
00001000
00000000
00010000
00000000
00001000
00000000
00000010
00000000
00001000
00000000
00000020
00000000
00000000
00000000
00000031
00000000
00001000
00000000
00000020
00000000
00000000
00000000
00020030
00000000
00030000
00000000
00001000
00010000
00000000
00001000
,
00010000
00001000
00010000
00100000
10000000
00010000
00200000
00000000
00310000
00100000
01000000
00010000
00002000
00000000
00003000
00010000
,
00000020
00000000
00010030
00001000
00200000
00000000
00301000
00010000
00000200
00000000
00010300
00001000
02000000
00000000
03001000
00010000
,
00000020
00000000
00010030
00001000
00100000
00010000
00100000
01000000
10000000
00100000
01000000
00100000
00010000
00001000
00000000
00010000
,
00000100
00000000
00001200
00000000
00000310
00000001
00000010
00000100
00000010
00001000
00000010
00001000
00020000
00000000
00031000
00010000
,
00100000
00010000
00100000
02000000
00000000
03010000
01000000
00100000
10000000
01000000
00100000
01000000
00020000
00000000
00030000
00000000
,
00001000
00000010
00001000
00000010
00000002
00000003
00000002
00000003
00000100
00001000
00000100
00001000
00020000
00030000
00020000
00030000
,
00001000
00010000
00001000
00010000
00200000
00000000
10300000
01000000
00010000
00001000
00010000
00001000
00000020
00000030
00000020
00000030
,
00000001
00000010
00000200
00000000
00000310
00000000
00000010
00001000
00010000
00100000
01000000
00010000
00100000
00000000
00100000
00010000
,
10000000
01000000
00100000
00010000
01000000
00100000
00010000
00001000
00100000
00010000
00001000
00000100
00000020
00000000
00000030
00000000
,
00000022
00000000
00000033
00000000
00001000
00000010
00000100
00001000
00020000
00000000
00030000
00000000
00001000
00010000
00100000
10000000
,
02000000
00000000
03000000
00000000
00110000
00000000
10000000
00100000
00020000
00000000
00031000
00000010
00000002
00000000
00000203
00000000
,
00000020
00000000
00000330
00000001
00000200
00000000
00001300
00010000
00002000
00000000
00003000
02000000
00000000
03010000
10000000
00100000
,
00010000
00000000
00001000
00000010
00000002
00000000
00000003
00000100
00001000
00000000
00010000
01000000
20000000
00000000
30000000
00000000
,
20200000
00000000
30300000
00000000
00010000
01000000
00100000
00010000
00002000
00000000
00003000
00000000
00010000
00001000
00000100
00000001
,
00000020
00000000
00000030
00000000
00000001
00000100
00000010
00020000
00002000
00000000
00033000
00000000
02020000
00000000
03030000
00000000
,
22000000
00000000
33000000
00010000
10000000
01000000
00020000
00000000
00032000
00000000
00003000
00000100
00000001
00001000
00000001
00000010
,
00001000
00000000
00010000
00100000
20000000
00000000
30000000
01000000
00010000
00000000
00001000
00000100
00000002
00000000
00000003
00000000
,
00002000
00000100
00000001
00000010
00023000
01000000
10000000
00100000
,
00032000
00000100
00000001
00000010
00023000
01000000
10000000
00100000
,
00032000
00000100
00000001
00000010
00023000
01000000
10000000
00100000
,
00032000
00000000
00000100
00000000
00003002
00001000
00001000
00000000
00000203
00000000
00000000
00000000
00002300
00000000
00023000
00000000
,
02030000
20000000
00000000
00000000
00000000
00000000
03000000
00000000
,
00200000
00000000
00000000
30300000
,
02200000
00000000
00000000
00000000
00000000
00000000
00000000
00000000
00000000
00000000
00000000
00000000
03300000
00000000
00000000
00010000
,
10000000
01000000
00100000
00010000
01000000
00100000
00010000
00001000
00100000
00010000
00001000
00000100
00000020
00000000
00000030
00000000
,
00000012
00000000
00001003
00000000
00001000
00000010
00000100
00001000
00020000
00000000
00031000
00000000
00001000
00010000
00100000
10000000
,
02000000
00000000
03100000
00000000
10010000
00000000
10000000
00100000
00020000
00000000
00031000
00000010
00000002
00000000
00000203
00000000
,
00000320
00000000
00000130
00000001
00000200
00000000
00001300
00010000
00002000
00000000
01003000
02000000
00000000
03010000
10000000
00100000
,
00010000
00000000
00001000
00000010
00000002
00001003
00000001
00000100
00001000
00000000
00010000
01000000
20000000
30010000
10000000
00000000
,
20100000
00000000
30010000
00000000
00010000
01000000
00100000
00010000
00002000
00000000
00013000
00000000
00010000
00001000
00000100
00000001
,
00000020
00000000
00000031
00000000
00000001
00000100
00000010
00020000
00001000
00000000
00031000
00000000
01020000
00000000
01030000
00000000
,
22000000
00000000
33000000
00010000
10000000
01000000
00020000
00000000
00032000
00000000
00003000
00000100
00000001
00001000
00000001
00000010
,
00001000
00000000
00010000
00100000
20000000
30000000
10000000
01000000
00010000
00000000
00001000
00000100
00000002
00001003
00000001
00000000
,
00002000
00000000
00000100
00000000
00003001
00002000
00000010
00000000
00013000
00020000
01000000
00000000
10030000
00020000
00100000
00000000
,
00032000
00000000
00000100
00000000
00003001
00002000
00000010
00000000
00013000
00020000
01000000
00000000
10030000
00020000
00100000
00000000
,
00032000
00000000
00000100
00000000
00003001
00002000
00000010
00000000
00013000
00020000
01000000
00000000
10030000
00020000
00100000
00000000
,
00032000
00000000
00000100
00000000
00003002
00000100
00000100
00000000
00002003
00000000
00000000
00000000
00000020
00000000
00003000
00000000
,
00020030
00002000
00000000
00000000
00000000
00000000
00030000
00000000
,
01000000
01000000
00023000
00000000
00000100
00000100
00031000
00000000
,
00000000
00000000
00000000
00000000
;
