
//----- song ID: akao2 -----//
#TITLE:朱と碧のランページ;
#ARTIST:covered by 儒烏風亭らでん(ReGLOSS);
#TITLETRANSLIT:Aka to ao no rampage;
#ARTISTTRANSLIT:covered by Juufuutei Raden (ReGLOSS);
#BANNER:Aka to ao no rampage (cover).png;
#BACKGROUND:Aka to ao no rampage (cover)-bg.png;
#CDTITLE:./CDTitles/DDR WORLD.png;
#MUSIC:Aka to ao no rampage (cover).ogg;
#SAMPLESTART:53.251;
#SAMPLELENGTH:15;
#BPMS:0=178;
#BGSTAGE:14;
#NOTES:
     dance-single:
     :
     Beginner:
     2:
     :
0000
0000
0000
0000
,
0000
0000
0000
0000
,
0000
0000
0000
0000
,
0000
0000
0000
0000
,
1001
0000
0000
0000
,
0000
0000
0000
0000
,
0110
0000
0000
0000
,
0000
0000
0000
0000
,
0001
0000
0000
0000
,
0000
0000
0000
0000
,
1000
0000
0000
0000
,
0000
0000
0000
0000
,
0010
0000
0000
0000
,
0000
0000
0000
0000
,
0010
0000
0000
0000
,
0000
0000
0000
0000
,
1000
0000
0000
0000
,
1000
0000
0000
0000
,
0001
0000
0000
0000
,
0001
0000
0000
0000
,
0100
0000
0000
0000
,
0100
0000
0000
0000
,
0010
0000
0000
0000
,
0010
0000
0000
0000
,
1000
0000
0000
0000
,
0001
0000
0000
0000
,
0010
0000
0000
0000
,
0001
0000
0000
0000
,
1000
0000
0000
0000
,
0001
0000
0000
0000
,
1001
0000
0000
0000
,
0000
0000
0000
0000
,
1000
0000
0000
0000
,
0010
0000
0000
0000
,
1000
0000
0000
0000
,
0001
0000
0000
0000
,
0100
0000
0000
0000
,
0010
0000
0000
0000
,
0110
0000
0000
0000
,
0000
0000
0000
0000
,
0001
0000
0000
0000
,
0100
0000
0000
0000
,
0001
0000
0000
0000
,
0010
0000
0000
0000
,
0100
0000
0000
0000
,
1000
0000
0000
0000
,
0010
0000
0000
0000
,
1000
0000
0000
0000
,
1001
0000
0000
0000
,
0001
0000
0000
0000
,
0100
0000
0000
0000
,
0110
0000
0000
0000
,
1001
0000
0000
0000
,
1000
0000
0000
0000
,
0010
0000
0000
0000
,
0200
0000
0300
0000
,
1001
0000
0000
0000
,
0000
0000
0000
0000
,
0110
0000
0000
0000
,
0000
0000
0000
0000
,
1000
0000
0000
0000
,
0100
0000
0000
0000
,
0010
0000
0000
0000
,
0001
0000
0000
0000
,
0100
0000
0000
0000
,
0010
0000
0000
0000
,
0110
0000
0000
0000
,
0000
0000
0000
0000
,
2002
0000
0000
0000
,
0000
0000
0000
0000
,
3003
0000
0000
0000
,
0000
0000
0000
0000
,
0001
0000
0000
0000
,
0001
0000
0000
0000
,
1000
0000
0000
0000
,
1000
0000
0000
0000
,
0001
0000
0000
0000
,
0010
0000
0000
0000
,
0100
0000
0000
0000
,
1000
0000
0000
0000
,
0010
0000
0000
0000
,
0100
0000
0000
0000
,
0001
0000
0000
0000
,
1000
0000
0000
0000
,
1001
0000
0000
0000
,
0000
0000
0000
0000
,
0110
0000
0000
0000
,
0000
0000
0000
0000
,
1001
0000
0000
0000
,
0000
0000
0020
0000
,
0000
0000
0000
0000
,
0000
0000
0000
0000
0000
0000
0000
0030
,
0000
0000
0000
0000
;
#NOTES:
     dance-single:
     :
     Easy:
     8:
     :
0000
0000
0000
0000
,
0000
0000
0000
0000
,
0000
0000
0000
0000
,
0000
0000
0000
0000
,
0001
0000
0000
0001
0000
0000
0001
0000
,
0000
0001
0000
0000
0100
0000
0010
0000
,
1000
0000
0000
1000
0000
0000
1000
0000
,
0000
1000
0000
0000
0100
0000
0010
0000
,
0002
0000
0000
0003
,
2000
0000
0000
3000
,
0020
0000
0000
0030
,
0000
0000
0000
0000
,
2000
0000
0000
3000
,
0200
0000
0000
0300
,
0020
0000
0000
0030
,
0002
0000
0000
0003
,
1000
0010
1000
0010
,
0100
0001
1000
0100
,
0010
0001
0010
0001
,
1000
0010
0100
0001
,
1000
0100
1000
0100
,
0010
0001
1000
0010
,
0100
0000
0000
0001
0000
0001
0000
1000
,
0000
1000
0000
0000
0000
0000
0000
0000
,
0010
0100
0001
0010
,
0100
1000
1000
0001
,
0100
0010
1000
0001
,
0010
0001
0001
0100
,
0010
1000
0001
0010
,
0100
1000
1000
0010
,
0100
0000
0000
0001
0000
1000
0000
0001
,
0000
0000
0100
0000
,
0010
0010
1000
0001
,
0010
0100
1000
0001
,
0100
0100
0001
1000
,
0100
1000
0010
0100
,
0001
0001
0001
0000
,
1000
1000
1000
0000
,
0001
0000
0000
0010
0000
0000
0100
0000
,
0000
1000
0000
0000
0000
0000
0000
0000
,
1001
0001
0100
0010
,
0100
0001
1000
0100
,
1000
0010
0100
0001
,
0010
0001
1000
0000
,
1000
0100
0001
0000
,
0001
0100
1000
0000
,
1000
0010
0100
0001
,
1000
1000
0001
0001
,
0100
0010
0100
0001
,
1000
0100
1000
0010
,
0110
0000
1001
0000
,
0010
0000
0000
0010
0000
0000
0010
0000
0100
0000
0000
0000
0000
0000
0000
0000
,
0110
0000
0001
1000
,
0010
1000
0100
0010
,
0100
1000
0010
0100
,
0002
0000
2000
3003
,
0011
0000
0000
1100
0000
0000
0000
1000
,
0000
0001
0000
0100
0000
0000
0010
0000
,
1010
0000
0000
1000
0000
0100
0000
0020
,
0000
0000
0000
0030
,
0011
0001
1000
0010
,
0100
0001
0010
0001
,
1001
0100
1001
0010
,
1001
0100
1001
0000
,
0001
0010
0100
0010
,
0001
1000
0010
0100
,
0001
0000
0000
0010
0000
0000
0100
0000
,
0000
1000
0000
0000
0000
0000
0000
0000
,
1020
0000
0000
0030
,
0200
0000
0000
0300
,
0002
0003
2000
3000
,
0002
0003
0020
0030
,
0001
0001
1000
1000
,
0010
0010
1000
1000
,
0001
0001
0100
0100
,
0110
0000
0000
0000
,
1001
1000
0010
0100
,
0001
0010
0001
0100
,
0110
0000
1001
0000
,
0100
0000
0000
0100
0000
0000
0100
0000
0010
0000
0000
0000
0000
0000
0000
0000
,
0110
0000
1000
0001
,
0011
0010
0100
1000
,
1010
0010
0100
0001
,
2000
0000
0002
3003
,
0101
0000
0000
1010
0000
0000
0000
1000
,
0000
0001
0000
0010
0000
0000
0100
0000
,
1100
0000
0000
1000
0000
0010
0000
0200
,
0000
0000
0000
0300
,
0001
0000
0000
1000
0000
0000
0100
0000
,
0000
0010
0000
0000
0001
0001
0000
0200
,
0000
0000
0000
0000
,
0000
0000
0000
0000
0000
0000
0000
0300
,
0000
0000
0000
0000
;
#NOTES:
     dance-single:
     :
     Medium:
     11:
     :
0000
0000
0000
0000
,
0000
0000
0000
0000
,
0000
0000
0000
0000
,
0000
0000
0000
0000
,
0001
0100
0000
0001
0010
0000
0001
0100
,
0000
0001
0010
0000
0100
0000
1100
0000
,
1000
0010
0000
1000
0100
0000
1000
0010
,
0000
1000
0100
0000
0010
0000
0011
0000
,
2001
0000
0000
0000
,
3020
0000
0000
0000
,
0230
0000
0000
0000
,
0302
0000
0000
0000
,
2003
0000
0000
0000
,
3200
0000
0000
0000
,
0320
0000
0000
0000
,
0032
0000
0000
0000
,
1003
0010
0100
0001
,
0010
0001
1000
0010
,
0100
0000
0001
1000
0001
0000
0010
0000
,
0100
1000
0001
0100
,
0001
1000
0100
1000
,
0010
0100
0001
0010
,
0011
0000
0001
0100
0000
0010
1000
0001
,
0000
0011
0000
0000
0000
0000
0000
0000
,
0010
0000
0100
0000
1000
0001
0100
0000
,
0010
1000
0001
0000
0010
0000
0100
0000
,
1000
0000
0010
0000
0100
0001
1000
0000
,
0010
1000
0001
0000
0010
0000
0100
0000
,
1000
0000
0010
0000
0100
0001
1000
0000
,
0001
1000
0100
0000
1000
0000
0010
0000
,
0100
0000
0000
0101
0000
0011
0000
1100
,
0000
1000
0000
0010
0000
1000
0001
1000
,
0010
0000
0100
0000
0001
1000
0010
0000
,
0100
0001
1000
0000
0100
0000
1000
0000
,
0010
0000
0100
0000
0001
1000
0100
0000
,
0010
0001
1000
0000
0010
0000
0100
0000
,
0001
1000
0100
1000
,
0001
0010
0001
1000
,
1001
0000
0000
0011
0000
0000
1100
0000
,
0000
1001
0000
0000
0000
0000
0000
0000
,
0110
0000
0001
0000
1000
0000
0010
0100
,
0001
0000
0010
0001
0100
0000
0010
0100
,
0001
0000
0000
0000
1000
0000
0000
0000
0010
0000
0000
0100
0000
0000
0001
0000
,
2000
0010
3001
0011
,
1000
0000
0000
0001
0000
0000
0100
0000
0010
0000
0000
0000
0000
0000
0000
0000
,
0100
0000
0000
0001
0000
0000
1000
0000
0100
0000
0000
0000
0000
0000
0000
0000
,
1000
0000
0000
1000
0000
0000
1000
0000
0001
0000
0000
0000
0100
0000
0000
0000
,
0010
0110
0001
1000
,
0010
0000
0100
0001
0010
0000
0001
0000
,
1000
0000
0000
1000
0000
0000
1000
0000
0001
0000
0000
0001
0000
0000
0001
0000
,
0100
1010
0001
0101
,
0100
0000
0000
0010
0000
0000
1000
0000
0001
0000
0000
0010
0000
0000
0100
0000
,
1000
0000
0001
0000
0100
0010
0100
0000
,
0001
0000
1000
0000
0010
0100
0010
0000
,
1000
1100
0001
0101
,
0200
0000
0020
0330
,
0001
0010
0001
0010
0000
1100
0000
0010
,
0000
0011
0000
1001
0000
1000
0010
0000
,
0100
0001
0100
0001
0000
0011
0000
2002
,
0000
0000
0000
3003
,
0001
0000
1000
0000
0001
0010
0100
0000
,
1000
0000
0001
0000
1000
0010
0100
0000
,
0001
0010
0100
0010
0001
0010
0100
0010
,
0001
0000
1000
0010
0200
0000
0300
0000
,
0001
0000
0010
0001
0000
0001
0100
0000
,
0010
1000
0001
0100
,
0110
0000
0000
1010
0000
0000
1001
0000
,
0000
0110
0000
0000
0000
0000
0000
0000
,
1002
0000
0000
0000
,
2003
0000
0000
0000
,
3020
0000
0000
0000
,
0230
0000
0000
0000
,
0301
0001
1000
1000
,
0100
0100
0010
0010
,
0001
1000
0001
1000
0010
0100
0010
0100
,
0001
0000
0001
1000
,
0100
0000
0010
0001
0100
0000
0001
0000
,
1000
0000
0000
1000
0000
0000
1000
0000
0001
0000
0000
0001
0000
0000
0001
0000
,
0010
1100
0001
0011
,
0010
0000
0000
0100
0000
0000
1000
0000
0001
0000
0000
0100
0000
0000
0010
0000
,
1000
0000
0001
0000
0010
0100
0010
0000
,
0001
0000
1000
0000
0100
0010
0100
0000
,
1000
1010
0001
0101
,
0200
0000
0020
0330
,
0001
0100
0001
0100
0000
1010
0000
0100
,
0000
0101
0000
1001
0000
1000
0100
0000
,
0010
0001
0010
0001
0000
0101
0000
2002
,
0000
0000
0000
3003
,
0001
0010
0000
0100
1000
0000
0010
0100
,
0000
0001
1000
0000
0100
0010
0000
0002
,
0000
0000
0000
0000
,
0000
0000
0000
0000
0000
0000
0000
0003
,
0000
0000
0000
0000
;
#NOTES:
     dance-single:
     :
     Hard:
     15:
     :
0000
0000
0000
0000
,
0000
0000
0000
0000
,
0000
0000
0000
0000
,
0000
0000
0000
0000
,
0001
0100
0001
1000
0100
1000
0001
0100
,
0001
1000
0100
1000
0010
0100
0001
1000
,
0001
0010
0001
1000
0010
1000
0001
0010
,
0001
0000
1000
0000
0010
0000
1000
0000
0001
0000
0010
0000
0100
0000
1000
0100
,
2000
0000
0000
3000
0000
0001
0100
0001
,
0200
0300
0010
1000
,
0001
0000
0010
0200
0000
0000
0000
0000
,
0300
0000
0000
0000
0000
1000
0100
1000
,
0200
0000
0000
0300
0000
0010
0001
0010
,
0100
0000
0000
1000
0000
0000
0010
0000
,
0100
0000
0001
0010
0000
0000
0001
0000
,
1000
0001
0001
0100
0100
0010
0010
0000
,
1000
0100
1000
0100
1000
0100
0010
0001
,
1000
0010
1000
0010
0100
0001
1000
0100
,
1000
0010
0100
0001
0010
0001
0010
0001
,
0010
0100
0010
0100
0010
0100
1000
0001
,
0100
0010
0100
0010
0100
0010
1000
0100
,
0010
0001
1000
0001
0100
0010
0100
0001
,
1000
0000
0100
1000
0100
0000
1000
0000
0001
0000
0100
0000
0000
0000
0010
0000
,
0000
0110
0000
0010
1000
0001
0010
0100
,
0001
0100
1000
0010
0000
0100
0000
0001
,
0000
0010
0000
0001
1000
0100
0010
1000
,
0010
0000
0001
1000
0000
0001
0100
0010
,
0000
1000
0000
0010
0100
0001
1000
0100
,
0010
0000
0001
0010
0001
0100
0001
1000
,
0000
0100
0000
1000
0010
0000
0100
0000
,
1000
0100
0001
0010
0000
1000
0000
0010
,
0000
0001
0000
0100
1000
0100
0001
0010
,
0100
0000
1000
0001
0000
0100
0010
0001
,
0000
0010
0000
1000
0001
0010
0001
0000
,
1000
0000
0010
0100
0000
0001
0010
0100
,
0000
0010
0001
0000
1000
0000
0010
0000
,
0100
0001
0100
0001
0000
0010
0000
0100
,
0000
1000
0010
0000
0110
0000
0101
0000
,
0001
0000
1000
0001
1000
0000
0010
0000
1000
0010
1000
0000
0001
0000
0010
0001
,
0010
0100
0000
0000
1100
0000
0101
0000
,
0001
0000
0010
0001
0010
0000
0100
0000
1000
0000
0000
0010
0000
0000
0100
0000
,
1000
0000
0100
0000
0001
0000
0010
0000
1000
0000
0000
0000
0010
0000
0001
0010
,
0100
0010
0001
1000
0010
0100
0001
1000
,
0100
1000
0100
1000
0001
0100
0001
0100
,
0001
0000
1000
0100
0000
0010
0001
0000
1000
0000
0010
0100
0010
0000
1000
0000
,
0001
0000
1000
0010
0000
0100
0001
0000
1000
0000
0100
0010
0100
0000
1000
0000
,
0001
0100
0010
0100
0001
0000
1000
0000
,
0001
0000
0001
0000
1000
0000
1000
0000
0001
1000
0001
1000
0001
0000
0000
0000
,
1000
0010
0100
0001
1000
0100
1000
0001
,
0100
0000
0010
0100
0000
0000
0100
0000
0001
0000
0010
0001
0000
0000
1000
0100
,
1000
0001
0010
0001
1000
0010
0100
0000
,
0102
0000
0000
1000
0000
0000
0013
0000
2100
0000
0000
0001
0000
0000
3010
0000
,
0010
0000
0000
0100
0000
0000
0001
0000
0010
0001
0010
0000
0100
0000
1100
0000
,
0000
0000
1000
0000
0010
0000
0100
0000
0001
1000
0001
0000
0000
0000
0000
0000
,
0010
0000
0000
0001
0000
0000
0100
0000
0010
0000
0000
0000
1000
0000
0000
0000
,
0001
0010
0001
0000
1000
0100
1000
0000
0001
0010
0001
0000
0100
0010
0100
0000
,
0001
1000
0100
0010
0010
0100
1000
1010
,
0000
0000
0101
0000
0000
0000
0011
0000
0000
0000
0001
0010
0100
0000
1000
0000
,
0010
0100
0001
1001
0000
0110
0000
2002
,
0000
0000
0000
3003
,
0001
0000
0010
0001
0010
0000
0100
0000
1000
0010
0000
0010
0100
0000
0001
0000
,
1000
0100
1000
0000
0100
0000
0010
0001
0010
0000
0100
0000
1000
0100
1000
0000
,
0001
0010
0001
0000
1000
0100
1000
0000
0001
0010
0001
0000
1000
0100
1000
0000
,
0010
0100
0010
0000
1000
0001
1000
0000
0020
0000
0000
0000
0030
0000
0000
0000
,
1000
0100
0010
0001
0000
1000
0010
0100
,
0000
0001
1000
0000
0100
0000
1000
0000
,
1001
0001
0100
0110
0010
1000
1001
0001
,
0100
0110
0000
0000
0000
0000
0000
0000
,
1002
0000
0000
0000
,
0023
0000
0000
0000
,
0032
0000
2003
0000
,
3020
0000
0230
0000
,
0301
1000
0010
0100
,
0001
1000
0100
0010
,
0001
0000
0010
0000
0001
0000
0010
0000
0100
0000
1000
0000
0001
0000
0100
0010
,
0100
0000
0001
1000
,
0001
0010
0100
1000
0001
0100
0001
1000
,
0100
0000
0010
0100
0000
0000
0100
0000
1000
0000
0010
1000
0000
0000
0001
0010
,
0100
1000
0010
1000
0001
0010
0100
0000
,
2100
0000
0000
0001
0000
0000
3010
0000
0102
0000
0000
1000
0000
0000
0013
0000
,
0010
0000
0000
0100
0000
0000
1000
0000
0010
1000
0010
0000
0100
0000
0101
0000
,
0000
0000
0001
0000
0010
0000
0100
0000
1000
0001
1000
0000
0010
0000
0100
0000
,
0001
0000
0000
1000
0000
0000
0100
0000
0010
0000
0000
0000
0001
0000
0000
0000
,
1000
0010
1000
0000
0001
0100
0001
0000
1000
0100
1000
0000
0100
0010
0001
0000
,
1000
0001
0100
0010
0010
0100
0001
0011
,
0000
0000
1100
0000
0000
0000
1010
0000
0000
0000
1000
0010
0100
0000
0001
0000
,
0010
0100
1000
1001
0000
0110
0000
2002
,
0000
0000
0000
3003
,
1000
0000
0001
0010
0001
0000
0100
0000
0001
0010
0001
0000
1000
0000
0001
0010
,
0001
0000
0100
0000
0001
0010
0001
0000
1000
0000
1001
0000
0000
0000
0020
0000
,
0000
0000
0000
0000
,
0000
0000
0000
0000
0000
0000
0000
0030
,
0000
0000
0000
0000
;
#NOTES:
     dance-double:
     :
     Easy:
     8:
     :
00000000
00000000
00000000
00000000
,
00000000
00000000
00000000
00000000
,
00000000
00000000
00000000
00000000
,
00000000
00000000
00000000
00000000
,
00001000
00000000
00000000
00001000
00000000
00000000
00001000
00000000
,
00000000
00001000
00000000
00000000
00010000
00000000
00001000
00000000
,
00010000
00000000
00000000
00010000
00000000
00000000
00010000
00000000
,
00000000
00010000
00000000
00000000
00001000
00000000
00010000
00000000
,
00000200
00000000
00000000
00000300
,
00000020
00000000
00000000
00000030
,
00000002
00000000
00000000
00000003
,
00000000
00000000
00000000
00000000
,
00002000
00000000
00000000
00003000
,
00000020
00000000
00000000
00000030
,
00020000
00000000
00000000
00030000
,
00002000
00000000
00000000
00003000
,
00100000
00010000
00100000
00010000
,
01000000
00100000
10000000
01000000
,
00100000
00010000
00100000
00010000
,
01000000
00001000
00010000
00000100
,
00001000
00000010
00001000
00000010
,
00000100
00000001
00001000
00000100
,
00010000
00000000
00000000
00001000
00000000
00001000
00000000
00010000
,
00000000
00010000
00000000
00000000
00000000
00000000
00000000
00000000
,
00001000
00010000
00001000
00010000
,
00100000
10000000
00100000
10000000
,
01000000
00010000
01000000
00010000
,
00001000
00000010
00001000
00000010
,
00000001
00000100
00000001
00000100
,
00001000
00010000
00001000
00010000
,
01000000
00000000
00000000
10000000
00000000
10000000
00000000
10000000
,
00000000
00000000
00100000
00000000
,
10000000
01000000
10000000
01000000
,
00010000
00001000
00010000
00001000
,
00000100
00000001
00000100
00000001
,
00000010
00000100
00000010
00000100
,
00001000
00001000
00001000
00000000
,
00000001
00000001
00000001
00000000
,
00000100
00000000
00000000
00000010
00000000
00000000
00001000
00000000
,
00000000
00000100
00000000
00000000
00000000
00000000
00000000
00000000
,
00011000
00001000
01000000
00100000
,
10000000
00100000
00010000
00001000
,
00010000
00010000
00000100
00000100
,
00001000
00000010
00000100
00000000
,
00000001
00000100
00001000
00000000
,
00010000
00100000
10000000
00000000
,
10000000
01000000
00100000
00001000
,
00010000
00010000
00001000
00001000
,
00010000
00000100
00000010
00001000
,
00010000
00001000
00000100
00000001
,
00000011
00000000
00001001
00000000
,
00000010
00000000
00000000
00000010
00000000
00000000
00000010
00000000
00000100
00000000
00000000
00000000
00000000
00000000
00000000
00000000
,
00000110
00000001
00001000
00000010
,
00010000
00001000
01000000
00010000
,
10000000
00000000
01000000
00000000
,
00200000
00000000
00020000
00330000
,
00110000
00000000
00000000
00101000
00000000
00000000
00000000
00001000
,
00000000
00010000
00000000
01000000
00000000
00000000
00010000
00000000
,
00011000
00000000
00000000
00001000
00000000
00000100
00000000
00000020
,
00000000
00000000
00000000
00000030
,
00001000
00000001
00000100
00001000
,
00010000
00100000
00010000
00001000
,
00010000
01000000
00010000
00001000
,
00000100
00001000
00010000
00000000
,
00001000
01000000
00010000
00100000
,
01000000
10000000
00010000
01000000
,
00100000
00000000
00000000
00010000
00000000
00000000
00001000
00000000
,
00000000
00000100
00000000
00000000
00000000
00000000
00000000
00000000
,
00012000
00000000
00000000
00003000
,
00020000
00000000
00000000
00030000
,
00000020
00000030
00000200
00000300
,
00000002
00000003
00002000
00003000
,
00000001
00000001
00000100
00000100
,
00000010
00000010
00001000
00001000
,
00000100
00000100
00010000
00010000
,
00011000
00000000
00000000
00000000
,
00001000
01000000
00100000
00010000
,
00001000
00010000
01000000
10000000
,
10100000
00000000
10010000
00000000
,
00100000
00000000
00000000
00100000
00000000
00000000
00100000
00000000
01000000
00000000
00000000
00000000
00000000
00000000
00000000
00000000
,
01100000
10000000
00010000
00100000
,
00001000
00010000
00000100
00001000
,
00000001
00000000
00000100
00000000
,
00000020
00000000
00002000
00003030
,
00001010
00000000
00000000
00010010
00000000
00000000
00000000
00010000
,
00000000
00001000
00000000
00000100
00000000
00000000
00001000
00000000
,
00011000
00000000
00000000
00010000
00000000
01000000
00000000
00200000
,
00000000
00000000
00000000
00300000
,
00010000
00000000
00000000
00100000
00000000
00000000
00001000
00000000
,
00000000
00010000
00000000
00000000
00001000
00001000
00000000
00020000
,
00000000
00000000
00000000
00000000
,
00000000
00000000
00000000
00000000
00000000
00000000
00000000
00030000
,
00000000
00000000
00000000
00000000
;
#NOTES:
     dance-double:
     :
     Medium:
     11:
     :
00000000
00000000
00000000
00000000
,
00000000
00000000
00000000
00000000
,
00000000
00000000
00000000
00000000
,
00000000
00000000
00000000
00000000
,
00001000
00010000
00000000
00001000
00010000
00000000
00000010
00001000
,
00000000
00000010
00001000
00000000
00000100
00000000
00010000
00000000
,
00010000
00001000
00000000
00010000
00001000
00000000
00100000
00010000
,
00000000
00100000
00010000
00000000
01000000
00000000
00001000
00000000
,
00020000
00000000
00000000
00000000
,
00032000
00000000
00000000
00000000
,
00003200
00000000
00000000
00000000
,
00000320
00000000
00000000
00000000
,
00002030
00000000
00000000
00000000
,
00003002
00000000
00000000
00000000
,
00000023
00000000
00000000
00000000
,
00000230
00000000
00000000
00000000
,
00010300
00001000
01000000
00010000
,
00100000
00001000
00010000
01000000
,
10000000
00000000
00100000
01000000
00100000
00000000
10000000
00000000
,
00010000
10000000
10000000
01000000
,
00010000
00001000
00010000
00000100
,
00000010
00000001
00001000
00000010
,
00000110
00000000
00000010
00010000
00000000
00001000
00010000
00001000
,
00000000
00101000
00000000
00000000
00000000
00000000
00000000
00000000
,
00001000
00000000
00010000
00000000
01000000
00100000
01000000
00000000
,
10000000
00010000
10000000
00000000
00100000
00000000
01000000
00000000
,
00100000
00000000
00010000
00000000
00001000
00010000
00001000
00000000
,
00100000
00010000
00100000
00000000
01000000
00000000
10000000
00000000
,
01000000
00000000
00010000
00000000
00001000
00010000
00001000
00000000
,
01000000
00010000
01000000
00000000
00100000
00000000
00010000
00000000
,
00002000
00000000
00000000
00000010
00000000
00010000
00000000
00103000
,
00000000
00000000
00000000
00001000
00000000
00010000
00001000
00000000
,
00010000
00000000
00001000
00000000
00000100
00000010
00000100
00000000
,
00000001
00001000
00000001
00000000
00000010
00000000
00000100
00000000
,
00000010
00000000
00001000
00000000
00010000
00001000
00010000
00000000
,
00000010
00001000
00000010
00000000
00000100
00000000
00000001
00000000
,
00000100
00001000
00010000
00001000
,
00010000
01000000
10000000
00010000
,
01010000
00000000
00000000
00110000
00000000
00000000
00101000
00000000
,
00000000
00011000
00000000
00000000
00000000
00000000
00000000
00000000
,
00012000
00103000
00012000
00103000
,
00001000
00000000
00010000
00100000
01000000
00000000
00010000
00000000
,
10000000
00000000
00000000
00000000
01000000
00000000
00000000
00000000
00100000
00000000
00000000
00001000
00000000
00000000
00010000
00000000
,
00002000
00010000
00103000
00001000
,
00010000
00000000
00000000
00001000
00000000
00000000
00000100
00000000
00000010
00000000
00000000
00000000
00000000
00000000
00000000
00000000
,
00010000
00000000
00000000
00001000
00000000
00000000
00000010
00000000
00000100
00000000
00000000
00000000
00000000
00000000
00000000
00000000
,
00010000
00000000
00000000
00010000
00000000
00000000
00010000
00000000
00001000
00000000
00000000
00000000
00010000
00000000
00000000
00000000
,
00000010
00000100
00000001
00001000
,
00000100
00000010
00000001
00000000
00000100
00000010
00001000
00000000
,
00000001
00000000
00000000
00000100
00000000
00000000
00001000
00000000
00010000
00000000
00000000
00100000
00000000
00000000
10000000
00000000
,
10000000
01000000
00100000
00010000
,
10000000
00000000
00000000
01000000
00000000
00000000
00010000
00000000
00001000
00000000
00000000
00000010
00000000
00000000
00000001
00000000
,
00000001
00000000
00001000
00000000
00000010
00000100
00000010
00000000
,
00001000
00000000
00000001
00000000
00000100
00000010
00000100
00000000
,
00000001
00000100
00001000
00020000
,
00200000
00300000
00002000
00033000
,
00001000
00100000
00001000
00100000
00000000
00010000
00000000
01010000
,
00000000
00100000
00000000
10010000
00000000
10000000
01000000
00000000
,
00100000
00010000
00100000
00001000
00000000
00010000
00000000
00022000
,
00000000
00000000
00000000
00033000
,
00001000
00010000
00000100
00001000
,
00000001
00000000
00000010
00000100
00001000
00000000
00000001
00000000
,
00001000
00000010
00001000
00000010
00010000
00001000
00010000
00001000
,
01000000
00000000
00010000
00100000
02000000
00000000
03000000
00000000
,
10000000
00000000
00010000
01000000
00000000
01000000
00100000
00000000
,
10000000
01000000
00010000
00001000
,
00010100
00000000
00000000
00000110
00000000
00000000
00010100
00000000
,
00000000
00011000
00000000
00000000
00000000
00000000
00000000
00000000
,
00010020
00000000
00000000
00000000
,
00000230
00000000
00000000
00000000
,
00000302
00000000
00000000
00000000
,
00000023
00000000
00000000
00000000
,
00001030
00010000
00001000
00010000
,
00100000
01000000
00100000
01000000
,
00010000
10000000
00010000
10000000
01000000
00100000
01000000
00100000
,
00010000
00000000
10000000
00010000
,
01000000
00100000
10000000
00000000
01000000
00100000
00010000
00000000
,
10000000
00000000
00000000
01000000
00000000
00000000
00010000
00000000
00001000
00000000
00000000
00000010
00000000
00000000
00000001
00000000
,
00000001
00000100
00000010
00001000
,
00000001
00000000
00000000
00000100
00000000
00000000
00001000
00000000
00010000
00000000
00000000
00100000
00000000
00000000
10000000
00000000
,
10000000
00000000
00010000
00000000
00100000
01000000
00100000
00000000
,
00010000
00000000
10000000
00000000
01000000
00100000
01000000
00000000
,
10000000
01000000
00010000
00002000
,
00000020
00000030
00020000
00033000
,
00010000
00000010
00010000
00000010
00000000
00001000
00000000
00001100
,
00000000
00000010
00000000
00001001
00000000
00000001
00000100
00000000
,
00000010
00001000
00000010
00010000
00000000
00001000
00000000
00022000
,
00000000
00000000
00000000
00033000
,
00001000
01000000
00000000
00010000
00100000
00000000
00001000
00010000
,
00000000
00100000
01000000
00000000
00010000
00100000
00000000
00002000
,
00000000
00000000
00000000
00000000
,
00000000
00000000
00000000
00000000
00000000
00000000
00000000
00003000
,
00000000
00000000
00000000
00000000
;
#NOTES:
     dance-double:
     :
     Hard:
     15:
     :
00000000
00000000
00000000
00000000
,
00000000
00000000
00000000
00000000
,
00000000
00000000
00000000
00000000
,
00000000
00000000
00000000
00000000
,
00001000
00001000
00100000
00010000
00010000
01000000
00100000
00100000
,
10000000
01000000
01000000
00100000
00001000
00000000
00010000
00001000
,
00010000
00010000
00000100
00001000
00001000
00000010
00000100
00000100
,
00000001
00000010
00000010
00000001
00000100
00001000
00010000
01000000
,
00200000
00000000
00000000
00300000
00000000
00010000
00100000
01000000
,
20000000
30000000
00100000
00010000
,
00001000
00000000
00010000
02000000
00000000
00000000
00000000
00000000
,
03000000
00000000
00000000
00000000
00000000
00100000
00010000
00100000
,
00002000
00000000
00000000
00003000
00000000
00010000
00001000
00000100
,
00000010
00000000
00000000
00001000
00000000
00000000
00000001
00000000
,
00000010
00000000
00000100
00010000
00000000
00000000
00001000
00000000
,
00020000
00000000
00000000
00030000
,
00001000
00010000
00001000
00010000
00001000
00010000
00100000
01000000
,
00010000
00100000
00010000
00100000
01000000
10000000
00010000
01000000
,
00100000
01000000
00001000
00010000
00001000
00010000
00001000
00010000
,
00001000
00000100
00001000
00000100
00001000
00000100
00001000
00010000
,
00000100
00000010
00000100
00000010
00000100
00000010
00000100
00001000
,
00000010
00000100
00000010
00000100
00001000
00010000
00001000
01000000
,
00010000
00100000
01000000
10000000
00010000
01010000
00000000
01001000
,
00000000
00011000
00000000
00001000
00000010
00000001
00000010
00001000
,
00010000
00000000
00001000
00010000
00100000
01000000
00000000
10000000
,
00000000
01000000
00000000
00100000
00010000
00001000
01000000
00100000
,
00010000
00000000
00001000
00000010
00000000
00000100
00010000
00001000
,
00000000
00000010
00000000
00000100
00010000
00001000
00000010
00000100
,
00000001
00000000
00001000
00000010
00000001
00001000
00000000
00000001
,
00000000
00000100
00000000
00001000
00010000
00000000
00001000
00000000
,
00010000
01000000
10000000
00100000
00010000
00001000
00010000
01000000
,
10000000
01000000
00010000
00001000
00000010
00000001
00001000
00000010
,
00000100
00000000
00000001
00000010
00000000
00001000
00000000
00000010
,
00000000
00000001
00000000
00000100
00001000
00010000
00001000
00000000
,
00010000
00000000
01000000
10000000
00000000
00100000
00000000
00010000
,
00000000
00001000
00000010
00000000
00000100
00000000
00010000
00000000
,
00001000
00010000
00001000
00010000
00001000
00000100
00001000
00000100
,
00000001
00000010
00000001
00000010
00000100
00010000
00001000
00010000
,
00100000
00000000
01000000
00100000
01000000
00000000
00001000
00000000
00010000
00001000
00010000
00000000
00000100
00000000
00000010
00000100
,
00000010
00000000
00000001
00000000
00000000
00000000
00000000
00000000
00000100
00000000
00000010
00001000
00000001
00000000
00000000
00000000
,
00001000
00000001
00000100
00001000
00010000
00100000
01000000
00001000
,
00010000
01000000
10000000
01000000
00010000
00001000
00000010
00000100
,
00010000
00001000
00000100
00000001
00000010
00001000
00010000
01000000
,
00100000
00010000
01000000
00100000
00010000
00100000
00010000
00000000
,
10000000
00000000
00000000
01000000
00000000
00000000
00010000
00000000
01000000
00000000
00001000
00000000
00010000
00000000
00001000
00000000
,
00100000
00000000
00000000
00010000
00000000
00000000
00100000
00000000
01000000
00000000
00001000
00000000
00010000
00000000
00100000
00000000
,
00010000
01000000
00010000
00001000
00100000
01000000
00010000
10000000
,
00100000
00010000
00001000
00000100
00000010
00001000
00010000
00001000
,
00100000
00010000
00100000
10000000
01000000
00010000
01000000
00001000
,
00010000
00000000
00000000
00000010
00000000
00000000
00001000
00000000
00010000
00000000
00001000
00010000
00000000
00001000
00010000
00000000
,
00001000
00000100
00000001
00000010
00000100
00010000
00001000
01000000
,
00100000
00000000
00000000
00010000
00000000
00000000
00001000
00000000
00000100
00000000
00000010
00010000
00000000
00010000
00001000
00000000
,
01000000
00000000
00010000
00000000
00100000
00000000
00001000
00000000
00010000
00001000
00010000
00000000
00001000
00000000
00000010
00000000
,
00000100
00000000
00001000
00000000
00000001
00000000
00000100
00000000
00000001
00000100
00000001
00000000
00000100
00000000
00000000
00000000
,
00000010
00000000
00000000
00010000
00000000
00000000
00001000
00000000
00010000
00000000
00000000
00000000
00000200
00000000
00000000
00000000
,
00000020
00000030
00020000
00030300
,
00010000
00001000
00000100
00000001
00000010
00000100
00000000
00011000
,
00000000
00010000
01000000
10000000
00000000
01000000
00100000
00000000
,
00010000
01000000
00100000
00020000
00000000
00032000
00000000
00000020
,
00000000
00000000
00000000
00000000
00000000
00003000
00000000
00000030
,
00000001
00000000
00000010
00000000
00001000
00000000
00010000
00000000
01000000
00000000
10000000
00100000
00000000
00100000
01000000
00000000
,
00010000
10000000
01000000
00010000
00001000
00000100
00000010
00010000
,
00001000
00000010
00001000
00000001
00001000
00000010
00001000
00010000
,
00001000
00100000
00001000
00010000
02000000
00000000
03000000
00000000
,
10000000
01000000
00100000
00001000
00000000
00010000
00001000
00000100
,
00000000
00000010
00001000
00000001
,
00000001
00000100
00000100
00001000
00010000
00010000
00100000
10000000
,
10000000
00010000
00000000
00000000
00000000
00000000
00000000
00000000
,
20010000
00000000
00000000
00000000
,
30200000
00000000
00000000
00000000
,
00320000
00000000
00032000
00000000
,
00023000
00000000
00030200
00000000
,
00000310
00000001
00000010
00000100
,
00001000
00000000
00000100
00000000
00010000
00000000
00001000
00100000
,
00020000
00000000
00030000
01000000
00200000
00000000
00300000
10000000
,
02000000
00000000
00000000
03000000
00100000
00010000
00001000
00010000
,
00000010
00001000
00000010
00000001
00000100
00001000
00000100
00010000
,
00001000
00000000
00000000
00100000
00000000
00000000
00010000
00000000
00001000
00000000
00010000
00001000
00000000
00010000
00001000
00000000
,
00010000
01000000
10000000
00100000
01000000
00001000
00010000
00000100
,
00000010
00000000
00000000
00001000
00000000
00000000
00010000
00000000
01000000
00000000
00100000
00001000
00000000
00001000
00010000
00000000
,
00000100
00000000
00001000
00000000
00000010
00000000
00010000
00000000
00001000
00010000
00001000
00000000
00010000
00000000
00100000
00000000
,
01000000
00000000
00010000
00000000
10000000
00000000
01000000
00000000
10000000
01000000
10000000
00000000
01000000
00000000
00000000
00000000
,
00100000
00000000
00000000
00001000
00000000
00000000
00010000
00000000
00001000
00000000
00000000
00000000
02000000
00000000
00000000
00000000
,
00200000
00300000
00002000
03003000
,
00001000
00010000
01000000
10000000
00100000
01000000
00000000
00011000
,
00000000
00001000
00000100
00000001
00000000
00000100
00000010
00000000
,
00001000
00000100
00000010
00002000
00000000
00023000
00000000
00200000
,
00000000
00000000
00000000
00000000
00000000
00030000
00000000
00300000
,
10000000
00100000
00010000
00001000
00000100
00000001
00000001
00000010
,
00001000
00010000
01000000
10000000
00100000
00010000
00000000
00002000
,
00000000
00000000
00000000
00000000
,
00000000
00000000
00000000
00000000
00000000
00000000
00000000
00003000
,
00000000
00000000
00000000
00000000
;
