
//----- song ID: aisi -----//
#TITLE:愛氏AIされ;
#ARTIST:deli.+駄々子;
#TITLETRANSLIT:Ai-shi AI sare;
#ARTISTTRANSLIT:deli+dadaco;
#BANNER:Ai-shi AI sare.png;
#BACKGROUND:Ai-shi AI sare-bg.png;
#CDTITLE:./CDTitles/DDR WORLD.png;
#MUSIC:Ai-shi AI sare.ogg;
#SAMPLESTART:63.421;
#SAMPLELENGTH:15;
#BPMS:0=140;
#BGSTAGE:2;
#NOTES:
     dance-single:
     :
     Beginner:
     3:
     :
0000
0000
0000
0000
,
0000
0000
0000
0000
,
0000
0000
0000
0000
,
0000
0000
0000
0000
,
0000
0000
0000
0000
,
1000
0000
0001
0000
,
1000
0000
0000
0000
,
0001
0000
1000
0000
,
0001
0000
0000
0000
,
1000
0000
0001
0000
,
1000
0000
0000
0000
,
0010
0000
0100
0000
,
0110
0000
0000
0000
,
0010
0000
0000
0000
,
0010
0000
0000
0000
,
1000
0000
0000
0000
,
1000
0000
0000
0000
,
0001
0000
0010
0000
,
0001
0000
0000
0000
,
1000
0000
0001
0000
,
1001
0000
0000
0000
,
1000
0000
0100
0000
,
1000
0000
0100
0000
,
0010
0000
0001
0000
,
0010
0000
0001
0000
,
1000
0000
0001
0000
,
1001
0000
0000
0000
,
0001
0000
0100
0000
,
0001
0000
0000
0000
,
1000
0000
0000
0000
,
1000
0000
0100
0000
,
0010
0000
0000
0000
,
0010
0000
0001
0000
,
1000
0000
0000
0000
,
0001
0000
0100
0000
,
0001
0000
1000
0000
,
1001
0000
0000
0000
,
0001
0000
0100
0000
,
0001
0000
0100
0000
,
0010
0000
1000
0000
,
0010
0000
0000
0000
,
1000
0000
0010
0000
,
1000
0000
0010
0000
,
0100
0000
0010
0000
,
0220
0000
0000
0330
,
0010
0000
1000
0000
,
0002
0000
0003
0000
,
1000
0000
0001
0000
,
0020
0000
0030
0000
,
0001
0000
0010
0000
,
0200
0000
0300
0000
,
0010
0000
0100
0000
,
2000
0000
0000
3000
,
0001
0000
0000
0000
,
1001
0000
0000
0000
,
1000
0000
0010
0000
,
1000
0000
0000
0000
,
0001
0000
0010
0000
,
0001
0000
0000
0000
,
0010
0000
0100
0000
,
0010
0000
0000
0000
,
0100
0000
1000
0000
,
0100
0000
1000
0000
,
0001
0000
0100
0000
,
0001
0000
1000
0000
,
0010
0000
1000
0000
,
0010
0000
1000
0000
,
0001
0000
0010
0000
,
0100
0000
0000
0000
,
0000
0000
0000
0000
;
#NOTES:
     dance-single:
     :
     Easy:
     6:
     :
0000
0000
0000
0000
,
0000
0000
0000
0000
,
0000
0000
0000
0000
,
0000
0000
0000
0000
,
0000
0000
0000
0000
,
0001
0100
0001
1000
,
0001
0000
1001
0000
,
1000
0100
1000
0001
,
1000
0000
1001
0000
,
0001
0010
0100
0010
,
0001
0000
1001
0000
,
1000
0100
0010
0001
,
1000
0000
0000
0000
,
0001
0100
0001
0000
,
1000
0010
1000
0010
,
0100
0010
0100
0000
,
0001
1000
0001
0010
,
0110
0000
1001
0000
,
1000
0010
1000
0000
,
0001
0010
0100
0010
,
0110
0000
1001
0000
,
0001
0100
0001
0100
,
0010
1000
0010
0100
,
0001
1000
0010
0100
,
0001
1000
0100
0010
,
0001
1000
0010
0100
,
0001
0000
1001
0000
,
1000
0100
1000
0001
,
2000
0000
0000
3000
,
1001
0000
0101
0000
,
0100
0010
0100
0010
,
0110
0000
1010
0000
,
1000
0001
1000
0100
,
1100
0000
1001
0000
,
0001
0010
0100
1000
,
0001
1000
0001
1000
,
1001
0000
0000
0000
,
1000
0100
1000
0001
,
0010
0100
1000
0000
,
0002
0103
2000
3100
,
0110
0000
0000
0000
,
0001
0010
0001
1000
,
0100
0010
0001
0000
,
2000
3010
0002
0013
,
0220
0000
0000
0330
,
1000
0010
1000
0100
,
2000
0000
3002
0000
,
0103
0001
0010
0001
,
1000
0001
1001
0000
,
0001
0010
0001
0100
,
0002
0000
2003
0000
,
3010
1000
0100
1000
,
0002
0000
0000
0000
,
1003
0000
0001
0000
,
0011
0000
0110
0000
,
0100
1000
0100
1000
,
0001
0000
1001
0000
,
0001
0100
0001
0100
,
0010
0000
0110
0000
,
1000
0001
0010
0100
,
1000
0000
0000
0000
,
0001
0100
0001
1000
,
0010
0100
0010
0100
,
0001
1000
0001
0010
,
0001
0100
0110
0000
,
1000
0010
1000
0001
,
0100
0010
0100
0010
,
1000
0100
0010
0001
,
1000
0000
0000
0000
,
0000
0000
0000
0000
;
#NOTES:
     dance-single:
     :
     Medium:
     11:
     :
0000
0000
0000
0000
,
0000
0000
0000
0000
,
0000
0000
0000
0000
,
0000
0000
0000
0000
,
0000
0000
0000
0000
,
1000
0010
1000
0000
0010
0100
0010
0100
,
0000
0001
0100
0001
1000
0000
1001
0000
,
0001
0010
0001
0000
0010
0100
0010
0100
,
0000
1000
0100
1000
0001
0000
1001
0000
,
1000
0100
1000
0000
0001
0100
0001
0100
,
0000
0001
1000
0010
0100
0000
0110
0000
,
0010
1000
0010
1000
0001
0010
0100
1000
,
0000
0001
0100
0001
1000
0001
1000
0000
,
0010
0000
0100
0000
0010
0100
0010
0100
,
0001
0000
0010
0000
0100
1000
0100
1000
,
0001
0000
1000
0000
0100
0010
0100
0000
,
1000
0000
0001
0000
0100
0010
0100
0000
,
0000
0001
0000
0000
0001
0000
0000
1000
0000
0000
1000
0000
0000
0001
0000
0000
,
0100
0010
0100
0010
1000
0001
0100
0000
,
0001
0010
0001
0000
1000
0100
1000
0000
,
1001
0000
0000
0000
0001
0100
0010
0000
,
1000
0010
1000
0000
0010
0100
0010
0000
,
1000
0010
1000
0001
0100
0001
1000
0100
,
0010
0001
0010
0000
0001
0100
0001
0000
,
0100
0010
0100
0001
1000
0010
0100
0001
,
0000
1000
0000
0000
1100
0000
0000
0001
0000
0000
0101
0000
0000
2002
0000
0000
,
0000
3003
1001
0000
,
1000
0100
1000
0100
0010
0001
1000
0000
,
0000
0001
0100
0001
0100
0010
1000
0000
,
1001
0000
0000
0000
0001
0000
0000
0100
0000
0000
0001
0000
1000
0000
0010
0000
,
0000
0100
0010
0100
0010
1000
0001
0100
,
0000
0000
0010
0000
1000
0000
0000
0010
0000
0000
1000
0000
0000
0000
0001
0000
,
0010
0000
0001
0000
1000
0000
0000
0100
0000
0000
1000
0000
0001
0000
1000
0000
,
0001
0000
0000
0000
0010
0000
0000
0100
0000
0000
0010
0000
0000
0000
0001
0000
,
2000
3200
0320
0032
,
1003
0010
1000
0010
1000
0010
1000
0010
,
1000
0000
0000
0000
,
0001
0100
0010
0000
1000
0010
0100
0000
,
0010
0100
0001
0100
0001
0000
0010
0000
,
0100
1000
0010
0000
0100
0001
0010
0000
,
0001
0000
0000
1000
0000
0001
0000
0001
0000
0100
0010
0000
0000
0000
0000
0000
,
1000
0100
0010
0000
0001
0100
0010
0000
,
0100
0010
1000
0010
1000
0000
0100
0000
,
0010
0001
0100
0000
0010
1000
0100
0000
,
2000
0000
0000
3020
0000
0000
0230
0000
0000
0302
0000
0000
2003
0000
0000
0000
,
3001
0010
0100
0000
0010
0001
0100
0000
,
0000
0001
0000
0000
1000
0000
0000
0000
0010
0000
0100
0000
0010
0000
0000
0000
,
1000
0100
0010
0000
0100
1000
0001
0000
,
0000
1000
0000
0000
0001
0000
0000
0000
0100
0000
0000
0010
0000
0010
0000
0000
,
0100
0001
1000
0000
0001
1000
0100
0000
,
0000
0010
0000
0000
0100
0000
0000
0000
1000
0000
0000
0001
0000
0001
0000
0001
,
0100
0010
1000
0000
0010
1000
0001
0100
,
0002
0000
0000
0000
,
1003
0100
0010
0001
,
0000
0100
0010
0100
0001
0000
0010
0000
,
0100
1000
0100
0000
1000
0010
1000
0010
,
0000
0100
0010
0100
0001
0000
1000
0000
,
0001
0010
0001
0000
0010
0100
0010
0100
,
0000
1000
0100
1000
0010
0000
0100
0000
,
0001
0100
0001
0100
0010
1000
0100
0010
,
0000
0001
0010
0001
1000
0000
0001
0000
,
0100
0010
0100
0000
0001
1000
0001
1000
,
0000
0010
1000
0010
0100
0000
0001
0000
,
1000
0001
1000
0000
0100
0010
0100
0010
,
0000
0001
0100
0001
0010
0000
0100
0000
,
1000
0010
1000
0000
0001
0100
0010
0100
,
0000
0010
1000
0010
0100
0000
0001
0000
,
1000
0100
0010
0001
1000
0010
0100
0001
,
0000
0000
0000
0000
;
#NOTES:
     dance-single:
     :
     Hard:
     15:
     :
0000
0000
0000
0000
,
0000
0000
0000
0000
,
0000
0000
0000
0000
,
0000
0000
0000
0000
,
0000
0000
0000
0000
,
0001
0000
1000
0000
0001
0100
0001
0000
0100
0010
0100
0000
0010
0000
1000
0010
,
0000
1000
0100
1000
0001
0010
0100
1000
,
0010
0000
0100
0000
0010
1000
0010
0000
1000
0100
1000
0000
0001
0000
0010
0001
,
0000
0100
0010
0100
0001
1000
0100
0010
,
0001
0000
1000
0000
0100
0010
0100
0000
0010
0001
0010
0000
0001
0000
0100
0010
,
0000
0100
0001
0100
0010
1000
0001
0100
,
0001
0000
0010
0000
0100
0000
1000
0000
0010
1000
0010
0000
0100
0000
0001
0010
,
0000
0001
0010
0001
1000
0100
0010
0001
1000
0000
0100
0000
0010
0000
0001
0000
,
0000
0000
0100
0000
0010
0000
0100
0001
0100
0001
0100
0001
0000
1000
0000
0001
,
0000
0010
0000
0001
0010
0000
0001
0100
0010
0000
1000
0000
0100
0000
0010
0000
,
0100
0010
0000
0001
1000
0010
1000
0010
0000
0100
0000
0001
0000
1000
0000
0010
,
0100
0000
0010
0000
1000
0000
0100
0001
0000
0100
1000
0100
0000
0010
0001
0000
,
0000
0010
0001
0000
0001
0100
0000
0100
1000
0000
1000
0100
0000
0100
0001
0000
,
1000
0010
1000
0000
0001
0000
0100
0001
0010
0100
1000
0001
0000
0100
0000
0000
,
0001
0000
0010
0000
1000
0000
0001
0000
0100
0000
1000
0010
0000
0100
0001
0100
,
0001
0000
1000
0000
0010
0100
0000
0010
0000
0100
0000
0001
0100
0001
0100
0000
,
0000
0000
0001
0000
1000
0100
1000
0100
0010
0000
0001
0000
1000
0000
0001
0010
,
0000
0001
0000
1000
0100
0000
0001
0100
0000
0010
0100
0010
0000
0001
0000
0001
,
0000
0100
0010
0100
0010
1000
0001
0100
0000
0010
0100
0010
1000
0000
1000
0000
,
0001
0010
0001
0010
0000
0001
0100
0010
0000
0100
0010
1000
0010
0100
0001
0000
,
0000
1000
0100
0000
0100
0001
0000
0001
0100
0000
0100
0010
0000
0001
0010
0100
,
1000
0000
0010
0100
0010
1000
0000
0001
1000
0010
0000
0110
0000
0000
0000
0000
,
0100
0010
0100
0010
0100
0000
0001
1000
0000
0001
1000
0001
0010
0001
0010
0100
,
1000
0000
0010
0000
0100
0000
0001
0000
1000
0000
0100
1000
0100
0010
0001
0000
,
1001
0000
0000
0000
0001
0100
0000
0101
0000
0100
0010
0000
1000
0000
0010
0000
,
0000
1000
0001
1000
0100
0010
0001
0010
,
0001
0000
0100
0000
0010
0000
1000
0100
0000
0010
0100
0000
0000
0000
1000
0000
,
0010
0000
1000
0000
0100
0000
0010
0001
0000
0100
0010
0000
0100
0000
0001
0000
,
1001
0000
0000
0000
1000
0010
0000
1010
0000
0010
0100
0000
0000
0000
0001
0000
,
2000
3001
0200
0301
0020
0031
0200
0301
,
1000
0000
0100
0000
1000
0000
0100
0000
0010
0100
0010
0100
0010
0001
0010
0001
,
1000
0000
0000
0000
,
0001
0000
0100
0000
0010
0000
0100
0010
1000
0000
0001
0000
0010
0000
0001
0010
,
0100
0000
1000
0000
0001
0000
0100
0010
1000
0000
0010
0000
1000
0100
1000
0100
,
0010
0000
0100
0000
1000
0000
0001
0100
0010
0000
0100
0000
0001
0000
0010
0000
,
0100
0000
1000
0001
0000
0001
0000
0100
0000
0010
0100
0000
0010
0100
0010
0000
,
1000
0000
0001
0000
0100
0000
0010
0100
0001
0000
1000
0000
0100
0000
1000
0100
,
0010
0000
0001
0000
1000
0000
0001
0100
0010
0000
0100
0000
0001
0010
0001
0010
,
0100
0000
0010
0000
0001
0000
1000
0010
0100
0000
0010
0000
1000
0000
0100
0000
,
1000
0000
0001
0010
0000
0100
0010
0000
0001
0100
0000
0010
1000
0001
0010
0100
,
1000
0000
0010
0000
0100
0000
0010
0000
1000
0100
1000
0000
0001
0000
0100
0010
,
0000
1000
0001
0000
0010
0001
0010
0001
0010
0000
0001
0000
1000
0010
1000
0000
,
0001
0000
0100
0000
0010
0000
0100
0000
0001
0010
0001
0000
1000
0000
0001
0010
,
0000
0001
0100
0001
1000
0010
1000
0001
0100
0000
0010
0100
0000
0110
0000
0000
,
0010
0000
1000
0000
0001
0000
0010
0000
0100
0010
0100
0000
0010
0000
0001
0100
,
0000
0001
0000
1000
0001
0000
0100
0001
0010
0100
0010
0001
0000
0001
0000
0001
,
1000
0000
0001
0000
0010
0000
0100
0000
1000
0000
0010
0000
1000
0000
0010
0100
,
0000
0001
0100
0001
0100
0001
0100
0001
2000
0000
3200
0000
0320
0000
0032
0000
,
1003
0000
0010
0000
1000
0000
0010
0000
0100
0000
0001
0000
1000
0001
1000
0001
,
0000
1000
0010
1000
0001
0010
0100
1000
,
0001
0000
0100
0000
0010
0100
0010
0000
0100
0001
0100
0000
0001
0100
0010
1000
,
0000
0001
0010
0001
1000
0100
0010
0001
,
1000
0000
0010
0000
0100
0010
0100
0000
0010
1000
0010
0000
1000
0010
0100
0001
,
0000
1000
0100
1000
0001
0010
0100
1000
,
0001
0000
0100
0000
0010
0000
1000
0000
0010
0100
0010
0000
1000
0000
0001
0010
,
0000
0100
0010
0100
0010
0001
1000
0001
0100
0000
0001
0000
0010
0000
0100
0000
,
1000
0000
0010
0000
1000
0100
0010
0000
0100
0010
0001
0000
1000
0100
1000
0100
,
0000
0000
0000
1000
0000
0000
0010
0000
0000
0100
0000
0000
0001
0000
0000
1000
0000
0000
0100
0000
0100
0000
0100
0000
,
1000
0000
0010
0000
0100
0001
1000
0000
0001
1000
0010
0000
0100
0001
0100
0001
,
0000
0000
0000
1000
0000
0000
0001
0000
0000
0010
0000
0000
0100
0000
0000
0010
0000
0000
0100
0000
0100
0000
0100
0000
,
0010
0000
0001
0000
1000
0010
0100
0000
0010
0100
0001
0000
1000
0010
1000
0010
,
0000
0000
0000
1000
0000
0000
0100
0000
0000
1000
0000
0000
0001
0000
0000
0010
0000
0000
0100
0000
0100
0000
0100
0000
,
1000
0000
0001
0000
0010
0000
0100
0000
1000
0010
0100
0001
1000
0000
0001
1000
,
0000
0000
0000
0000
;
#NOTES:
     dance-double:
     :
     Easy:
     7:
     :
00000000
00000000
00000000
00000000
,
00000000
00000000
00000000
00000000
,
00000000
00000000
00000000
00000000
,
00000000
00000000
00000000
00000000
,
00000000
00000000
00000000
00000000
,
00000001
00001000
00000100
00010000
,
00001000
00000000
00011000
00000000
,
00001000
01000000
00010000
10000000
,
00100000
00000000
01100000
00000000
,
01000000
00010000
00100000
00001000
,
00010000
00000000
00011000
00000000
,
00010000
00001000
00000100
00000001
,
00001000
00000000
00000000
00000000
,
00000100
00010000
00001000
00000000
,
01000000
00010000
01000000
00010000
,
10000000
00100000
01000000
00000000
,
00010000
01000000
00001000
00010000
,
00011000
00000000
00000110
00000000
,
00000001
00001000
00000001
00000000
,
00000010
00001000
00010000
01000000
,
10000000
00000000
10010000
00000000
,
00010000
00100000
00001000
00010000
,
00000010
00001000
00000010
00000100
,
00000001
00000010
00000100
00001000
,
00000010
00010000
00001000
00010000
,
00000100
00010000
00001000
00100000
,
00010000
00000000
10010000
00000000
,
10000000
00100000
00010000
00001000
,
00000200
00000000
00000000
00000300
,
00001001
00000000
00000011
00000000
,
00000010
00000100
00001000
00000100
,
00010100
00000000
00011000
00000000
,
00001000
01000000
00010000
10000000
,
11000000
00000000
10010000
00000000
,
10000000
01000000
00010000
00001000
,
00010000
00001000
00010000
00001000
,
00011000
00000000
00000000
00000000
,
00010000
00000010
00001000
00000100
,
00001000
00000001
00000010
00000000
,
00000002
00000103
00002000
00013000
,
00011000
00000000
00000000
00000000
,
00001000
01000000
00010000
00100000
,
00010000
10000000
01000000
00000000
,
20000000
30100000
00020000
00031000
,
00022000
00000000
00000000
00033000
,
00010000
00000100
00001000
00000001
,
00000020
00000000
00000230
00000000
,
00001300
00000100
00010000
00001000
,
01000000
00010000
10010000
00000000
,
00010000
00100000
00001000
00010000
,
00000200
00000000
00000320
00000000
,
00000031
00001000
00000100
00010000
,
00002000
00000000
00000000
00000000
,
00013000
00000000
00001000
00000000
,
01001000
00000000
01100000
00000000
,
00100000
10000000
00010000
01000000
,
00001000
00000000
00011000
00000000
,
00010000
00000100
00001000
00000001
,
00000010
00000000
00000110
00000000
,
00000001
00000010
00001000
00010000
,
00001000
00000000
00000000
00000000
,
01000000
00010000
01000000
00100000
,
10000000
01000000
00010000
00001000
,
00010000
00000100
00001000
00000100
,
00000010
00000001
00001001
00000000
,
00000001
00000100
00000001
00001000
,
00000001
00000010
00001000
00010000
,
00001000
01000000
00010000
10000000
,
00010000
00000000
00000000
00000000
,
00000000
00000000
00000000
00000000
;
#NOTES:
     dance-double:
     :
     Medium:
     11:
     :
00000000
00000000
00000000
00000000
,
00000000
00000000
00000000
00000000
,
00000000
00000000
00000000
00000000
,
00000000
00000000
00000000
00000000
,
00000000
00000000
00000000
00000000
,
00001000
00010000
00001000
00000000
01000000
00010000
01000000
00010000
,
00000000
10000000
00100000
10000000
00010000
00000000
00100000
00000000
,
00001000
00010000
00001000
00000000
00010000
00000100
00010000
00000100
,
00000000
00001000
00000010
00001000
00000001
00000000
00001001
00000000
,
00000001
00000100
00000001
00000000
00001000
00000010
00001000
00000010
,
00000000
00010000
00001000
01000000
00010000
00000000
00100000
00000000
,
01000000
10000000
01000000
10000000
00010000
00100000
00001000
00010000
,
00000000
00000010
00001000
00000001
00001000
00000001
00000100
00000000
,
00000010
00000000
00001000
00000000
00000010
00010000
00001000
00010000
,
00001000
00000000
00100000
00000000
00010000
00100000
01000000
10000000
,
01000000
00000000
10000000
00000000
00010000
01000000
00001000
00000000
,
00010000
00000000
00000100
00000000
00001000
00000100
00000010
00000000
,
00000000
00000001
00000000
00000000
00000001
00000000
00000000
00001000
00000000
00000000
00001000
00000000
00000000
00000100
00000000
00000000
,
00010000
00001000
00010000
00000000
00001000
01000000
00010000
00000000
,
10000000
00100000
10000000
00000000
00010000
00100000
00001000
00000000
,
00011000
00000000
00000000
00000000
00001000
00000100
00000001
00000000
,
00001000
00000100
00001000
00000000
00000100
00010000
00001000
00000000
,
00100000
00010000
00100000
01000000
00100000
00010000
10000000
00100000
,
01000000
00010000
01000000
00000000
00001000
00010000
00001000
00000000
,
00010000
00000100
00001000
00000100
00000010
00000001
00001000
00000100
,
00000000
00010000
00000000
00000000
00011000
00000000
00000000
00001000
00000000
00000000
00101000
00000000
00000000
00022000
00000000
00000000
,
00000000
00033000
00011000
00000000
,
00010000
00000010
00001000
00000010
00001000
00000100
00000010
00000000
,
00000000
00000001
00000100
00000010
00001000
00000010
00010000
00000000
,
00011000
00000000
00000000
00000000
00001000
00000000
00000000
01000000
00000000
00000000
00010000
00000000
10000000
00000000
00100000
00000000
,
00000000
01000000
00010000
01000000
00001000
00010000
00001000
00010000
,
00000000
00000000
00000010
00000000
00001000
00000000
00000000
00000010
00000000
00000000
00000100
00000000
00000000
00000000
00000001
00000000
,
00000010
00000000
00000001
00000000
00001000
00000000
00000000
00000100
00000000
00000000
00010000
00000000
00001000
00000000
00010000
00000000
,
00001000
00000000
00000000
00000000
00100000
00000000
00000000
00010000
00000000
00000000
10000000
00000000
00000000
00000000
01000000
00000000
,
20000000
32000000
03020000
00032000
,
00013000
00001000
00010000
00001000
00010000
00000100
00001000
00000001
,
00001000
00000000
00000000
00000000
,
00000001
00001000
00000010
00000000
00010000
00001000
00010000
00000000
,
00001000
00100000
00010000
00100000
00010000
00000000
10000000
00000000
,
01000000
00100000
00010000
00000000
00100000
00001000
00010000
00000000
,
00000100
00010000
00001000
00010000
00000000
00011000
00000000
00000000
,
00010000
00000010
00001000
00000000
00000001
00000010
00000001
00000000
,
00001000
00000100
00010000
00001000
01000000
00000000
00010000
00000000
,
10000000
01000000
00010000
00000000
00001000
00000010
00000001
00000000
,
00000200
00000000
00000000
00002300
00000000
00000000
00023000
00000000
00000000
00032000
00000000
00000000
00203000
00000000
00000000
00000000
,
00310000
10000000
01000000
00000000
10000000
00010000
01000000
00000000
,
00000000
00001000
00000000
00000000
00010000
00000000
00000000
00000000
00000100
00000000
00001000
00000000
00000100
00000000
00000000
00000000
,
00001000
00000001
00000010
00000000
00000001
00001000
00000010
00000000
,
00000000
00010000
00000000
00000000
00001000
00000000
00000000
00000000
00100000
00000000
00000000
00010000
00000000
00010000
00000000
00000000
,
01000000
00001000
00010000
00000000
00000100
00001000
00000001
00000000
,
00000000
00000010
00000000
00000000
00001000
00000000
00000000
00000000
00010000
00000000
00000000
00002000
00000000
00000000
00000000
00000000
,
00013000
00001000
00100000
00000000
00010000
00100000
01000000
10000000
,
00020000
00000000
00000000
00000000
,
00130000
00001000
00010000
00000100
,
00000000
00001000
00000001
00001000
00000010
00000000
00000100
00000000
,
00000010
00010000
00001000
00000000
00100000
01000000
10000000
01000000
,
00000000
10000000
01000000
00100000
01000000
00000000
01100000
00000000
,
00100000
00010000
01000000
00001000
00010000
00000100
00001000
00000010
,
00000000
00001000
00000001
00001000
00000010
00000000
00000100
00000000
,
00001000
00010000
00001000
00100000
00010000
10000000
00100000
01000000
,
00000000
00010000
00100000
01000000
00100000
00000000
01100000
00000000
,
01000000
00010000
00001000
00000000
00010000
00001000
00010000
00000010
,
00000000
00001000
00000100
00000010
00000001
00000000
00001000
00000000
,
00000001
00000010
00001000
00000000
00010000
00001000
00100000
00010000
,
00000000
00100000
00010000
01000000
00100000
00000000
10000000
00000000
,
01000000
00010000
00001000
00000000
00010000
00001000
00000010
00000001
,
00000000
00000100
00000010
00001000
00000100
00000000
00010000
00000000
,
00001000
00010000
00100000
10000000
01000000
00100000
00010000
01000000
,
00000000
00000000
00000000
00000000
;
#NOTES:
     dance-double:
     :
     Hard:
     15:
     :
00000000
00000000
00000000
00000000
,
00000000
00000000
00000000
00000000
,
00000000
00000000
00000000
00000000
,
00000000
00000000
00000000
00000000
,
00000000
00000000
00000000
00000000
,
10000000
00000000
00010000
00000000
01000000
00010000
01000000
00000000
00001000
00010000
00001000
00000000
00010000
00000000
00000010
00001000
,
00000000
00000010
00010000
00000100
00010000
00001000
00000100
00000001
,
00001000
00000000
00000100
00000000
00010000
00000100
00010000
00000000
00001000
00010000
00001000
00000000
01000000
00000000
00001000
01000000
,
00000000
00010000
00100000
00001000
00010000
00100000
10000000
01000000
,
00100000
00000000
00010000
00000000
00100000
00001000
00100000
00000000
00001000
00010000
00001000
00000000
00010000
00000000
00000100
00001000
,
00000000
00000010
00001000
00000100
00010000
00001000
00000010
00000001
,
00000100
00000000
00000010
00000000
00001000
00000000
00000100
00000000
00010000
00001000
00010000
00000000
00001000
00000000
00100000
00010000
,
00000000
10000000
00010000
00000000
01000000
00100000
01000000
00000000
00010000
00000000
10000000
00000000
01000000
00000000
00010000
00000000
,
00000000
00000000
00001000
00000000
00010000
00000000
00000100
00001000
00000100
00001000
00000100
00001000
00000000
00000001
00000000
00000010
,
00000000
00000001
00000000
00000100
00000010
00000000
00001000
00000010
00000100
00000000
00001000
00000000
00010000
00000000
00100000
00000000
,
10000000
00010000
00000000
01000000
00010000
01000000
00010000
10000000
00000000
00100000
00000000
00010000
00000000
00001000
00000000
01000000
,
00010000
00000000
00100000
00000000
01000000
00000000
00010000
00001000
00000000
00000010
00000001
00000010
00000000
00000001
00001000
00000000
,
00000000
00000010
00001000
00000000
00001000
00000100
00000000
00000100
00010000
00000000
00010000
00001000
00000000
00001000
01000000
00000000
,
00010000
01000000
00010000
00000000
10000000
00000000
00100000
01000000
00010000
01000000
00010000
01000000
00000000
00001000
00000000
00000000
,
00010000
00000000
00001000
00000000
00000100
00000000
00000010
00000000
00001000
00000000
00000100
00010000
00000000
00001000
00010000
00001000
,
00010000
00000000
00001000
00000000
01000000
00010000
00000000
01000000
00000000
00100000
00000000
10000000
00100000
10000000
00100000
00000000
,
00000000
00000000
10000000
00000000
00010000
01000000
00010000
01000000
00001000
00000000
00010000
00000000
00001000
00000000
00010000
00000100
,
00000000
00001000
00000000
00000100
00000010
00000000
00000001
00001000
00000000
00000010
00000100
00000010
00000000
00001000
00000000
00001000
,
00000000
00000100
00010000
00000100
00010000
00001000
00010000
00001000
00000000
00100000
00010000
00100000
00010000
00000000
00010000
00000000
,
10000000
00100000
10000000
00100000
00000000
01000000
00010000
01000000
00000000
00001000
00100000
00010000
00100000
00010000
10000000
00000000
,
00000000
01000000
00010000
00000000
00010000
00001000
00000000
00001000
00000010
00000000
00000010
00000001
00000000
00001000
00000001
00000000
,
00001000
00000000
00000100
00000000
00010000
00001000
00000000
00010000
01000000
00100000
00000000
01100000
00000000
00000000
00000000
00000000
,
10000000
00010000
10000000
00010000
01000000
00000000
00001000
00010000
00000000
00001000
00010000
00000100
00001000
00000100
00000000
00001000
,
00000001
00000000
00000010
00000000
00000100
00000000
00001000
00000000
00000001
00000000
00001000
00000010
00010000
00001000
00010000
00000000
,
00011000
00000000
00000000
00000000
00001000
00000100
00000000
00000010
00000000
00000100
00000001
00000000
00001000
00000000
00000001
00000000
,
00000000
00000010
00001000
00010000
01000000
10000000
01000000
00100000
,
00010000
00000000
01000000
00000000
00010000
00000000
01000000
00001000
00000000
00010000
00001000
00000000
00000000
00000000
00010000
00000000
,
00000010
00000000
00001000
00000000
00000100
00000000
00000010
00000001
00000000
00001000
00000100
00000000
00010000
00000000
00001000
00000000
,
00011000
00000000
00000000
00000000
00010000
01000000
00000000
00100000
00000000
01000000
10000000
00000000
00000000
00000000
00010000
00000000
,
02000000
03001000
00020000
00030100
00002000
00003001
00000020
00000130
,
00001000
00000000
00000100
00000000
00010000
00000000
00001000
00000000
00100000
00010000
00100000
00000000
00010000
10000000
00010000
00000000
,
10000000
00000000
00000000
00000000
,
01000000
00000000
00100000
00000000
00010000
00000000
00100000
00001000
00010000
00000000
00000010
00000000
00001000
00000000
00000001
00000010
,
00000100
00000000
00001000
00000000
00000100
00000000
00010000
00001000
00010000
00000000
00001000
00000000
00100000
00010000
00000000
10000000
,
00010000
00000000
01000000
00000000
00001000
00000000
00010000
00001000
00010000
00000000
00000100
00000000
00001000
00000000
00000001
00000000
,
00000010
00000000
00000100
00000010
00000000
00000010
00000000
00000001
00000000
00001000
00000010
00000000
00000100
00000010
00000100
00000000
,
00000010
00000000
00001000
00000000
00000100
00000000
00010000
00001000
00100000
00000000
00010000
00000000
10000000
00000000
01000000
00100000
,
00010000
00000000
00100000
00000000
00001000
00000000
00010000
00000100
00010000
00000000
00000100
00000000
00001000
00000001
00000000
00001000
,
00000010
00000000
00010000
00000000
00001000
00000000
01000000
00010000
10000000
00000000
01000000
00000000
00100000
00000000
00010000
00000000
,
10000000
00000000
01000000
00010000
00000000
00001000
00010000
00000000
00001000
00000100
00000000
00000001
00000010
00000100
00001000
00000100
,
00010000
00000000
00001000
00000000
00000100
00000000
00000001
00000000
00000010
00000100
00000010
00000000
00000001
00000000
00001000
00000010
,
00000000
00010000
00001000
00000000
01000000
00010000
01000000
00010000
01000000
00000000
00100000
00000000
01000000
00010000
01000000
00000000
,
00001000
00000000
00010000
00000000
01000000
00000000
10000000
00000000
00100000
01000000
00100000
00000000
10000000
00000000
00010000
00100000
,
00000000
00001000
00010000
00000000
00000010
00001000
00000010
00000000
00000100
00000000
00000001
00001000
00000000
00001100
00000000
00000000
,
00000100
00000000
00010000
00000000
00001000
00000000
01000000
00000000
00010000
01000000
00010000
00000000
00100000
00000000
01000000
10000000
,
00000000
00010000
00000000
01000000
00010000
00000000
01000000
00001000
00010000
00001000
00010000
00000100
00000000
00000100
00000000
00000100
,
00001000
00000000
00000001
00000000
00000010
00000000
00000100
00000000
00001000
00000000
00000100
00000000
00010000
00000000
00001000
00100000
,
00000000
00010000
10000000
00010000
10000000
00010000
10000000
00000000
02000000
00000000
03020000
00000000
00032000
00000000
00003020
00000000
,
00000031
00000000
00000100
00000000
00000010
00000000
00001000
00000000
00000100
00000000
00010000
00000000
00001000
00010000
00001000
00010000
,
00000000
00001000
00100000
00010000
10000000
01000000
00100000
00010000
,
10000000
00000000
00010000
00000000
01000000
00001000
01000000
00000000
00001000
00010000
00001000
00000000
00010000
00000000
00000100
00001000
,
00000000
00000100
00010000
00001000
00000010
00000001
00000100
00000010
,
00000100
00000000
00000001
00000000
00001000
00000010
00001000
00000000
00000010
00010000
00000010
00000000
00010000
00000000
00001000
01000000
,
00000000
00010000
00100000
00001000
00010000
01000000
10000000
00100000
,
01000000
00000000
00010000
00000000
00100000
00000000
00001000
00000000
00010000
00000010
00010000
00000000
00000100
00000000
00001000
00000100
,
00000000
00000010
00000001
00000000
00001000
00000001
00001000
00000000
00000001
00000000
00000010
00000000
00001000
00000000
00010000
00000000
,
00001000
00000000
01000000
00000000
00010000
10000000
00100000
00000000
10000000
00100000
01000000
00000000
00010000
01000000
00010000
01000000
,
00000000
00000000
00000000
00001000
00000000
00000000
00010000
00000000
00000000
00000100
00000000
00000000
00001000
00000000
00000000
00000001
00000000
00000000
00000100
00000000
00000010
00000000
00000100
00000000
,
00000001
00000000
00001000
00000000
00000100
00010000
00001000
00000000
00010000
00001000
01000000
00000000
00010000
01000000
00010000
01000000
,
00000000
00000000
00000000
00100000
00000000
00000000
10000000
00000000
00000000
01000000
00000000
00000000
00100000
00000000
00000000
00010000
00000000
00000000
00100000
00000000
00001000
00000000
00100000
00000000
,
00010000
00000000
01000000
00000000
00001000
00010000
00000100
00000000
00010000
00000100
00001000
00000000
00000001
00000010
00000001
00000010
,
00000000
00000000
00000000
00000100
00000000
00000000
00001000
00000000
00000000
00000001
00000000
00000000
00000010
00000000
00000000
00000001
00000000
00000000
00000100
00000000
00001000
00000000
00010000
00000000
,
00001000
00000000
01000000
00000000
00010000
00000000
10000000
00000000
01000000
00100000
00010000
00000000
01000000
00000000
00001000
00010000
,
00000000
00000000
00000000
00000000
;
