
//----- song ID: arac -----//
#TITLE:ARACHNE;
#ARTIST:MAX MAXIMIZER;
#BANNER:ARACHNE.png;
#BACKGROUND:ARACHNE-bg.png;
#CDTITLE:./CDTitles/RB colette -Spring-.png;
#MUSIC:ARACHNE.ogg;
#SAMPLESTART:71.043;
#SAMPLELENGTH:15;
#BPMS:0=179;
#BGSTAGE:29;
#NOTES:
     dance-single:
     :
     Beginner:
     3:
     :
0000
0000
0000
0000
,
0000
0000
0000
0000
,
0000
0000
0000
0000
,
0000
0000
0000
0000
,
0000
0000
0000
0000
,
0001
0000
0000
0000
,
0001
0000
0000
0000
,
0010
0000
0000
0000
,
0010
0000
0000
0000
,
1000
0000
0000
0000
,
0000
0000
0000
0000
,
0000
0000
0000
0000
,
0000
0000
0000
0000
,
1000
0000
0000
0000
,
1000
0000
0000
0000
,
0010
0000
0000
0000
,
0000
0000
0000
0000
,
1000
0000
0000
0000
,
0010
0000
0000
0000
,
1000
0000
0000
0000
,
0000
0000
0000
0000
,
1000
0000
0000
0000
,
0010
0000
0000
0000
,
0001
0000
0000
0000
,
0000
0000
0000
0000
,
0001
0000
0000
0000
,
0010
0000
0000
0000
,
0001
0000
0000
0000
,
0000
0000
0000
0000
,
0001
0000
0000
0000
,
0010
0000
0000
0000
,
1000
0000
0000
0000
,
0000
0000
0000
0000
,
1001
0000
0000
0000
,
0000
0000
0000
0000
,
0000
0000
0000
0000
,
0000
0000
0000
0000
,
1001
0000
0000
0000
,
0000
0000
0000
0000
,
0000
0000
0000
0000
,
0000
0000
0000
0000
,
0010
0000
0010
0000
,
0010
0000
0000
0000
,
0100
0000
0100
0000
,
0100
0000
0000
0000
,
1000
0000
1000
0000
,
1000
0000
0000
0000
,
0001
0000
0001
0000
,
0001
0000
0000
0000
,
1001
0000
0000
0000
,
0000
0000
0000
0000
,
1001
0000
0000
0000
,
0000
0000
0000
0000
,
0001
0000
0000
0000
,
0010
0000
0000
0000
,
0001
0000
0001
0000
,
0010
0000
0000
0000
,
1000
0000
0000
0000
,
0010
0000
0000
0000
,
1000
0000
1000
0000
,
0010
0000
0000
0000
,
1000
0000
0000
0000
,
0100
0000
0000
0000
,
0001
0000
0000
0000
,
0000
0000
0000
0000
,
0001
0000
0000
0000
,
0100
0000
0000
0000
,
1000
0000
0000
0000
,
0000
0000
0000
0000
,
2000
0000
0000
0000
,
3000
0000
0000
0000
,
0020
0000
0000
0000
,
0030
0000
0000
0000
,
0002
0000
0000
0000
,
0003
0000
0000
0000
,
0020
0000
0000
0000
,
0030
0000
0000
0000
,
1000
0000
1000
0000
,
1000
0000
0000
0000
,
0001
0000
0001
0000
,
0001
0000
0000
0000
,
1001
0000
0000
0000
,
0000
0000
0000
0000
;
#NOTES:
     dance-single:
     :
     Easy:
     8:
     :
0000
0000
0000
0000
,
0000
0000
0000
0000
,
0000
0000
0000
0000
,
0000
0000
0000
0000
,
0000
0000
0000
0000
,
0001
1000
0100
0100
,
1000
0001
0100
0100
,
0010
0010
0100
0100
,
0001
1000
0001
0000
,
1001
0000
0000
0000
,
0000
0000
0000
0000
,
0000
0000
0000
0000
,
0000
0000
0000
0000
,
2000
0000
0000
3000
,
0020
0000
0000
0030
,
0200
0000
0000
0300
,
0002
0000
0000
0003
,
1000
0100
0010
0100
,
1000
0100
0010
0000
,
0001
0100
0010
0100
,
0001
0100
0010
0000
,
1000
0010
0100
0010
,
1000
0010
0100
0000
,
0001
0010
0100
0010
,
0001
0010
0100
0000
,
1000
0001
0010
0001
,
1000
0001
0100
0000
,
0001
1000
0010
1000
,
0001
1000
0100
0000
,
1000
0001
1001
0000
,
0001
1000
1001
0000
,
1001
0000
0110
0000
,
0001
1000
0110
0000
,
1001
0000
0000
0000
,
0000
0000
0000
0000
,
0000
0000
0000
0000
,
0000
0000
0000
0000
,
1001
0000
0000
0000
,
0000
0000
0000
0000
,
0000
0000
0000
0000
,
0000
0000
0000
0000
,
1001
0000
0010
0010
,
0010
0000
0000
0000
,
1001
0000
0100
0100
,
0100
0000
0000
0000
,
0110
0000
0001
0001
,
0001
0000
0000
0000
,
0110
0000
1000
1000
,
1000
0000
0000
0000
,
1001
0000
0000
0000
,
0000
0000
0000
0000
,
1001
0000
0000
0000
,
0001
1000
0001
1000
0001
1000
0001
0000
,
1000
0000
0010
0000
,
1000
0010
1000
0000
,
0001
0000
0100
0000
,
0001
0100
0001
0000
,
0010
0000
0001
0000
,
0010
0001
0010
0000
,
0100
0000
1000
0000
,
0100
1000
0100
0000
,
1000
0001
0010
0000
,
0100
1000
0001
0000
,
0001
1000
0010
0000
,
0100
0001
1000
0000
,
0001
0001
1000
0000
,
1000
1000
0001
0000
,
0001
0010
0100
1000
,
0100
0010
0001
0000
,
2000
0000
0000
3000
,
0002
0000
0000
0003
,
0020
0000
0000
0030
,
0200
0000
0000
0300
,
1000
1000
0001
0000
,
0001
0001
1000
0000
,
0100
0100
0010
0000
,
0010
0010
0100
0000
,
0110
0000
1001
0000
,
0110
0000
1001
0000
,
1000
0001
0100
0010
,
1000
0001
1000
0000
,
1001
0000
0000
0000
,
0000
0000
0000
0000
;
#NOTES:
     dance-single:
     :
     Medium:
     12:
     :
0000
0000
0000
0000
,
0000
0000
0000
0000
,
0000
0000
0000
0000
,
0000
0000
0000
0000
,
0000
0000
0000
0000
,
0001
0000
0000
0001
1000
0000
0100
0000
0010
0000
0001
0000
0010
0000
0001
0000
,
1000
0000
0000
1000
0001
0000
0100
0000
0010
0000
1000
0000
0010
0000
1000
0000
,
0001
0000
0000
0100
0000
0000
0001
0000
1000
0000
0000
0100
0000
0000
1000
0000
,
0001
0010
0001
1000
0010
1000
0001
0000
,
2002
0000
0000
0000
,
0000
0000
0000
0000
,
0000
0000
0000
0000
,
0000
0000
0000
3003
,
1000
0000
0000
0010
0000
0000
1000
0000
0010
0000
1000
0000
0010
0000
0000
0000
,
0100
0000
0000
0001
0000
0000
0100
0000
0001
0000
0100
0000
0001
0000
0000
0000
,
0001
0000
0000
0010
0000
0000
0001
0000
0010
0000
0001
0000
0010
0000
0000
0000
,
0100
0000
0000
1000
0000
0000
0100
0000
1000
0000
0100
0000
1000
0000
0000
0000
,
0001
0000
0000
0100
0000
0000
0101
0000
0000
0000
0001
0000
0010
0000
0100
0000
,
1000
0000
0000
0100
0000
0000
1100
0000
0000
0000
1000
0000
0010
0000
0100
0000
,
0001
0000
0000
0010
0000
0000
0011
0000
0000
0000
0001
0000
1000
0000
0010
0000
,
0100
0000
0000
0001
0000
0000
1001
0000
1000
0000
0010
0000
0001
0000
0010
0000
,
1000
0000
0000
0100
0000
0000
1100
0000
0000
0000
1000
0000
0010
0000
0100
0000
,
0001
0000
0000
0100
0000
0000
0101
0000
0000
0000
0001
0000
0010
0000
0100
0000
,
1000
0000
0000
0010
0000
0000
1010
0000
1000
0000
0000
0001
0000
0000
0011
0000
,
0010
0000
0000
0100
0000
0000
0110
0000
0000
0000
1000
0000
0001
0000
1000
0000
,
0001
0000
0000
0100
0000
0000
1000
0000
0000
0000
1000
0000
0100
0000
0001
0000
,
1000
0000
0000
0100
0000
0000
0001
0000
0000
0000
0001
0000
0100
0000
1000
0000
,
0001
0000
0000
0010
0000
0000
1000
0000
1000
0000
0000
0010
0000
0000
0001
0000
,
1000
0000
0000
0010
0000
0000
0001
0000
0000
0000
0001
0000
0010
0000
1000
0000
,
0001
0000
0000
0100
0000
0000
0010
0000
0000
0000
1000
0000
1000
0000
1000
0000
,
1000
0000
0000
0100
0000
0000
0010
0000
0000
0000
0001
0000
0001
0000
0001
0000
,
0001
0000
0000
0100
0000
0000
0010
0000
1000
0000
0000
0100
0000
0000
0010
0000
,
0001
0000
0000
0100
0000
0000
0010
0000
0000
0000
1000
0000
1000
0000
0000
0000
,
1001
0000
0000
0000
,
0000
0000
0000
0000
,
0110
0000
0000
0000
,
0000
0000
0000
0000
,
1001
0000
0000
0000
,
0000
0000
0000
0000
,
0110
0000
0000
0000
,
0000
0000
0000
0000
,
1001
0000
0000
0000
0001
0001
1000
1000
,
1001
0000
0000
0000
0100
0010
0000
0010
,
0100
0000
0000
0000
0010
0010
0100
0100
,
0110
0000
0000
1000
0001
1000
0000
0001
,
1000
0000
0000
0000
0100
0100
0010
0010
,
0110
0000
0000
0000
0001
1000
0000
1000
,
0001
0000
1001
0000
1000
1000
0001
0001
,
0000
0001
1000
0001
1000
0001
1000
0000
,
1001
0000
0000
0000
,
0000
0000
0000
0000
,
1001
0000
0000
0000
,
1000
0100
0010
0001
1000
0100
0010
0000
,
0001
0000
0000
0100
0000
0000
0001
0000
0000
0000
0010
0000
0100
0000
1000
0000
,
0010
0000
0000
0100
0000
0000
0010
0000
0000
0000
1000
0000
0001
0000
1000
0000
,
0001
0000
0000
0100
0000
0000
0001
0000
0000
0000
1000
0000
0010
0000
1000
0000
,
0100
0000
0000
1000
0000
0000
0100
0000
0010
0000
0010
0000
0001
0000
0000
0000
,
1000
0000
0000
0010
0000
0000
1000
0000
0000
0000
0100
0000
0010
0000
0001
0000
,
0100
0000
0000
0010
0000
0000
0100
0000
0000
0000
0001
0000
1000
0000
0001
0000
,
1000
0000
0000
0010
0000
0000
1000
0000
0001
0000
0000
0100
0000
0000
0001
0000
,
0010
0000
0000
0001
0000
0000
0010
0000
0000
0000
0010
0000
0100
0000
1000
0000
,
0001
0000
0000
0001
0100
0000
0010
0000
1000
0000
0010
0000
1000
0000
0001
0000
,
1000
0000
0000
1000
0100
0000
0010
0000
0001
0000
1000
0000
0001
0000
0000
0000
,
1000
0000
0000
1000
0010
0000
0100
0000
0001
0000
0000
0001
0010
0000
0100
0000
,
1000
0000
0000
1000
0001
0000
0100
0000
0001
0000
1000
0000
0010
0000
0000
0000
,
1000
0000
0000
1000
0010
0000
0100
0000
0001
0000
0100
0000
1000
0000
0100
0000
,
0001
0000
0000
0001
0010
0000
0100
0000
1000
0000
0100
0000
0001
0000
0100
0000
,
1000
0000
0000
0100
0000
0000
1100
0000
0001
0000
0000
0100
0000
0000
0101
0000
,
1000
0000
0000
0010
0000
0000
1010
0000
0000
0000
0001
0000
0001
0000
1000
0000
,
0001
0000
0000
0001
0000
0000
0001
0000
0001
0000
0001
0000
0001
0000
0001
0000
,
1000
0000
0000
1000
0000
0000
1000
0000
1000
0000
1000
0000
1000
0000
1000
0000
,
0010
0000
0000
0010
0000
0000
0010
0000
0010
0000
0010
0000
0010
0000
0010
0000
,
0100
0000
0000
0100
0000
0000
0100
0000
0100
0000
0100
0000
0100
0000
0000
0000
,
1001
0000
0000
0001
0000
0000
0100
0000
0000
0000
0010
0000
0100
0000
0010
0000
,
1001
0000
0000
1000
0000
0000
0100
0000
0000
0000
0010
0000
0100
0000
0010
0000
,
1001
0000
0000
0001
0000
0000
1000
0000
1001
0000
0000
1000
0000
0000
0001
0000
,
1001
0000
0000
0001
0000
0000
1000
0000
0000
0000
0001
0000
1000
0000
0001
0000
,
2000
3100
0022
0033
,
0002
0103
2020
3030
,
1001
0001
0010
0000
1001
1000
0010
0000
,
1000
0000
0100
0000
0010
0000
0001
0000
1000
0001
1000
0000
0001
0000
0000
0000
,
1001
0000
0000
0000
,
0000
0000
0000
0000
;
#NOTES:
     dance-single:
     :
     Hard:
     16:
     :
0000
0000
0000
0000
,
0000
0000
0000
0000
,
0000
0000
0000
0000
,
0000
0000
0000
0000
,
0000
0000
0000
0000
,
0001
0000
0000
0010
0001
0000
0100
0000
0001
0000
1000
0100
0010
0000
0001
0000
,
1000
0000
0000
0010
1000
0000
0100
0000
1000
0000
0001
0000
0010
0000
0100
0000
,
1100
0000
0000
0001
0000
0000
0001
0000
0011
0000
0000
1000
0000
0000
1000
0000
,
1010
0001
0101
0100
0110
0010
1010
0001
,
2002
0000
0000
0000
,
0000
0000
0000
0000
,
0000
0000
0000
0000
,
0000
0000
0000
3003
,
1000
0000
0000
1000
0000
0000
1000
0000
0100
0000
0010
0000
0100
0000
0010
0000
,
0001
0000
0000
0001
0000
0000
0001
0000
0100
0000
0010
0000
0100
0000
0010
0000
,
1000
0000
0000
1000
0000
0000
1000
0000
0010
0000
0100
0000
0010
0000
0100
0000
,
0001
0000
0000
0001
0000
0000
0001
0000
0010
0000
0100
0010
0100
0000
0000
0000
,
1001
0000
0000
1000
0100
0000
0010
0000
0001
0000
0100
0000
0001
0000
0010
0000
,
1001
0000
0000
0001
0100
0000
0010
0000
1000
0000
0100
0000
1000
0000
0010
0000
,
1001
0000
0000
1000
0010
0000
0100
0000
0001
0000
0010
0000
0001
0000
0100
0000
,
1001
0000
0000
0001
0010
0000
0100
0000
1000
0000
1000
0000
0010
0000
0010
0000
,
1001
0000
0000
0001
0100
0000
1000
0000
0001
0000
0010
0000
1000
0000
1000
0000
,
1001
0000
0000
1000
0100
0000
0001
0000
1000
0000
0010
0000
0001
0000
0001
0000
,
1001
0000
0000
0100
0000
0000
0010
0000
1001
0000
0000
0010
0000
0000
0100
0000
,
1001
0000
0000
0110
0000
0000
1001
0000
0000
0000
1000
0000
1000
0000
1000
0000
,
0001
0000
0100
0010
1000
0000
0001
0000
0200
0000
0010
0000
0010
0000
0310
0000
,
0110
0000
0001
0100
0010
0000
1000
0000
0200
0000
0010
0000
0010
0000
0310
0000
,
0110
0000
0001
0010
0100
0000
1000
0000
0110
0000
1000
0010
0100
0000
0001
0000
,
1001
0000
1000
0100
0010
0000
0001
0000
2000
0000
0001
0000
0001
0000
3001
0000
,
1001
0000
0001
0100
0010
0000
1000
0000
0200
0000
0310
0000
0020
0000
0031
0000
,
1001
0000
1000
0010
0100
0000
0001
0000
0020
0000
0130
0000
0200
0000
1300
0000
,
1100
0000
0000
0001
0000
0000
0001
0000
0011
0000
0000
1000
0000
0000
1000
0000
,
1010
0000
1000
0001
1000
0000
0001
0000
0101
0000
0100
0010
0100
0000
0010
0000
,
2002
0000
0000
0000
,
0000
0000
0000
3003
,
0220
0000
0000
0000
,
0000
0000
0000
0330
,
2002
0000
0000
0000
,
0000
0000
0000
3003
,
0220
0000
0000
0000
,
0000
0000
0000
0330
,
1001
0000
0000
0000
1100
1100
0110
0110
,
0011
0000
0000
0000
0001
1000
0000
0001
,
1001
0000
0000
0000
0101
0101
0110
0110
,
1010
0000
0000
0000
0000
0000
1000
0100
0010
0000
0001
0000
0000
0000
0001
0000
,
1001
0000
0000
0000
1010
0101
1010
0101
,
1010
0000
0000
0000
1000
0001
0000
0001
,
0011
0000
1000
0000
0011
1100
0011
1100
,
0000
1100
0011
0100
1010
0100
0011
0000
,
2002
0000
0000
0000
,
0000
0000
0000
3003
,
1001
0000
0000
0000
,
0001
1000
0001
1000
0001
1000
0001
1000
0001
1000
0001
1000
0001
1000
0000
0000
,
0001
0000
0100
0001
1000
0000
0001
0000
0100
0000
0001
0010
0001
0010
0001
0000
,
1000
0000
0100
1000
0001
0000
1000
0000
0000
0000
0010
0100
0010
0100
0010
0000
,
1000
0000
0100
1000
0001
0000
1000
0000
0100
0000
1000
0010
1000
0010
1000
0000
,
0001
0000
0100
0010
1000
0000
0010
0000
0100
0000
0001
0000
1000
0000
1000
0000
,
0001
0000
0010
0001
1000
0000
0001
0000
0010
0000
0001
1000
0010
1000
0010
0000
,
1000
0000
0010
1000
0001
0000
1000
0000
0010
0000
0100
0010
0100
0010
1000
0000
,
1010
0000
1000
0010
0100
0000
0001
0000
0011
0000
0001
0010
0100
0000
1000
0000
,
1100
0000
1000
0001
0010
0000
0100
0000
1000
0000
0010
0000
1000
0000
1000
0000
,
0010
0000
0100
0010
1000
0000
0010
0000
0100
0000
0001
1000
0001
1000
0001
0000
,
0010
0000
0100
0010
0001
0000
0010
0000
0100
0000
1000
0001
0100
0001
0100
0000
,
0001
0000
0100
0010
1000
0000
0001
0000
1000
0000
0100
0010
0001
0000
1000
0000
,
0001
0000
0100
0010
1000
0000
0001
0000
0100
0000
0010
1000
0010
1000
0010
0000
,
1000
0000
0000
0001
0100
0000
1000
0000
0100
0000
0010
0100
0010
0100
0010
0000
,
1000
0000
0100
0001
0100
0000
1000
0000
0001
0000
0010
0100
0010
0100
1000
0000
,
1001
0000
0001
0100
0010
0000
1000
0000
1001
0000
1000
0100
0010
0000
0001
0000
,
1001
0000
0001
0100
0010
0000
1000
0000
0100
0000
0010
0000
0001
1000
0001
1000
,
0100
0000
0000
0100
0000
0000
0100
0000
0010
0000
0001
0000
1000
0000
0010
0000
,
0100
0000
0000
0100
0000
0000
0100
0000
0001
0000
1000
0000
0100
0000
0010
0000
,
0001
0000
0000
0001
0000
0000
0001
0000
0010
0000
0001
0000
0100
0000
0010
0000
,
1000
0000
0000
1000
0000
0000
1000
0000
0010
0000
0100
0000
0001
0100
0001
0100
,
0010
0000
0100
0001
1000
0000
0001
0000
0010
0000
0100
0000
0001
0000
1000
0000
,
0010
0000
0100
0010
0001
0000
1000
0000
0001
0000
0100
0000
1000
0000
0001
0000
,
0010
0000
0100
0001
1000
0000
0100
0000
0010
0000
0001
1000
0010
0000
0100
0000
,
0001
0000
0010
0100
1000
0000
0010
0000
0100
0000
0001
0000
0001
0000
0001
0000
,
1000
0000
0100
0010
0100
0000
1000
0000
2020
0000
0000
0030
0002
0000
0000
0003
,
3010
0000
1000
0100
1000
0000
0001
0000
0022
0000
0000
0030
2000
0000
0000
3003
,
0110
0000
1000
0000
0001
0010
0001
0000
0110
0000
1000
0000
0001
0100
0001
0000
,
1000
0000
0010
0000
1000
0000
0010
0000
0100
0001
0100
0001
0100
0001
0100
0001
,
1000
0000
0000
0000
,
0000
0000
0000
0000
;
#NOTES:
     dance-double:
     :
     Easy:
     8:
     :
00000000
00000000
00000000
00000000
,
00000000
00000000
00000000
00000000
,
00000000
00000000
00000000
00000000
,
00000000
00000000
00000000
00000000
,
00000000
00000000
00000000
00000000
,
10000000
00000000
01000000
00000000
,
00100000
00000000
00001000
00000000
,
00010000
00010000
00000100
00000100
,
00001000
00000000
00000001
00000000
,
00001001
00000000
00000000
00000000
,
00000000
00000000
00000000
00000000
,
00000000
00000000
00000000
00000000
,
00000000
00000000
00000000
00000000
,
00000002
00000000
00000000
00000003
,
00002000
00000000
00000000
00003000
,
00000200
00000000
00000000
00000300
,
00020000
00000000
00000000
00030000
,
00001000
00100000
00001000
00000000
,
00100000
00001000
00100000
00000000
,
00001000
01000000
00001000
00000000
,
01000000
00001000
00010000
00000000
,
00000010
00010000
00000010
00000000
,
00010000
00000010
00010000
00000000
,
00000100
00010000
00000100
00000000
,
00010000
00000100
00010000
00000000
,
00001000
00010000
00001000
01000000
,
00010000
00100000
00010000
00000000
,
00100000
00010000
10000000
00100000
,
01000000
00100000
10000000
00000000
,
10000000
00100000
01000000
00010000
,
00100000
00010000
01000000
00000000
,
01000000
00010000
00100000
00001000
,
00010000
00000100
00010000
00000000
,
00011000
00000000
00000000
00000000
,
00000000
00000000
00000000
00000000
,
00000000
00000000
00000000
00000000
,
00000000
00000000
00000000
00000000
,
00011000
00000000
00000000
00000000
,
00000000
00000000
00000000
00000000
,
00000000
00000000
00000000
00000000
,
00000000
00000000
00000000
00000000
,
00011000
00000000
00010000
00000010
,
00001000
00000000
00000010
00000000
,
00000110
00000000
00000001
00001000
,
00000001
00000000
00000100
00000000
,
00000110
00000000
00000010
00010000
,
00001000
00000000
00010000
00000000
,
00001000
00001000
00100000
00100000
,
00010000
00100000
01000000
00000000
,
01100000
00000000
00000000
00000000
,
00000000
00000000
00000000
00000000
,
10010000
00000000
00000000
00000000
,
00010000
10000000
00010000
10000000
00010000
10000000
00010000
00000000
,
10000000
01000000
00100000
00000000
,
01000000
00100000
00010000
00000000
,
00100000
00001000
00010000
00000000
,
00001000
00010000
00001000
00000000
,
00001000
00010000
00000100
00000000
,
00001000
00000100
00000010
00000000
,
00000001
00000000
00000110
00000000
,
00000001
00001000
00000001
00000000
,
00000001
00000010
00000001
00001000
,
00000010
00000000
00000100
00000000
,
00000010
00000100
00001000
00010000
,
00001000
00000000
00010000
00000000
,
00001000
00100000
00001000
01000000
,
00010000
00000000
01000000
00000000
,
00010000
00100000
01000000
10000000
,
00010000
00000000
10000000
00000000
,
00020000
00000000
00000000
00030000
,
00200000
00000000
00000000
00300000
,
00002000
00000000
00000000
00003000
,
00020000
00000000
00000000
00030000
,
00001000
00001000
00010000
00000000
,
00010000
00010000
00000010
00000000
,
00000010
00000010
00001000
00000000
,
00001000
00001000
00000001
00000000
,
00000110
00000000
00001001
00000000
,
00000001
00000100
00001000
00000000
,
00011000
00000000
00011000
00000000
,
00010000
00100000
10000000
00000000
,
10010000
00000000
00000000
00000000
,
00000000
00000000
00000000
00000000
;
#NOTES:
     dance-double:
     :
     Medium:
     12:
     :
00000000
00000000
00000000
00000000
,
00000000
00000000
00000000
00000000
,
00000000
00000000
00000000
00000000
,
00000000
00000000
00000000
00000000
,
00000000
00000000
00000000
00000000
,
10000000
00000000
00000000
10000000
00010000
00000000
10000000
00000000
01000000
00000000
00100000
00000000
01000000
00000000
00100000
00000000
,
00001000
00000000
00000000
00001000
00010000
00000000
00001000
00000000
00010000
00000000
00000010
00000000
00001000
00000000
00000010
00000000
,
00000100
00000000
00000000
00000001
00000000
00000000
00000010
00000000
00000100
00000000
00000000
00001000
00000000
00000000
00000010
00000000
,
00000100
00000001
00001000
00000010
00010000
00001000
01000000
00000000
,
02200000
00000000
00000000
00000000
,
00000000
00000000
00000000
00000000
,
00000000
00000000
00000000
00000000
,
00000000
00000000
00000000
03300000
,
10000000
00000000
00000000
00100000
00000000
00000000
10000000
00000000
01000000
00000000
10000000
00000000
01000000
00000000
00000000
00000000
,
00100000
00000000
00000000
00010000
00000000
00000000
00100000
00000000
00001000
00000000
00010000
00000000
00001000
00000000
00000000
00000000
,
00010000
00000000
00000000
00000010
00000000
00000000
00010000
00000000
00000010
00000000
00001000
00000000
00000010
00000000
00000000
00000000
,
00001000
00000000
00000000
00000100
00000000
00000000
00001000
00000000
00000001
00000000
00000010
00000000
00000001
00000000
00000000
00000000
,
00000001
00000000
00000000
00001000
00000000
00000000
00000001
00000000
00000000
00000000
00000001
00000000
00000010
00000000
00000100
00000000
,
00001000
00000000
00000000
00000100
00000000
00000000
00010000
00000000
00000000
00000000
00010000
00000000
00001000
00000000
00010000
00000000
,
00001000
00000000
00000000
01000000
00000000
00000000
00010000
00000000
00000000
00000000
00010000
00000000
00100000
00000000
01000000
00000000
,
10000000
00000000
00000000
00100000
00000000
00000000
10000000
00000000
01000000
00000000
00100000
00000000
01000000
00000000
00000000
00000000
,
10000000
00000000
00000000
00010000
00000000
00000000
10000000
00000000
00000000
00000000
10000000
00000000
00100000
00000000
01000000
00000000
,
00010000
00000000
00000000
01000000
00000000
00000000
00001000
00000000
00000000
00000000
00001000
00000000
00010000
00000000
00001000
00000000
,
00010000
00000000
00000000
00000100
00000000
00000000
00001000
00000000
00000010
00000000
00000000
00001000
00000000
00000000
00000100
00000000
,
00000010
00000000
00000000
00000001
00000000
00000000
00001000
00000000
00000000
00000000
00000001
00000000
00001000
00000000
00000000
00000000
,
00000001
00000000
00000000
00000100
00000000
00000000
00001000
00000000
00000000
00000000
00010000
00000000
00100000
00000000
00010000
00000000
,
00001000
00000000
00000000
00010000
00000000
00000000
01000000
00000000
00000000
00000000
10000000
00000000
00010000
00000000
01000000
00000000
,
00100000
00000000
00000000
00010000
00000000
00000000
00001000
00000000
00000100
00000000
00000000
00000010
00000000
00000000
00001000
00000000
,
00000100
00000000
00000000
00000001
00000000
00000000
00000100
00000000
00000000
00000000
00000100
00000000
00000010
00000000
00000001
00000000
,
00001000
00000000
00000000
00001000
00000010
00000000
00010000
00000000
00000000
00000000
00001000
00000000
00001000
00000000
00001000
00000000
,
00100000
00000000
00000000
00100000
00010000
00000000
01000000
00000000
00000000
00000000
00100000
00000000
00100000
00000000
00100000
00000000
,
10000000
00000000
00000000
01000000
00000000
00000000
00100000
00000000
00010000
00000000
00000000
00001000
00000000
00000000
00000100
00000000
,
00000010
00000000
00000000
00000001
00000000
00000000
00001000
00000000
00000000
00000000
00000001
00000000
00000001
00000000
00000000
00000000
,
00001001
00000000
00000000
00000000
,
00000000
00000000
00000000
00000000
,
00000110
00000000
00000000
00000000
,
00000000
00000000
00000000
00000000
,
00011000
00000000
00000000
00000000
,
00000000
00000000
00000000
00000000
,
01100000
00000000
00000000
00000000
,
00000000
00000000
00000000
00000000
,
10010000
00000000
00000000
00000000
10000000
01000000
00100000
00010000
,
10010000
00000000
00000000
00000000
10000000
01000000
00000000
00010000
,
00001000
00000000
00000000
00000000
00010000
00000100
00001000
00000010
,
00000110
00000000
00000000
00000001
00001000
00000001
00000000
00001000
,
00000001
00000000
00000000
00000000
00000001
00000100
00000010
00001000
,
00001001
00000000
00000000
00000000
00000001
00000100
00000000
00001000
,
00010000
00000000
00011000
00000000
00001000
00010000
00100000
10000000
,
00000000
00100000
01000000
00100000
01000000
00100000
01000000
00000000
,
01100000
00000000
00000000
00000000
,
00000000
00000000
00000000
00000000
,
10010000
00000000
00000000
00000000
,
10000000
01000000
00100000
00001000
00010000
00000100
00001000
00000000
,
00000001
00000000
00000000
00001000
00000000
00000000
00000001
00000000
00000000
00000000
00000100
00000000
00000010
00000000
00001000
00000000
,
00000010
00000000
00000000
00010000
00000000
00000000
00001000
00000000
00000000
00000000
00001000
00000000
00010000
00000000
00001000
00000000
,
00010000
00000000
00000000
00001000
00000000
00000000
00100000
00000000
00000000
00000000
00010000
00000000
01000000
00000000
00010000
00000000
,
00100000
00000000
00000000
01000000
00000000
00000000
10000000
00000000
00010000
00000000
00010000
00000000
10000000
00000000
00000000
00000000
,
10000000
00000000
00000000
00010000
00000000
00000000
10000000
00000000
00000000
00000000
01000000
00000000
00100000
00000000
00010000
00000000
,
00100000
00000000
00000000
00001000
00000000
00000000
00010000
00000000
00000000
00000000
00010000
00000000
00001000
00000000
00010000
00000000
,
00001000
00000000
00000000
00010000
00000000
00000000
00000010
00000000
00001000
00000000
00000000
00000100
00000000
00000000
00001000
00000000
,
00000010
00000000
00000000
00000100
00000000
00000000
00000001
00000000
00000000
00000000
00000001
00000000
00001000
00000000
00000000
00000000
,
00000001
00000000
00000000
00000001
00000010
00000000
00000100
00000000
00000001
00000000
00000100
00000000
00001000
00000000
00000100
00000000
,
00010000
00000000
00000000
00010000
00001000
00000000
00100000
00000000
00010000
00000000
00100000
00000000
01000000
00000000
00000000
00000000
,
10000000
00000000
00000000
10000000
00100000
00000000
01000000
00000000
10000000
00000000
00000000
01000000
00010000
00000000
01000000
00000000
,
00001000
00000000
00000000
00001000
00010000
00000000
00000010
00000000
00001000
00000000
00000010
00000000
00000100
00000000
00000000
00000000
,
00000001
00000000
00000000
00000001
00000010
00000000
00000100
00000000
00001000
00000000
00000010
00000000
00000100
00000000
00001000
00000000
,
00010000
00000000
00000000
00010000
00100000
00000000
01000000
00000000
00010000
00000000
00100000
00000000
01000000
00000000
10000000
00000000
,
00010000
00000000
00000000
00100000
00000000
00000000
00110000
00000000
00010000
00000000
00000000
01000000
00000000
00000000
01001000
00000000
,
00001000
00000000
00000000
00010000
00000000
00000000
00011000
00000000
00000000
00000000
00010000
00000000
00001000
00000000
00010000
00000000
,
00000100
00000000
00000000
00000100
00000000
00000000
00000100
00000000
00010000
00000000
00010000
00000000
00010000
00000000
00010000
00000000
,
00001000
00000000
00000000
00001000
00000000
00000000
00001000
00000000
01000000
00000000
01000000
00000000
01000000
00000000
01000000
00000000
,
00010000
00000000
00000000
00010000
00000000
00000000
00010000
00000000
00100000
00000000
00100000
00000000
00100000
00000000
00100000
00000000
,
00001000
00000000
00000000
00001000
00000000
00000000
00001000
00000000
00010000
00000000
00010000
00000000
00010000
00000000
00000000
00000000
,
00011000
00000000
00000000
00010000
00000000
00000000
00000010
00000000
00000000
00000000
00001000
00000000
00000010
00000000
00000100
00000000
,
00001001
00000000
00000000
00000001
00000000
00000000
00000010
00000000
00000000
00000000
00000010
00000000
00001000
00000000
00010000
00000000
,
00011000
00000000
00000000
00001000
00000000
00000000
00100000
00000000
00110000
00000000
00000000
00010000
00000000
00000000
01000000
00000000
,
01100000
00000000
00000000
00100000
00000000
00000000
10000000
00000000
00000000
00000000
10000000
00000000
00010000
00000000
10000000
00000000
,
00100000
01000000
00010000
00000000
01010000
00000000
01001000
00000000
,
00001000
00010000
00000010
00000000
00001010
00000000
00001100
00000000
,
00000100
00000010
00000001
00000000
00000100
00000010
00001000
00000000
,
00000001
00000000
00000100
00000000
00001000
00000000
00010000
00000000
00001000
00010000
00001000
00000000
00010000
00000000
00000000
00000000
,
00011000
00000000
00000000
00000000
,
00000000
00000000
00000000
00000000
;
#NOTES:
     dance-double:
     :
     Hard:
     16:
     :
00000000
00000000
00000000
00000000
,
00000000
00000000
00000000
00000000
,
00000000
00000000
00000000
00000000
,
00000000
00000000
00000000
00000000
,
00000000
00000000
00000000
00000000
,
10000000
00000000
00000000
10000000
01000000
00000000
00100000
00000000
00010000
00000000
00100000
01000000
00100000
00000000
00001000
00000000
,
00010000
00000000
00000000
00010000
00001000
00000000
00000010
00000000
00000001
00000000
00000100
00000000
00000001
00000000
00000010
00000000
,
00000110
00000000
00000000
00000001
00000000
00000000
00000001
00000000
00000110
00000000
00000000
00001000
00000000
00000000
00001000
00000000
,
00000001
00000100
00000010
00001000
00010000
01000000
00100000
10000000
,
20020000
00000000
00000000
00000000
,
00000000
00000000
00000000
00000000
,
00000000
00000000
00000000
00000000
,
00000000
00000000
00000000
30030000
,
10000000
00000000
00000000
10000000
00000000
00000000
10000000
00000000
01000000
00000000
00100000
00000000
01000000
00000000
00100000
00000000
,
00010000
00000000
00000000
00010000
00000000
00000000
00010000
00000000
00100000
00000000
00001000
00000000
00010000
00000000
00001000
00000000
,
00010000
00000000
00000000
00010000
00000000
00000000
00010000
00000000
00000010
00000000
00001000
00000000
00000010
00000000
00000100
00000000
,
00000001
00000000
00000000
00000001
00000000
00000000
00000001
00000000
00001000
00000000
00000001
00001000
00000001
00000000
00000000
00000000
,
00001001
00000000
00000000
00000001
00000010
00000000
00000100
00000000
00001000
00000000
00000100
00000000
00000010
00000000
00000001
00000000
,
00001000
00000000
00000000
00001000
00000100
00000000
00010000
00000000
00001000
00000000
00100000
00000000
00010000
00000000
01000000
00000000
,
01100000
00000000
00000000
00100000
10000000
00000000
00010000
00000000
01000000
00000000
10000000
00000000
00010000
00000000
00100000
00000000
,
01000000
00000000
00000000
01000000
00001000
00000000
00010000
00000000
00001000
00000000
00100000
00000000
00010000
00000000
00010000
00000000
,
10010000
00000000
00000000
10000000
00100000
00000000
01000000
00000000
00010000
00000000
01000000
00000000
00100000
00000000
10000000
00000000
,
00010000
00000000
00000000
00010000
01000000
00000000
00001000
00000000
00010000
00000000
00000010
00000000
00001000
00000000
00000100
00000000
,
00000110
00000000
00000000
00000010
00000001
00000000
00001000
00000000
00000100
00000000
00000000
00000100
00010000
00000000
00001000
00000000
,
00010000
00000000
00000000
00010000
00001000
00000000
00100000
00000000
00010000
00000000
01000000
00000000
00100000
00000000
00100000
00000000
,
10000000
00000000
00010000
01000000
00010000
00000000
00100000
00000000
02000000
00000000
10000000
00000000
10000000
00000000
13000000
00000000
,
01000000
00000000
00100000
00001000
00010000
00000000
00000100
00000000
00002000
00000000
00000010
00000000
00000010
00000000
00003010
00000000
,
00001000
00000000
00000100
00010000
00000100
00000000
00001000
00000000
00010000
00000000
00001000
00000100
00001000
00000000
00000010
00000000
,
00010000
00000000
00000010
00001000
00000010
00000000
00000100
00000000
00000002
00000000
00001000
00000000
00001000
00000000
00001003
00000000
,
00000001
00000000
00001000
00000100
00001000
00000000
00000010
00000000
00000200
00000000
00000001
00000000
00000001
00000000
00000301
00000000
,
00000100
00000000
00000010
00010000
00001000
00000000
01000000
00000000
00020000
00000000
00100000
00000000
00100000
00000000
00130000
00000000
,
00010000
00000000
01000000
00001000
01000000
00000000
00010000
00000000
00001000
00000000
00010000
01000000
00010000
00000000
00100000
00000000
,
00001000
00000000
00100000
00010000
00100000
00000000
01000000
00000000
20000000
00000000
00010000
00000000
00010000
00000000
30010000
00000000
,
20020000
00000000
00000000
00000000
,
00000000
00000000
00000000
30030000
,
00022000
00000000
00000000
00000000
,
00000000
00000000
00000000
00033000
,
00002002
00000000
00000000
00000000
,
00000000
00000000
00000000
00003003
,
00022000
00000000
00000000
00000000
,
00000000
00000000
00000000
00033000
,
00011000
00000000
00000000
00000000
01001000
01001000
01010000
01010000
,
01100000
00000000
00000000
00000000
00100000
10000000
00000000
00010000
,
10010000
00000000
00000000
00000000
10010000
10010000
01010000
01010000
,
01001000
00000000
00000000
00000000
00000000
00000000
00001000
00010000
00001000
00000000
00010000
00000000
00000000
00000000
00001000
00000000
,
00011000
00000000
00000000
00000000
00010100
00010100
00001100
00001100
,
00000110
00000000
00000000
00000000
00000010
00000001
00000000
00001000
,
00001001
00000000
00000110
00000000
00000101
00000001
00001000
00001100
,
00000000
00001100
00010100
00010000
00011000
00001000
01001000
01000000
,
02020000
00000000
00000000
00000000
,
00000000
00000000
00000000
03030000
,
10010000
00000000
00000000
00000000
,
00010000
10000000
00010000
10000000
00010000
10000000
00010000
10000000
00010000
10000000
00010000
10000000
00010000
10000000
00000000
00000000
,
00010000
00000000
01000000
00100000
01000000
00000000
00010000
00000000
10000000
00000000
01000000
00100000
00010000
00000000
00100000
00000000
,
00001000
00000000
00010000
00000010
00010000
00000000
00001000
00000000
00000100
00000000
00000010
00000100
00000010
00000100
00000010
00000000
,
00001000
00000000
00000100
00010000
00000100
00000000
00001000
00000000
00000010
00000000
00000100
00000001
00000100
00000000
00000010
00000000
,
00001000
00000000
00000100
00000010
00000001
00000000
00001000
00000000
00000100
00000000
00000100
00000000
00000010
00000000
00000010
00000000
,
00000001
00000000
00000010
00000100
00001000
00000000
00000010
00000000
00000100
00000000
00001000
00010000
00001000
00000000
00010000
00000000
,
00100000
00000000
01000000
00010000
01000000
00000000
00100000
00000000
10000000
00000000
01000000
00100000
01000000
00100000
01000000
00000000
,
10000000
00000000
00000000
10000000
01000000
00000000
00010000
00000000
00001000
00000000
00000000
00001000
00000010
00000000
00000001
00000000
,
00000100
00000000
00000000
00000100
00001000
00000000
00010000
00000000
00100000
00000000
00100000
00000000
10000000
00000000
10000000
00000000
,
00010000
00000000
01000000
00100000
10000000
00000000
01000000
00000000
00010000
00000000
00001000
00010000
00001000
00010000
00001000
00000000
,
00010000
00000000
00000010
00001000
00000100
00000000
00000001
00000000
00001000
00000000
00000010
00000100
00000010
00000001
00000010
00000000
,
00000001
00000000
00000010
00000100
00001000
00000000
00000010
00000000
00010000
00000000
00001000
00000100
00001000
00000000
00010000
00000000
,
00000100
00000000
00001000
00000100
00000010
00000000
00000001
00000000
00000100
00000000
00000010
00000100
00000010
00000100
00000010
00000000
,
00001000
00000000
00000100
00000010
00000001
00000000
00000100
00000000
00001000
00000000
00010000
00001000
00010000
00001000
00010000
00000000
,
00001000
00000000
00100000
00010000
01000000
00000000
10000000
00000000
00010000
00000000
00100000
01000000
00100000
10000000
00100000
00000000
,
10000000
00000000
00100000
01000000
00010000
00000000
00100000
00000000
00001000
00000000
00010000
01000000
00010000
00000000
00001000
00000000
,
01000000
00000000
00010000
01000000
00100000
00000000
10000000
00000000
01000000
00000000
00100000
01000000
00100000
01000000
00100000
00000000
,
00010000
00000000
00000000
00010000
00000000
00000000
00010000
00000000
10000000
00000000
00100000
00000000
00010000
00000000
00001000
00000000
,
00000100
00000000
00000000
00000100
00000000
00000000
00000100
00000000
00000001
00000000
00000010
00000000
00001000
00000000
00010000
00000000
,
01000000
00000000
00000000
01000000
00000000
00000000
01000000
00000000
00100000
00000000
00001000
00000000
00010000
00000000
00000010
00000000
,
00001000
00000000
00000000
00001000
00000000
00000000
00001000
00000000
00000100
00000000
00010000
00000000
00001000
00010000
00001000
00010000
,
00001000
00000000
00000000
00001000
00010000
00000000
00100000
00000000
01000000
00000000
00010000
00000000
00100000
00000000
01000000
00000000
,
10000000
00000000
00000000
10000000
01000000
00000000
00010000
00000000
00001000
00000000
00000010
00000000
00000001
00000000
00001000
00000000
,
00000100
00000000
00000000
00000001
00000100
00000000
00001000
00000000
00000001
00000000
00000000
00000100
00001000
00000000
00010000
00000000
,
00100000
00000000
00000000
10000000
00010000
00000000
00100000
00000000
10000000
00000000
00100000
00000000
00001000
00000000
00010000
00000000
,
00001000
00000000
00000000
00001000
00000010
00000000
00000001
00000000
00000202
00000000
00000300
00000000
00002000
00000000
00003003
00000000
,
00001100
00000000
00000000
00000100
00010000
00000000
00001000
00000000
00202000
00000000
00003000
00000000
00020000
00000000
00330000
00000000
,
01100000
00000000
10000000
00000000
00100000
01000000
00010000
00000000
10010000
00000000
00010000
00000000
00100000
00001000
00010000
00000000
,
00001000
00000000
00010000
00000000
00001000
00000000
00000010
00000000
00000001
00000010
00000001
00000010
00000001
00001000
00000001
00001000
,
00000001
00000000
00000000
00000000
,
00000000
00000000
00000000
00000000
;
